osu file format v14

[General]
AudioFilename: 01. S(mile)ING!.mp3
AudioLeadIn: 0
PreviewTime: 50633
Countdown: 0
SampleSet: Soft
StackLeniency: 0.7
Mode: 0
LetterboxInBreaks: 0
WidescreenStoryboard: 1

[Editor]
Bookmarks: 111475,173329
DistanceSpacing: 1.5
BeatDivisor: 8
GridSize: 4
TimelineZoom: 2.899999

[Metadata]
Title:S(mile)ING!
TitleUnicode:S(mile)ING!
Artist:Shimamura Uzuki (CV: Ohashi Ayaka)
ArtistUnicode:島村卯月 (CV: 大橋彩香)
Creator:Rukaru
Version:Insane
Source:THE iDOLM@STER Cinderella Girls
Tags:raheta_adi Runa_Hime ramadwipa [Sc4v4ng3r] [scavanger] idolmaster smile sing imas アイドルマスター シンデレラガールズ
BeatmapID:887238
BeatmapSetID:369679

[Difficulty]
HPDrainRate:7
CircleSize:4
OverallDifficulty:8
ApproachRate:8.6
SliderMultiplier:1.6
SliderTickRate:1

[Events]
//Background and Video events
0,0,"bg_shimamu02.jpg",0,0
//Break Periods
2,154821,159356
2,192574,195760
//Storyboard Layer 0 (Background)
//Storyboard Layer 1 (Fail)
//Storyboard Layer 2 (Pass)
//Storyboard Layer 3 (Foreground)
//Storyboard Sound Samples

[TimingPoints]
914,337.078651685393,4,2,1,50,1,0
914,-166.666666666667,4,2,1,50,0,0
1251,-166.666666666667,4,2,1,30,0,0
3610,-166.666666666667,4,2,1,50,0,0
3947,-166.666666666667,4,2,1,30,0,0
5970,-166.666666666667,4,2,1,40,0,0
6307,-166.666666666667,4,2,1,50,0,0
6644,-166.666666666667,4,2,1,40,0,0
9003,-166.666666666667,4,2,1,30,0,0
10183,-166.666666666667,4,2,1,30,0,0
10689,-125,4,2,1,40,0,0
11026,-125,4,2,1,50,0,0
11700,-111.111111111111,4,2,1,60,0,0
14060,-111.111111111111,4,2,1,60,0,0
15408,-111.111111111111,4,2,1,60,0,0
16588,-111.111111111111,4,2,0,40,0,0
17093,-111.111111111111,4,2,1,60,0,0
20970,-111.111111111111,4,2,0,40,0,0
21307,-111.111111111111,4,2,0,60,0,0
21644,-111.111111111111,4,2,0,40,0,0
22318,-111.111111111111,4,2,1,60,0,0
33273,-142.857142857143,4,2,3,60,0,0
35633,-142.857142857143,4,2,0,60,0,0
35970,-142.857142857143,4,2,3,60,0,0
38329,-142.857142857143,4,2,0,60,0,0
38666,-142.857142857143,4,2,3,60,0,0
41026,-142.857142857143,4,2,0,60,0,0
41363,-142.857142857143,4,2,1,60,0,0
44060,-125,4,2,1,60,0,0
48442,-166.666666666666,4,2,1,60,0,0
49453,-125,4,2,1,60,0,0
50801,-111.111111111111,4,2,1,60,0,1
69678,-111.111111111111,4,2,1,60,0,0
77262,-111.111111111111,4,2,0,60,0,0
77767,-111.111111111111,4,2,1,60,0,0
82655,-111.111111111111,4,2,0,60,0,0
83161,-111.111111111111,4,2,1,60,0,0
83498,-111.111111111111,4,2,1,40,0,0
83666,-111.111111111111,4,2,1,60,0,0
93947,-142.857142857143,4,2,3,60,0,0
96307,-142.857142857143,4,2,0,60,0,0
96644,-142.857142857143,4,2,3,60,0,0
99003,-142.857142857143,4,2,0,60,0,0
99340,-142.857142857143,4,2,3,60,0,0
101700,-142.857142857143,4,2,0,60,0,0
101869,-142.857142857143,4,2,3,60,0,0
103048,-142.857142857143,4,2,1,60,0,0
104734,-125,4,2,1,60,0,0
108779,-166.666666666667,4,2,1,60,0,0
110127,-125,4,2,1,60,0,0
111475,-100,4,2,1,60,0,1
122262,-100,4,2,1,60,0,1
130352,-111.111111111111,4,2,1,60,0,0
154621,-200,4,2,1,60,0,0
159678,-133.333333333333,4,2,1,60,0,0
160015,-100,4,2,1,60,0,1
165408,-100,4,2,1,60,0,1
173329,-100,4,2,1,60,0,0
173498,-100,4,2,1,60,0,1
192374,-100,4,2,1,60,0,0
196419,-125,4,2,1,60,0,1
196588,-125,4,2,1,60,0,0

[Colours]
Combo1 : 255,204,255
Combo2 : 0,128,128
Combo3 : 0,255,128
Combo4 : 149,0,74

[HitObjects]
192,112,914,6,0,L|239:108,1,47.9999985351563,2|0,0:0|0:0,0:0:0:0:
156,199,1251,2,0,L|204:196,1,47.9999985351563
176,88,1588,2,0,L|280:96,1,95.9999970703126,2|0,0:0|0:0,0:0:0:0:
144,180,2093,2,0,L|40:188,2,95.9999970703126,2|2|2,0:0|0:0|0:0,0:0:0:0:
144,180,3105,1,0,0:0:0:0:
320,112,3610,6,0,L|273:108,1,47.9999985351563,2|0,0:0|0:0,0:0:0:0:
356,199,3947,2,0,L|308:196,1,47.9999985351563
336,88,4284,2,0,L|232:96,1,95.9999970703126,2|0,0:0|0:0,0:0:0:0:
368,180,4789,2,0,L|472:188,2,95.9999970703126,2|2|2,0:0|0:0|0:0,0:0:0:0:
368,180,5801,1,0,0:0:0:0:
312,116,5970,2,0,P|276:126|240:144,1,71.9999978027344,2|0,0:0|0:0,0:0:0:0:
229,158,6307,6,0,P|224:111|231:64,1,95.9999970703126,0|0,3:0|0:0,0:0:0:0:
156,24,6812,1,0,0:0:0:0:
80,68,6981,2,0,L|88:120,1,47.9999985351563,2|0,0:0|0:0,0:0:0:0:
48,192,7318,1,0,0:0:0:0:
48,192,7487,2,0,L|44:244,1,47.9999985351563,2|0,0:0|0:0,0:0:0:0:
156,212,7824,2,0,L|160:264,1,47.9999985351563,2|0,0:0|0:0,0:0:0:0:
56,208,8161,2,0,P|48:256|64:308,1,95.9999970703126,2|0,0:0|0:0,0:0:0:0:
152,268,8666,1,0,0:0:0:0:
200,340,8835,1,0,0:0:0:0:
280,288,9003,6,0,B|352:296|352:296|376:316,1,95.9999970703126,0|0,0:0|3:0,0:0:0:0:
436,364,9509,1,0,3:0:0:0:
484,291,9678,2,0,P|493:245|483:198,1,95.9999970703126,0|0,3:0|3:0,0:0:0:0:
424,136,10183,1,2,0:0:0:0:
424,136,10267,1,2,0:0:0:0:
424,136,10352,5,2,0:0:0:0:
352,184,10520,1,0,0:0:0:0:
284,132,10689,2,0,L|218:123,1,64
180,216,11026,2,0,L|256:204,1,64
189,43,11363,2,0,L|122:53,1,64,8|0,0:0|0:0,0:0:0:0:
88,144,11700,6,0,L|244:120,1,143.999995605469,2|8,0:0|0:0,0:0:0:0:
284,200,12206,1,8,0:0:0:0:
276,292,12374,1,0,0:0:0:0:
184,316,12543,1,0,0:0:0:0:
104,275,12711,2,0,B|156:264|156:264|196:272|196:272|256:260,1,143.999995605469,8|0,0:0|0:0,0:0:0:0:
316,312,13217,1,0,0:0:0:0:
388,268,13385,1,8,0:0:0:0:
388,268,13554,1,8,0:0:0:0:
468,296,13722,2,0,P|476:330|467:365,1,71.9999978027344
315,311,14060,6,0,P|303:243|348:188,1,143.999995605469,8|2,0:0|0:0,0:0:0:0:
432,200,14565,1,0,0:0:0:0:
492,136,14734,1,8,0:0:0:0:
464,56,14902,1,8,0:0:0:0:
380,40,15071,1,0,0:0:0:0:
340,116,15239,2,0,L|264:120,1,71.9999978027344,0|8,0:0|0:0,0:0:0:0:
156,32,15576,2,0,L|300:40,1,143.999995605469,2|2,0:0|0:0,0:0:0:0:
340,116,16082,1,8,0:0:0:0:
288,188,16251,2,0,P|288:244|300:272,1,71.9999978027344
368,300,16588,5,8,0:0:0:0:
340,116,16756,1,8,0:0:0:0:
331,128,17093,6,0,P|256:144|190:119,1,143.999995605469,2|8,0:0|0:0,0:0:0:0:
120,80,17599,1,0,0:0:0:0:
36,104,17767,2,0,P|20:72|22:36,1,71.9999978027344
96,168,18105,2,0,P|111:199|109:235,1,71.9999978027344,8|0,0:0|0:0,0:0:0:0:
120,80,18442,2,0,L|276:96,1,143.999995605469,2|8,0:0|0:0,0:0:0:0:
332,40,18947,1,0,0:0:0:0:
340,128,19116,1,0,0:0:0:0:
412,80,19284,1,0,0:0:0:0:
424,164,19453,2,0,P|430:199|423:233,1,71.9999978027344,8|0,0:0|0:0,0:0:0:0:
360,291,19790,6,0,P|428:279|477:327,1,143.999995605469,2|8,0:0|0:0,0:0:0:0:
312,364,20296,1,2,0:0:0:0:
312,364,20464,2,0,L|224:352,1,71.9999978027344
160,320,20801,1,8,0:0:0:0:
79,288,20970,2,0,P|44:291|12:308,1,71.9999978027344,2|0,0:0|0:0,0:0:0:0:
204,240,21307,2,0,L|192:152,1,71.9999978027344,2|0,0:0|0:0,0:0:0:0:
79,288,21644,2,0,P|76:320|84:360,1,71.9999978027344,2|0,0:0|0:0,0:0:0:0:
120,204,21981,1,8,0:0:0:0:
120,204,22149,2,0,L|32:200,1,71.9999978027344,8|0,0:0|0:0,0:0:0:0:
148,103,22487,6,0,P|217:97|269:143,1,143.999995605469,0|8,0:0|0:0,0:0:0:0:
300,224,22992,1,8,0:0:0:0:
388,160,23161,2,0,L|459:167,1,71.9999978027344
392,56,23498,2,0,L|320:48,1,71.9999978027344,8|0,0:0|0:0,0:0:0:0:
134,66,23835,2,0,P|204:64|260:116,1,143.999995605469,0|8,0:0|0:0,0:0:0:0:
256,200,24340,1,8,0:0:0:0:
176,144,24509,2,0,L|168:216,1,71.9999978027344
328,112,24846,1,8,0:0:0:0:
244,72,25015,1,0,0:0:0:0:
244,72,25183,6,0,B|240:108|240:108|265:212,1,143.999995605469,0|10,0:0|0:0,0:0:0:0:
336,164,25689,1,0,0:0:0:0:
416,236,25857,2,0,L|486:249,1,71.9999978027344,2|0,0:0|0:0,0:0:0:0:
324,292,26195,1,8,0:0:0:0:
324,292,26363,2,0,P|292:278|256:277,1,71.9999978027344,2|0,0:0|0:0,0:0:0:0:
248,168,26700,2,0,P|214:181|188:205,1,71.9999978027344,2|8,0:0|0:0,0:0:0:0:
112,300,27037,2,0,P|109:228|94:157,1,143.999995605469,2|0,0:0|0:0,0:0:0:0:
16,116,27543,1,8,0:0:0:0:
94,157,27711,1,0,0:0:0:0:
168,107,27880,6,0,P|238:97|301:129,1,143.999995605469,0|8,0:0|0:0,0:0:0:0:
360,192,28385,1,8,0:0:0:0:
384,108,28554,1,0,0:0:0:0:
324,44,28722,1,0,0:0:0:0:
360,192,28891,2,0,L|352:272,1,71.9999978027344,8|0,0:0|0:0,0:0:0:0:
468,308,29228,1,2,0:0:0:0:
468,308,29397,2,0,L|464:228,1,71.9999978027344,2|8,0:0|0:0,0:0:0:0:
352,263,29734,2,0,B|320:268|296:260|296:260|264:292|208:280,1,143.999995605469,2|0,0:0|0:0,0:0:0:0:
236,195,30239,2,0,P|266:177|302:174,1,71.9999978027344,8|0,0:0|0:0,0:0:0:0:
151,215,30576,6,0,P|144:181|151:146,1,71.9999978027344,2|0,0:0|0:0,0:0:0:0:
216,88,30913,1,8,0:0:0:0:
160,24,31082,2,0,P|88:27|16:18,1,143.999995605469,8|0,0:0|0:0,0:0:0:0:
41,171,31588,2,0,P|44:135|44:100,1,71.9999978027344,8|0,0:0|0:0,0:0:0:0:
132,180,31925,2,0,B|120:296|120:296|124:323,1,143.999995605469,2|8,0:0|0:0,0:0:0:0:
196,372,32430,1,8,0:0:0:0:
272,312,32599,2,2,L|343:318,1,71.9999978027344,2|0,0:0|0:0,0:1:0:0:
436,216,32936,2,2,L|507:222,1,71.9999978027344,2|0,0:0|0:1,0:1:0:0:
343,231,33273,6,2,P|326:179|334:124,1,111.999996582031,0|0,0:0|0:0,0:1:0:0:
392,60,33779,1,8,0:0:0:0:
456,112,33947,2,0,L|452:168,1,55.9999982910157,8|0,0:0|0:0,0:0:0:0:
392,60,34284,2,0,P|337:67|282:59,1,111.999996582031,2|0,0:0|0:0,0:0:0:0:
200,36,34790,1,0,0:0:0:0:
156,108,34958,1,0,0:0:0:0:
80,68,35127,1,8,0:0:0:0:
80,68,35296,2,0,L|68:128,1,55.9999982910157,8|0,0:0|0:0,0:0:0:0:
212,212,35633,2,0,L|222:157,1,55.9999982910157,8|0,0:0|0:0,0:0:0:0:
344,304,35970,6,2,P|292:321|244:296,1,111.999996582031,0|0,0:0|0:0,0:1:0:0:
212,212,36475,1,8,0:0:0:0:
144,259,36644,2,0,L|148:320,1,55.9999982910157,8|0,0:0|0:0,0:0:0:0:
300,242,36981,2,0,P|304:188|275:141,1,111.999996582031,2|0,0:0|0:0,0:0:0:0:
204,100,37487,1,0,0:0:0:0:
276,56,37655,1,0,0:0:0:0:
212,212,37824,1,8,0:0:0:0:
212,212,37992,2,0,L|152:208,1,55.9999982910157,8|0,0:0|0:0,0:0:0:0:
36,314,38329,2,0,L|68:268,1,55.9999982910157,8|0,0:0|0:0,0:0:0:0:
43,113,38666,6,0,L|68:164,1,55.9999982910157,2|0,0:1|0:0,0:0:0:0:
193,115,39003,2,0,P|140:104|108:55,1,111.999996582031,2|0,0:1|0:0,0:0:0:0:
192,32,39509,1,0,0:0:0:0:
110,48,39678,2,2,P|108:103|99:159,1,111.999996582031,0|0,0:0|0:0,0:1:0:0:
253,347,40352,2,0,L|264:236,2,111.999996582031,0|0|8,0:0|0:0|0:0,0:0:0:0:
180,304,41194,1,0,0:0:0:0:
99,324,41363,6,0,P|49:303|32:251,1,111.999996582031,2|0,0:0|0:0,0:0:0:0:
256,136,42037,2,0,L|376:144,1,111.999996582031,0|8,0:0|0:0,0:0:0:0:
436,192,42543,1,0,0:0:0:0:
452,44,42711,2,0,L|336:60,1,111.999996582031,2|0,0:0|0:0,0:0:0:0:
504,120,43385,2,0,L|388:136,1,111.999996582031,2|8,0:0|0:0,0:0:0:0:
136,176,44060,6,0,P|197:168|247:206,1,128,4|8,0:0|0:0,0:0:0:0:
92,248,44565,1,8,0:0:0:0:
176,252,44734,2,0,L|168:324,1,64
60,164,45071,2,0,P|56:132|67:100,1,64,8|0,0:0|0:0,0:0:0:0:
132,284,45408,2,0,B|20:292|20:292|31:280,1,128,2|8,0:0|0:0,0:0:0:0:
220,184,45913,2,0,P|254:236|241:297,1,128,2|0,0:0|0:0,0:0:0:0:
148,140,46419,2,0,L|151:76,1,64,10|0,0:0|0:0,0:0:0:0:
176,252,46756,5,4,0:0:0:0:
136,64,47093,1,4,0:0:0:0:
312,108,48105,5,0,0:0:0:0:
313,107,48442,2,0,B|359:87|359:87|403:95|403:95|459:95|483:47,1,191.999994140625,2|2,0:0|0:0,0:0:0:0:
240,52,49453,6,0,L|172:44,1,64,2|0,0:0|0:0,0:0:0:0:
36,128,49790,1,8,0:0:0:0:
180,212,49958,1,8,0:0:0:0:
176,44,50127,2,0,L|168:108,1,64,2|0,0:0|0:0,0:0:0:0:
92,248,50464,2,0,L|88:184,1,64,2|0,0:0|0:0,0:0:0:0:
208,116,50801,6,0,P|192:187|243:244,1,143.999995605469,4|8,0:0|0:0,0:0:0:0:
396,176,51307,1,8,0:0:0:0:
296,264,51475,1,0,0:0:0:0:
312,120,51644,1,0,0:0:0:0:
208,220,51812,2,0,P|172:224|137:216,1,71.9999978027344,8|0,0:0|0:0,0:0:0:0:
396,176,52149,6,0,P|473:189|489:257,1,143.999995605469,0|8,0:0|0:0,0:0:0:0:
320,208,52655,1,8,0:0:0:0:
416,332,52824,1,0,0:0:0:0:
396,176,52992,1,0,0:0:0:0:
288,280,53161,2,0,L|296:360,1,71.9999978027344,8|0,0:0|0:0,0:0:0:0:
319,208,53498,6,0,P|260:252|192:244,1,143.999995605469,0|8,0:0|0:0,0:0:0:0:
240,164,54003,1,8,0:0:0:0:
136,308,54172,2,0,B|132:344|132:344|146:376,1,71.9999978027344
144,172,54509,2,0,L|136:100,1,71.9999978027344,10|0,0:0|0:0,0:0:0:0:
248,252,54846,6,0,L|244:323,1,71.9999978027344,2|0,0:0|0:0,0:0:0:0:
414,221,55183,2,0,B|388:204|388:204|348:200,1,71.9999978027344,10|0,0:0|0:0,0:0:0:0:
328,284,55520,1,2,0:0:0:0:
496,200,55689,1,2,0:0:0:0:
344,104,55857,1,10,0:0:0:0:
352,116,56194,6,0,B|312:120|312:120|256:112|256:112|209:119,1,143.999995605469,4|8,0:0|0:0,0:0:0:0:
32,152,56700,1,8,0:0:0:0:
204,206,56869,1,0,0:0:0:0:
145,76,57037,1,0,0:0:0:0:
101,220,57206,2,0,P|102:261|110:293,1,71.9999978027344,8|0,0:0|0:0,0:0:0:0:
217,104,57543,6,0,B|96:92|96:92|117:109,1,143.999995605469,0|10,0:0|0:0,0:0:0:0:
298,145,58048,2,0,B|420:133|420:133|399:150,1,143.999995605469,2|2,0:0|0:0,0:0:0:0:
244,208,58554,2,0,P|243:254|252:280,1,71.9999978027344,10|0,0:0|0:0,0:0:0:0:
376,102,58891,6,2,L|366:24,1,71.9999978027344,0|0,0:0|0:0,0:1:0:0:
239,124,59228,2,2,L|246:44,1,71.9999978027344,0|0,0:0|0:0,0:1:0:0:
108,107,59565,2,2,L|103:27,1,71.9999978027344,0|0,0:0|0:0,0:1:0:0:
167,173,59902,6,0,P|100:194|40:160,2,143.999995605469,6|0|8,0:0|0:0|0:0,0:1:0:0:
172,188,60913,2,0,L|243:192,1,71.9999978027344
322,142,61250,1,8,0:0:0:0:
309,133,61588,6,0,P|283:197|316:259,1,143.999995605469,4|8,0:0|0:0,0:0:0:0:
384,92,62093,1,8,0:0:0:0:
206,122,62262,2,0,B|168:120|168:120|135:102,1,71.9999978027344
297,37,62599,1,8,0:0:0:0:
225,201,62767,1,0,0:0:0:0:
404,180,62936,6,0,P|421:112|392:44,1,143.999995605469,0|8,0:0|0:0,0:0:0:0:
310,119,63442,1,8,0:0:0:0:
492,157,63610,2,0,B|493:192|493:192|487:230,1,71.9999978027344
345,31,63947,2,0,L|423:24,1,71.9999978027344,8|0,0:0|0:0,0:0:0:0:
227,112,64284,6,0,P|158:109|111:52,1,143.999995605469,0|8,0:0|0:0,0:0:0:0:
309,59,64790,1,8,0:0:0:0:
309,59,64958,2,0,L|387:52,1,71.9999978027344
313,225,65296,2,0,P|298:192|296:157,1,71.9999978027344,8|0,0:0|0:0,0:0:0:0:
389,286,65633,6,0,P|386:321|371:354,1,71.9999978027344,2|0,0:0|0:0,0:0:0:0:
233,263,65970,2,0,L|153:275,1,71.9999978027344,2|0,0:0|0:0,0:0:0:0:
8,194,66307,2,0,L|79:183,1,71.9999978027344,2|2,0:0|0:0,0:0:0:0:
197,56,66644,2,0,L|125:66,1,71.9999978027344,2|0,0:0|0:0,0:0:0:0:
288,106,66981,6,0,P|344:65|413:77,1,143.999995605469,4|0,0:0|0:0,0:0:0:0:
245,179,67487,1,0,0:0:0:0:
245,179,67655,2,0,B|208:184|208:184|174:177,1,71.9999978027344,4|0,0:0|0:0,0:0:0:0:
349,230,67992,2,0,B|386:225|386:225|420:232,1,71.9999978027344
255,350,68329,6,0,L|263:279,1,71.9999978027344,4|0,0:0|0:0,0:0:0:0:
86,219,68666,2,0,L|94:290,1,71.9999978027344
164,121,69003,2,0,P|153:88|157:52,1,71.9999978027344,2|0,0:1|0:0,0:0:0:0:
330,165,69340,2,0,P|333:200|322:234,1,71.9999978027344,2|0,0:1|0:0,0:0:0:0:
261,103,69678,1,4,0:0:0:0:
252,108,70015,6,0,L|172:104,1,71.9999978027344,8|8,0:0|0:0,0:0:0:0:
68,128,70352,1,0,0:0:0:0:
116,24,70520,1,0,0:0:0:0:
180,120,70689,2,0,L|172:196,1,71.9999978027344,8|0,0:0|0:0,0:0:0:0:
88,336,71026,1,2,0:0:0:0:
88,336,71194,2,0,L|84:264,1,71.9999978027344,2|0,0:0|0:0,0:0:0:0:
188,312,71531,2,0,P|240:304|268:292,1,71.9999978027344,2|0,0:0|0:0,0:0:0:0:
372,272,71869,2,0,P|420:280|456:288,1,71.9999978027344,2|0,0:0|0:0,0:0:0:0:
375,64,72374,6,0,P|320:106|249:100,1,143.999995605469,0|8,0:0|0:0,0:0:0:0:
184,44,72880,1,8,0:0:0:0:
104,72,73048,2,0,P|104:120|112:148,1,71.9999978027344
187,183,73385,2,0,P|118:174|61:215,1,143.999995605469,8|0,0:0|0:0,0:0:0:0:
60,302,73891,1,0,0:0:0:0:
143,277,74060,1,8,0:0:0:0:
122,360,74228,1,8,0:0:0:0:
227,312,74397,2,0,P|261:304|297:305,1,71.9999978027344
441,350,74734,6,0,P|383:311|372:242,1,143.999995605469,8|2,0:0|0:0,0:0:0:0:
455,265,75239,1,0,0:0:0:0:
458,178,75408,1,8,0:0:0:0:
384,133,75576,1,8,0:0:0:0:
298,141,75744,1,0,0:0:0:0:
231,85,75913,2,0,P|224:50|234:16,1,71.9999978027344,0|8,0:0|0:0,0:0:0:0:
282,154,76251,2,0,L|268:297,1,143.999995605469,2|2,0:0|0:0,0:0:0:0:
201,351,76756,1,8,0:0:0:0:
137,292,76925,2,0,P|101:285|67:295,1,71.9999978027344
16,365,77262,5,8,0:0:0:0:
81,190,77430,1,8,0:0:0:0:
70,201,77767,6,0,P|136:217|208:196,1,143.999995605469,2|8,0:0|0:0,0:0:0:0:
277,144,78273,1,0,0:0:0:0:
227,72,78442,2,0,L|148:86,1,71.9999978027344
290,152,78779,2,0,L|369:138,1,71.9999978027344,8|0,0:0|0:0,0:0:0:0:
486,56,79116,2,0,B|467:101|467:101|479:198,1,143.999995605469,2|8,0:0|0:0,0:0:0:0:
473,282,79621,1,0,0:0:0:0:
399,236,79790,1,0,0:0:0:0:
392,321,79958,1,0,0:0:0:0:
319,273,80127,2,0,L|323:188,1,71.9999978027344,8|0,0:0|0:0,0:0:0:0:
372,130,80464,6,0,P|310:164|240:154,1,143.999995605469,2|8,0:0|0:0,0:0:0:0:
348,54,80970,1,2,0:0:0:0:
348,53,81138,2,0,P|383:48|415:62,1,71.9999978027344
461,137,81475,1,8,0:0:0:0:
402,200,81644,2,0,P|400:235|407:271,1,71.9999978027344,2|0,0:0|0:0,0:0:0:0:
316,152,81981,2,0,L|244:146,1,71.9999978027344,2|0,0:0|0:0,0:0:0:0:
118,77,82318,2,0,B|155:69|155:69|189:71,1,71.9999978027344,2|0,0:0|0:0,0:0:0:0:
253,165,82655,1,8,0:0:0:0:
253,165,82824,2,0,P|257:200|247:234,1,71.9999978027344,8|0,0:0|0:0,0:0:0:0:
198,353,83161,6,0,P|258:317|328:328,1,143.999995605469,0|8,0:0|0:0,0:0:0:0:
403,370,83666,1,0,0:0:0:0:
473,319,83835,2,0,L|466:240,1,71.9999978027344
387,189,84172,2,0,L|381:261,1,71.9999978027344,8|0,0:0|0:0,0:0:0:0:
462,146,84509,2,0,P|409:102|340:114,1,143.999995605469,0|8,0:0|0:0,0:0:0:0:
283,175,85015,1,8,0:0:0:0:
221,116,85183,2,0,L|227:44,1,71.9999978027344
121,157,85520,2,0,P|117:192|128:226,1,71.9999978027344,8|0,0:0|0:0,0:0:0:0:
208,327,85857,6,0,P|140:305|76:348,1,143.999995605469,0|10,0:0|0:0,0:0:0:0:
16,282,86363,1,0,0:0:0:0:
58,182,86531,2,0,L|45:111,1,71.9999978027344,2|0,0:0|0:0,0:0:0:0:
131,228,86869,1,10,0:0:0:0:
131,228,87037,2,0,B|168:227|168:227|200:215,1,71.9999978027344,2|0,0:0|0:0,0:0:0:0:
296,260,87374,2,0,P|301:225|302:189,1,71.9999978027344,2|8,0:0|0:0,0:0:0:0:
407,217,87711,2,0,P|383:150|370:79,1,143.999995605469,2|0,0:0|0:0,0:0:0:0:
477,67,88217,2,0,L|473:138,1,71.9999978027344,8|0,0:0|0:0,0:0:0:0:
372,60,88554,6,0,P|304:43|239:72,1,143.999995605469,0|8,0:0|0:0,0:0:0:0:
142,183,89060,2,0,P|210:200|275:171,1,143.999995605469
247,282,89565,2,0,P|248:317|262:350,1,71.9999978027344,8|0,0:0|0:0,0:0:0:0:
356,241,89902,1,2,0:0:0:0:
356,241,90071,2,0,L|359:169,1,71.9999978027344,2|8,0:0|0:0,0:0:0:0:
442,317,90408,2,0,B|370:337|370:337|299:326,1,143.999995605469,2|2,0:0|0:0,0:0:0:0:
208,259,90913,1,8,0:0:0:0:
133,347,91082,1,0,0:0:0:0:
196,250,91251,6,0,L|193:172,1,71.9999978027344,2|0,0:0|0:0,0:0:0:0:
163,97,91588,1,8,0:0:0:0:
272,199,91756,2,0,P|341:206|392:158,1,143.999995605469,8|0,0:0|0:0,0:0:0:0:
343,26,92262,2,0,P|335:61|341:97,1,71.9999978027344,8|0,0:0|0:0,0:0:0:0:
465,198,92599,2,0,L|448:343,1,143.999995605469,2|0,0:0|0:0,0:0:0:0:
360,289,93105,1,0,0:0:0:0:
258,289,93273,2,2,L|183:302,1,71.9999978027344,0|0,0:0|0:0,0:1:0:0:
78,292,93610,2,2,L|7:305,1,71.9999978027344,0|0,0:0|0:0,0:1:0:0:
141,197,93947,6,2,P|193:181|241:207,1,111.999996582031,0|0,0:0|0:0,0:1:0:0:
273,284,94453,1,8,0:0:0:0:
320,184,94621,2,0,L|316:116,1,55.9999982910157,8|0,0:0|0:0,0:0:0:0:
379,245,94958,2,0,P|427:270|478:253,1,111.999996582031,2|0,0:0|0:0,0:0:0:0:
489,168,95464,1,0,0:0:0:0:
426,111,95633,1,0,0:0:0:0:
365,168,95801,1,8,0:0:0:0:
365,168,95970,2,0,L|302:164,1,55.9999982910157,8|0,0:0|0:0,0:0:0:0:
204,219,96307,2,0,P|212:193|215:165,1,55.9999982910157,8|0,0:0|0:0,0:0:0:0:
93,257,96644,6,2,L|103:145,1,111.999996582031,0|0,0:0|0:0,0:1:0:0:
62,72,97149,1,8,0:0:0:0:
83,258,97318,2,0,L|85:323,1,55.9999982910157,8|0,0:0|0:0,0:0:0:0:
253,201,97655,2,0,P|203:180|155:206,1,111.999996582031,2|0,0:0|0:0,0:0:0:0:
307,266,98161,1,0,0:0:0:0:
224,281,98329,1,0,0:0:0:0:
233,129,98498,1,8,0:0:0:0:
233,129,98666,2,0,L|226:73,1,55.9999982910157,8|0,0:0|0:0,0:0:0:0:
347,135,99003,2,0,P|346:162|339:190,1,55.9999982910157,8|0,0:0|0:0,0:0:0:0:
464,141,99340,6,0,L|473:25,2,111.999996582031,2|2|0,0:1|0:1|0:0,0:1:0:0:
420,212,100183,1,0,0:0:0:0:
463,283,100352,2,2,P|411:267|361:290,1,111.999996582031,0|0,0:0|0:0,0:1:0:0:
48,283,101026,2,0,P|100:267|150:290,2,111.999996582031,0|0|8,0:0|0:0|0:0,0:0:0:0:
92,356,101869,1,0,0:0:0:0:
48,283,102037,6,0,L|36:171,1,111.999996582031
202,48,102711,2,0,P|254:31|307:48,1,111.999996582031,0|8,0:0|0:0,0:0:0:0:
255,122,103217,1,0,0:0:0:0:
255,208,103385,2,0,B|271:269|234:269|255:317,1,111.999996582031,2|0,0:0|0:0,0:0:0:0:
464,283,104060,2,0,L|475:171,1,111.999996582031,2|8,0:0|0:0,0:0:0:0:
411,117,104565,1,0,0:0:0:0:
463,283,104734,6,0,P|401:291|340:272,1,128,4|8,0:0|0:0,0:0:0:0:
238,224,105239,1,8,0:0:0:0:
97,289,105408,1,0,0:0:0:0:
173,152,105576,1,0,0:0:0:0:
192,308,105745,1,8,0:0:0:0:
85,194,105913,1,0,0:0:0:0:
255,112,106082,2,0,L|385:118,1,128,2|0,0:0|0:0,0:0:0:0:
173,152,106588,2,0,P|109:160|47:147,1,128,2|0,0:0|0:0,0:0:0:0:
92,70,107093,2,0,L|88:6,1,64,2|0,0:0|0:0,0:0:0:0:
109,197,107430,5,4,0:0:0:0:
77,6,107767,1,4,0:0:0:0:
199,109,108779,5,0,0:0:0:0:
199,109,109116,2,0,B|246:73|299:97|299:97|350:85|355:39,1,191.999994140625,2|2,0:0|0:0,0:0:0:0:
258,170,110127,6,0,L|264:244,1,64,2|0,0:0|0:0,0:0:0:0:
412,321,110464,1,8,0:0:0:0:
364,146,110633,1,8,0:0:0:0:
326,297,110801,2,0,L|319:367,1,64,2|0,0:0|0:0,0:0:0:0:
451,163,111138,2,0,P|450:120|438:97,1,64,2|0,0:0|0:0,0:0:0:0:
310,31,111475,6,0,L|470:18,1,160,4|8,0:0|0:0,0:0:0:0:
329,123,111981,1,8,0:0:0:0:
288,200,112149,2,0,P|293:249|308:277,1,80
455,317,112487,1,8,0:0:0:0:
415,168,112655,1,0,0:0:0:0:
307,275,112824,2,0,B|229:302|228:252|151:283,1,160,0|8,0:0|0:0,0:0:0:0:
194,359,113329,1,8,0:0:0:0:
266,206,113498,2,0,B|261:166|261:166|241:132,1,80
180,192,113835,1,8,0:0:0:0:
273,307,114003,1,0,0:0:0:0:
449,197,114172,6,0,P|402:142|323:150,1,160,0|8,0:0|0:0,0:0:0:0:
369,224,114678,1,8,0:0:0:0:
321,151,114846,2,0,L|328:71,1,80
441,271,115183,2,0,L|434:351,1,80,10|0,0:0|0:0,0:0:0:0:
491,126,115520,2,0,P|453:113|412:121,1,80,2|0,0:0|0:0,0:0:0:0:
277,229,115857,2,0,P|273:268|289:304,1,80,10|0,0:0|0:0,0:0:0:0:
369,340,116194,1,2,0:0:0:0:
497,206,116363,1,2,0:0:0:0:
322,150,116531,1,10,0:0:0:0:
321,150,116869,6,0,P|246:169|182:126,1,160,4|8,0:0|0:0,0:0:0:0:
264,67,117374,1,8,0:0:0:0:
116,182,117543,2,0,L|36:169,1,80
205,254,117880,2,0,P|210:285|199:338,1,80,8|0,0:0|0:0,0:0:0:0:
286,181,118217,2,0,B|344:180|344:180|390:195|390:195|443:195,1,160,0|10,0:0|0:0,0:0:0:0:
226,117,118722,2,0,B|168:118|168:118|122:103|122:103|68:103,1,160,2|2,0:0|0:0,0:0:0:0:
199,35,119228,2,0,B|244:35|244:35|279:50,1,80,10|0,0:0|0:0,0:0:0:0:
102,187,119565,6,2,L|89:278,1,80,4|0,0:0|0:0,0:1:0:0:
257,233,119902,2,2,L|257:313,1,80,0|0,0:0|0:0,0:1:0:0:
410,187,120239,2,2,L|423:278,1,80,0|0,0:0|0:0,0:1:0:0:
330,137,120576,2,0,P|396:95|471:117,2,160,6|0|8,0:0|0:0|0:0,0:0:0:0:
336,144,121588,2,0,P|338:205|332:234,1,80
291,296,121925,1,8,0:0:0:0:
291,296,122262,6,0,P|223:257|148:279,1,160,4|8,0:0|0:0,0:0:0:0:
98,349,122767,1,8,0:0:0:0:
136,179,122936,1,0,0:0:0:0:
14,242,123105,1,0,0:0:0:0:
98,349,123273,2,0,L|101:264,1,80,8|0,0:0|0:0,0:0:0:0:
177,142,123610,2,0,L|197:300,1,160,0|8,0:0|0:0,0:0:0:0:
265,358,124116,1,8,0:0:0:0:
393,297,124284,2,0,L|385:209,1,80
312,156,124621,2,0,P|294:191|297:231,1,80,8|0,0:0|0:0,0:0:0:0:
466,345,124958,6,0,B|498:264|444:261|466:188,1,160,0|8,0:0|0:0,0:0:0:0:
493,105,125464,1,8,0:0:0:0:
408,130,125633,2,0,L|323:122,1,80
228,183,125970,1,8,0:0:0:0:
326,259,126138,1,0,0:0:0:0:
334,129,126307,2,0,L|330:44,1,80,2|0,0:0|0:0,0:0:0:0:
227,183,126644,2,0,P|215:220|225:258,1,80,10|0,0:0|0:0,0:0:0:0:
286,322,126981,1,2,0:0:0:0:
130,223,127149,1,2,0:0:0:0:
262,107,127318,2,0,L|352:113,1,80,10|0,0:0|0:0,0:0:0:0:
227,183,127655,6,0,P|140:180|97:129,1,160,4|0,0:0|0:0,0:0:0:0:
163,44,128161,1,0,0:0:0:0:
96,128,128329,2,0,L|89:208,1,80,4|0,0:0|0:0,0:0:0:0:
45,320,128666,2,0,P|88:309|130:317,1,80
234,357,129003,2,0,L|323:353,1,80,4|0,0:0|0:0,0:0:0:0:
416,291,129340,2,0,P|423:252|411:214,1,80
326,129,129678,2,0,L|331:49,1,80,4|0,0:0|0:0,0:0:0:0:
224,196,130015,2,0,B|184:207|184:207|137:205,1,80,4|0,0:0|0:0,0:0:0:0:
296,262,130352,6,2,P|348:216|418:221,1,143.999995605469,4|8,0:0|0:0,0:1:0:0:
456,300,130857,1,8,0:0:0:0:
423,211,131026,2,0,P|419:176|424:140,1,71.9999978027344
476,72,131363,1,8,0:0:0:0:
475,72,131531,2,2,P|407:91|341:65,1,143.999995605469,0|0,0:0|0:0,0:1:0:0:
276,120,132037,1,8,0:0:0:0:
320,196,132206,2,2,L|172:180,2,143.999995605469,0|0|0,0:0|0:0|0:0,0:1:0:0:
434,283,133048,6,2,P|431:318|410:347,1,71.9999978027344,0|0,0:0|0:0,0:1:0:0:
332,380,133385,1,8,0:0:0:0:
267,319,133554,2,0,P|201:293|132:307,1,143.999995605469,0|0,0:0|0:0,0:1:0:0:
64,360,134060,1,8,0:0:0:0:
132,307,134228,2,2,L|113:164,1,143.999995605469,0|0,0:0|0:0,0:1:0:0:
228,64,134734,1,8,0:0:0:0:
228,64,134903,2,0,P|236:136|224:208,1,143.999995605469,0|0,0:0|0:0,0:1:0:0:
160,264,135408,1,2,0:0:0:0:
308,156,135576,6,0,B|360:144|392:184|392:184|416:172|448:176,1,143.999995605469,4|0,0:0|0:0,0:0:0:0:
328,240,136082,1,8,0:0:0:0:
224,156,136251,2,2,B|208:128|168:116|168:116|192:152|180:196,1,143.999995605469,0|0,0:0|0:0,0:1:0:0:
248,236,136756,1,8,0:0:0:0:
182,186,136925,2,2,P|109:181|96:240,1,143.999995605469,0|0,0:0|0:0,0:1:0:0:
140,312,137430,1,8,0:0:0:0:
95,239,137599,2,2,L|75:96,1,143.999995605469,0|0,0:0|0:0,0:1:0:0:
162,54,138105,1,8,0:0:0:0:
182,186,138273,2,2,P|249:193|286:135,1,143.999995605469,0|0,0:0|0:0,0:1:0:0:
248,48,138779,5,8,0:0:0:0:
316,244,138947,2,2,L|300:312,2,53.9999983520508,0|0|0,0:0|0:0|0:0,0:1:0:0:
376,160,139326,2,0,L|368:104,2,53.9999983520508
416,240,139663,2,0,P|440:244|460:240,1,35.9999989013672
496,308,139790,2,0,P|496:343|489:379,1,71.9999978027344,4|0,0:0|0:0,0:0:0:0:
332,264,140127,1,0,0:0:0:0:
480,160,140296,1,0,0:0:0:0:
416,364,140464,2,0,L|410:292,1,71.9999978027344,4|0,0:0|0:0,0:0:0:0:
271,171,140801,2,0,P|236:168|201:177,1,71.9999978027344,4|0,0:0|0:0,0:0:0:0:
128,336,141138,6,2,P|196:333|223:270,1,143.999995605469,4|8,0:0|0:0,0:1:0:0:
152,220,141644,1,8,0:0:0:0:
304,284,141812,2,0,L|396:268,1,71.9999978027344
476,199,142149,2,0,P|474:164|460:131,1,71.9999978027344,8|0,0:0|0:0,0:0:0:0:
308,104,142487,2,0,P|324:170|391:187,1,143.999995605469,2|8,0:0|0:0,0:0:0:0:
308,104,142992,2,0,B|264:96|264:96|220:112|220:112|167:105,1,143.999995605469,2|0,0:0|0:0,0:0:0:0:
76,208,143498,6,2,P|142:191|187:242,2,143.999995605469,8|2|8,0:0|0:0|0:0,0:1:0:0:
32,296,144340,1,8,0:0:0:0:
108,352,144509,2,0,L|192:348,1,71.9999978027344
272,280,144846,2,0,P|306:271|339:284,1,71.9999978027344,8|0,0:0|0:0,0:0:0:0:
448,352,145183,2,0,B|432:328|432:328|440:212,1,143.999995605469,2|8,0:0|0:0,0:0:0:0:
332,72,145689,2,0,P|326:143|348:215,1,143.999995605469,2|0,0:0|0:0,0:0:0:0:
436,168,146194,2,0,L|420:80,1,71.9999978027344,8|0,0:0|0:0,0:0:0:0:
331,72,146531,6,0,P|264:92|204:48,1,143.999995605469,2|8,0:0|0:0,0:0:0:0:
116,28,147037,1,0,0:0:0:0:
148,120,147206,2,0,B|140:192|140:192|96:256,1,143.999995605469,2|8,0:0|0:0,0:0:0:0:
20,184,147711,2,0,P|25:148|42:117,1,71.9999978027344,2|0,0:0|0:0,0:0:0:0:
88,264,148048,2,0,L|96:344,1,71.9999978027344,2|8,0:0|0:0,0:0:0:0:
264,280,148385,2,0,P|233:261|197:261,1,71.9999978027344,2|0,0:0|0:0,0:0:0:0:
368,352,148722,1,2,0:0:0:0:
368,352,148891,2,0,B|408:352|408:352|438:342,1,71.9999978027344,10|0,0:0|0:0,0:0:0:0:
340,220,149228,6,0,L|346:148,1,71.9999978027344,6|0,0:0|0:0,0:0:0:0:
476,219,149565,1,10,0:0:0:0:
460,127,149734,1,0,0:0:0:0:
405,280,149902,2,0,L|416:351,1,71.9999978027344,2|0,0:0|0:0,0:0:0:0:
496,312,150239,1,10,0:0:0:0:
476,219,150408,1,0,0:0:0:0:
428,356,150576,2,0,P|373:313|307:334,1,143.999995605469,2|0,0:0|0:0,0:0:0:0:
307,334,151082,2,0,B|280:320|296:288|256:268|256:268|256:240|256:240|248:212,1,143.999995605469,2|0,0:0|0:0,0:0:0:0:
256,192,151588,12,0,153105,0:0:0:0:
256,192,153273,12,4,154621,0:0:0:0:
120,264,160015,6,0,L|100:105,1,160,4|8,0:0|0:0,0:0:0:0:
176,44,160520,1,8,0:0:0:0:
300,116,160689,2,0,P|339:112|376:98,1,80
212,124,161026,2,0,B|208:164|208:164|220:216,1,80,8|0,0:0|0:0,0:0:0:0:
343,323,161363,2,0,P|289:270|220:300,1,160,0|10,0:0|0:0,0:0:0:0:
21,273,161869,2,0,P|94:292|140:232,1,160,2|2,0:0|0:0,0:0:0:0:
88,156,162374,2,0,B|8:168,1,80,10|0,0:0|0:0,0:0:0:0:
200,292,162711,6,2,P|223:256|219:216,1,80,0|0,0:0|0:0,0:1:0:0:
320,84,163048,2,2,B|312:128|312:128|328:176,1,80,8|0,0:0|0:0,0:1:0:0:
488,32,163385,2,2,P|449:25|412:40,1,80,0|0,0:0|0:0,0:1:0:0:
380,216,163722,2,0,P|453:198|463:124,2,160,4|0|8,0:0|0:0|0:0,0:0:0:0:
384,228,164734,2,0,L|304:220,1,80
214,251,165071,1,8,0:0:0:0:
224,263,165408,6,0,P|229:187|163:151,1,160,4|8,0:0|0:0,0:0:0:0:
100,212,165913,1,8,0:0:0:0:
16,108,166082,1,0,0:0:0:0:
124,32,166251,1,0,0:0:0:0:
100,212,166419,2,0,L|112:304,1,80,8|0,0:0|0:0,0:0:0:0:
160,151,166756,2,0,P|101:201|26:184,1,160,0|8,0:0|0:0,0:0:0:0:
136,68,167262,1,8,0:0:0:0:
200,240,167430,1,0,0:0:0:0:
26,184,167599,1,0,0:0:0:0:
160,151,167767,2,0,L|240:159,1,80,8|0,0:0|0:0,0:0:0:0:
412,188,168105,6,0,P|363:247|289:233,1,160,0|8,0:0|0:0,0:0:0:0:
239,158,168610,1,8,0:0:0:0:
260,308,168779,2,0,L|340:316,1,80
456,256,169116,1,8,0:0:0:0:
452,376,169284,1,0,0:0:0:0:
344,308,169453,2,0,B|348:280|364:256|364:256|360:208|360:208|376:188|378:155,1,160,2|8,0:0|0:0,0:0:0:0:
324,88,169958,1,0,0:0:0:0:
248,168,170127,2,0,P|200:176|164:164,1,80,2|0,0:0|0:0,0:0:0:0:
75,111,170464,2,0,P|36:128|8:156,1,80,8|0,0:0|0:0,0:0:0:0:
17,284,170801,6,0,P|89:269|88:196,1,160,4|0,0:0|0:0,0:0:0:0:
188,80,171307,1,0,0:0:0:0:
188,80,171475,2,0,L|100:72,1,80,4|0,0:0|0:0,0:0:0:0:
168,268,171812,1,0,0:0:0:0:
248,144,171981,1,0,0:0:0:0:
92,232,172149,2,0,P|88:288|96:312,1,80,4|0,0:0|0:0,0:0:0:0:
140,148,172487,1,0,0:0:0:0:
208,288,172655,1,0,0:0:0:0:
336,216,172824,2,0,L|420:232,1,80,2|0,0:1|0:0,0:0:0:0:
300,96,173161,2,0,P|257:95|221:111,1,80,2|0,0:1|0:0,0:0:0:0:
384,140,173498,6,0,P|452:141|480:60,2,160,4|8|0,0:0|0:0|0:0,0:0:0:0:
348,52,174340,1,0,0:0:0:0:
304,184,174509,2,0,L|316:268,1,80,8|0,0:0|0:0,0:0:0:0:
227,119,174846,2,0,P|151:112|98:169,1,160,0|8,0:0|0:0,0:0:0:0:
168,232,175352,1,8,0:0:0:0:
144,316,175520,1,0,0:0:0:0:
60,340,175689,1,0,0:0:0:0:
168,231,175857,2,0,L|252:240,1,80,8|0,0:0|0:0,0:0:0:0:
358,190,176194,6,0,P|304:140|224:156,1,160,0|8,0:0|0:0,0:0:0:0:
268,288,176700,1,8,0:0:0:0:
304,96,176869,1,0,0:0:0:0:
436,240,177037,1,0,0:0:0:0:
239,160,177206,2,0,L|148:168,1,80,8|0,0:0|0:0,0:0:0:0:
72,304,177543,6,0,P|121:255|208:264,1,160,2|8,0:0|0:0,0:0:0:0:
244,336,178048,1,0,0:0:0:0:
328,356,178217,1,2,0:0:0:0:
460,244,178385,1,2,0:0:0:0:
296,184,178554,2,0,B|288:148|288:148|298:106,1,80,10|0,0:0|0:0,0:0:0:0:
239,248,178891,6,0,P|169:281|95:258,2,160,4|8|2,0:0|0:0|0:0,0:0:0:0:
200,164,179734,1,0,0:0:0:0:
184,352,179902,1,8,0:0:0:0:
116,176,180071,1,0,0:0:0:0:
239,248,180239,2,0,L|320:256,1,80
476,328,180576,1,8,0:0:0:0:
476,327,180744,2,0,P|483:292|480:248,1,80,2|0,0:0|0:0,0:0:0:0:
432,112,181082,1,2,0:0:0:0:
308,183,181251,2,0,P|255:184|216:128,1,120,10|0,0:0|0:0,0:0:0:0:
208,120,181588,6,2,L|188:208,1,80,2|0,0:1|0:0,0:1:0:0:
109,326,181925,2,2,P|98:287|100:248,1,80,2|0,0:1|0:0,0:1:0:0:
244,364,182262,2,2,L|336:348,1,80,2|0,0:1|0:0,0:1:0:0:
479,351,182599,2,0,P|442:285|365:280,2,160,4|0|8,0:0|0:0|0:0,0:0:0:0:
479,351,183610,2,0,P|484:308|479:263,1,80
432,188,183947,1,8,0:0:0:0:
436,196,184284,6,0,B|388:192|356:204|356:204|328:188|328:188|272:184,1,160,4|8,0:0|0:0,0:0:0:0:
200,236,184790,1,8,0:0:0:0:
84,168,184958,2,0,L|0:176,1,80
84,48,185295,1,8,0:0:0:0:
220,132,185464,1,0,0:0:0:0:
111,252,185633,2,0,P|122:327|195:348,1,160,0|8,0:0|0:0,0:0:0:0:
349,250,186138,1,8,0:0:0:0:
200,206,186307,1,0,0:0:0:0:
346,153,186475,1,0,0:0:0:0:
260,284,186644,2,0,L|268:368,1,80,8|0,0:0|0:0,0:0:0:0:
253,127,186981,6,0,B|204:112|156:132|156:132|128:120|96:120,1,160,0|8,0:0|0:0,0:0:0:0:
30,204,187487,1,8,0:0:0:0:
104,332,187655,1,0,0:0:0:0:
250,317,187824,1,0,0:0:0:0:
130,231,187992,2,0,B|120:192|120:192|123:152,1,80,8|0,0:0|0:0,0:0:0:0:
256,188,188329,2,0,L|334:171,1,80,2|0,0:0|0:0,0:0:0:0:
350,289,188666,2,0,B|347:329|347:329|357:368,1,80,10|0,0:0|0:0,0:0:0:0:
500,296,189003,1,2,0:0:0:0:
403,184,189172,1,2,0:0:0:0:
496,52,189340,2,0,P|496:91|485:129,1,80,10|0,0:0|0:0,0:0:0:0:
428,260,189678,6,0,L|264:248,1,160,4|0,0:0|0:0,0:0:0:0:
176,180,190183,1,0,0:0:0:0:
152,344,190352,1,4,0:0:0:0:
304,280,190520,1,0,0:0:0:0:
176,180,190689,1,0,0:0:0:0:
211,268,190857,1,0,0:0:0:0:
233,103,191026,5,4,0:0:0:0:
80,168,191195,1,0,0:0:0:0:
268,191,191363,1,0,0:0:0:0:
138,90,191532,1,0,0:0:0:0:
116,255,191700,2,0,L|108:336,1,80,4|0,0:0|0:0,0:0:0:0:
268,191,192037,2,0,P|313:179|361:179,1,80,4|0,0:0|0:0,0:0:0:0:
480,244,192374,5,0,0:0:0:0:
295,263,196419,6,0,P|244:228|182:239,2,128,4|8|0,0:0|0:0|0:0,0:0:0:0:
268,344,197262,1,0,0:0:0:0:
376,252,197430,1,8,0:0:0:0:
376,252,197599,2,0,L|439:259,1,64
408,152,197936,2,0,L|471:144,1,64,0|8,0:0|0:0,0:0:0:0:
340,64,198273,2,0,B|312:60|312:60|213:77,1,128
184,156,198779,1,8,0:0:0:0:
236,220,198947,1,0,0:0:0:0:
200,296,199116,6,0,P|136:264|80:296,1,128,0|8,0:0|0:0,0:0:0:0:
64,364,199621,1,0,0:0:0:0:
24,224,199790,2,0,L|42:97,1,128,0|8,0:0|0:0,0:0:0:0:
160,176,200296,2,0,P|190:184|221:177,1,64
328,272,200633,2,0,P|355:255|372:229,1,64,0|8,0:0|0:0,0:0:0:0:
484,324,200970,2,0,P|494:253|479:192,1,128
336,136,201475,2,0,L|272:144,1,64,8|0,0:0|0:0,0:0:0:0:
113,106,201812,6,0,P|160:65|220:80,1,128,0|8,0:0|0:0,0:0:0:0:
192,224,202318,1,0,0:0:0:0:
336,135,202487,2,0,P|341:104|335:73,1,64
280,208,202824,1,8,0:0:0:0:
280,208,202993,2,0,L|208:200,1,64
160,140,203329,5,2,0:0:0:0:
128,292,203498,1,2,0:0:0:0:
300,256,203666,1,2,0:0:0:0:
160,140,203835,1,2,0:0:0:0:
320,152,204003,1,2,0:0:0:0:
220,308,204172,1,2,0:0:0:0:
360,72,204340,38,0,B|301:52|261:92|261:92|225:76|225:76|181:88,1,192,0|4,0:0|0:0,0:0:0:0:
