osu file format v14

[General]
AudioFilename: 01. S(mile)ING!.mp3
AudioLeadIn: 0
PreviewTime: 50633
Countdown: 0
SampleSet: Soft
StackLeniency: 0.7
Mode: 0
LetterboxInBreaks: 0
WidescreenStoryboard: 1

[Editor]
Bookmarks: 72374,97992,111475,173329
DistanceSpacing: 1.2
BeatDivisor: 2
GridSize: 4
TimelineZoom: 1.6

[Metadata]
Title:S(mile)ING!
TitleUnicode:S(mile)ING!
Artist:Shimamura Uzuki (CV: Ohashi Ayaka)
ArtistUnicode:島村卯月 (CV: 大橋彩香)
Creator:Rukaru
Version:Easy
Source:THE iDOLM@STER Cinderella Girls
Tags:raheta_adi Runa_Hime ramadwipa [Sc4v4ng3r] [scavanger] idolmaster smile sing imas アイドルマスター シンデレラガールズ
BeatmapID:1197524
BeatmapSetID:369679

[Difficulty]
HPDrainRate:2.5
CircleSize:3.5
OverallDifficulty:1
ApproachRate:3
SliderMultiplier:0.7
SliderTickRate:1

[Events]
//Background and Video events
0,0,"bg_shimamu02.jpg",0,0
//Break Periods
2,69878,70934
2,154821,158575
2,192574,194979
//Storyboard Layer 0 (Background)
//Storyboard Layer 1 (Fail)
//Storyboard Layer 2 (Pass)
//Storyboard Layer 3 (Foreground)
//Storyboard Sound Samples

[TimingPoints]
914,337.078651685393,4,2,1,50,1,0
1251,-100,4,2,1,30,0,0
3610,-100,4,2,1,50,0,0
3947,-100,4,2,1,30,0,0
5970,-100,4,2,1,40,0,0
6307,-100,4,2,1,50,0,0
6644,-100,4,2,1,40,0,0
9003,-100,4,2,1,30,0,0
10183,-100,4,2,1,30,0,0
10689,-100,4,2,1,40,0,0
11026,-100,4,2,1,50,0,0
11700,-100,4,2,1,60,0,0
16588,-100,4,2,0,40,0,0
17093,-100,4,2,1,60,0,0
20970,-100,4,2,0,40,0,0
21307,-100,4,2,0,60,0,0
21644,-100,4,2,0,40,0,0
22318,-100,4,2,1,60,0,0
33273,-100,4,2,3,60,0,0
35633,-100,4,2,0,60,0,0
35970,-100,4,2,3,60,0,0
38329,-100,4,2,0,60,0,0
38666,-100,4,2,3,60,0,0
41026,-100,4,2,0,60,0,0
41363,-100,4,2,1,60,0,0
50801,-100,4,2,1,60,0,1
69678,-100,4,2,1,60,0,0
77262,-100,4,2,0,60,0,0
77767,-100,4,2,1,60,0,0
82655,-100,4,2,0,60,0,0
83161,-100,4,2,1,60,0,0
93947,-100,4,2,3,60,0,0
96307,-100,4,2,0,60,0,0
96644,-100,4,2,3,60,0,0
99003,-100,4,2,0,60,0,0
99340,-100,4,2,3,60,0,0
101700,-100,4,2,0,60,0,0
101869,-100,4,2,3,60,0,0
103048,-100,4,2,1,60,0,0
108779,-100,4,2,1,60,0,0
111475,-100,4,2,1,60,0,1
130352,-100,4,2,1,60,0,0
160015,-100,4,2,1,60,0,1
173329,-100,4,2,1,60,0,0
173498,-100,4,2,1,60,0,1
192543,-100,4,2,1,60,0,0
196419,-100,4,2,1,60,0,1
196588,-100,4,2,1,60,0,0

[Colours]
Combo1 : 255,204,255
Combo2 : 0,128,128
Combo3 : 0,255,128
Combo4 : 149,0,74

[HitObjects]
436,104,914,6,0,P|436:188|400:236,1,140,2|2,0:0|0:0,0:0:0:0:
280,220,2093,2,0,L|208:228,1,70,2|2,0:0|0:0,0:0:0:0:
136,264,2767,2,0,L|48:256,1,70,2|0,0:0|0:0,0:0:0:0:
4,148,3610,6,0,P|47:95|115:89,1,140,2|2,0:0|0:0,0:0:0:0:
204,176,4790,2,0,L|196:264,1,70,2|2,0:0|0:0,0:0:0:0:
240,320,5464,2,0,P|296:328|352:292,1,105,2|2,0:0|0:0,0:0:0:0:
420,320,6307,6,0,B|404:268|404:268|424:176,1,140,0|2,3:0|0:0,0:0:0:0:
480,72,7487,2,0,L|332:84,1,140,2|2,0:0|0:0,0:0:0:0:
232,148,8666,1,0,0:0:0:0:
151,120,9003,6,0,P|153:187|214:232,1,140,0|0,3:0|0:0,0:0:0:0:
363,170,10352,2,0,B|379:263|379:263|353:307,1,140,2|0,0:0|0:0,0:0:0:0:
311,373,11363,1,8,0:0:0:0:
238,331,11700,6,0,P|171:310|103:319,1,140,0|0,0:0|0:0,0:0:0:0:
25,353,12711,1,8,0:0:0:0:
33,269,13048,2,0,L|41:129,1,140,0|0,0:0|0:0,0:0:0:0:
190,51,14397,6,0,P|208:117|191:184,1,140,0|0,0:0|0:0,0:0:0:0:
150,257,15408,2,0,L|292:266,1,140,8|8,0:0|0:0,0:0:0:0:
361,224,16419,2,0,P|396:216|430:222,1,70,0|8,0:0|0:0,0:0:0:0:
481,288,17093,6,0,L|473:136,1,140,2|0,0:0|0:0,0:0:0:0:
434,73,18105,1,8,0:0:0:0:
384,139,18442,2,0,P|321:173|252:155,1,140,2|0,0:0|0:0,0:0:0:0:
117,63,19790,6,0,P|63:58|17:85,1,105,2|2,0:0|0:0,0:0:0:0:
41,163,20633,1,0,0:0:0:0:
61,244,20970,2,0,L|52:313,1,70,10|2,0:0|0:0,0:0:0:0:
127,352,21644,2,0,P|133:300|161:256,1,105,10|8,0:0|0:0,0:0:0:0:
230,208,22487,6,0,P|282:254|350:255,1,140,0|0,0:0|0:0,0:0:0:0:
420,209,23498,1,8,0:0:0:0:
362,147,23835,2,0,B|344:52|344:52|355:10,1,140,0|0,0:0|0:0,0:0:0:0:
501,92,25183,6,0,P|504:126|498:161,1,70,0|10,0:0|0:0,0:0:0:0:
445,226,25857,2,0,L|321:215,1,105,2|2,0:0|0:0,0:0:0:0:
256,208,26700,1,2,0:0:0:0:
181,247,27037,2,0,P|168:300|186:356,1,105,2|8,0:0|0:0,0:0:0:0:
260,371,27880,6,0,P|327:359|363:301,1,140,0|0,0:0|0:0,0:0:0:0:
250,176,29228,2,0,L|239:35,1,140,2|0,0:0|0:0,0:0:0:0:
397,91,30576,2,0,P|400:172|372:229,1,140,2|0,0:0|0:0,0:0:0:0:
292,237,31588,1,0,0:0:0:0:
305,319,31925,2,0,L|150:298,1,140,2|2,0:0|0:0,0:0:0:0:
83,289,32936,1,2,0:0:0:0:
107,369,33273,5,2,0:1:0:0:
148,206,33947,1,8,0:0:0:0:
67,182,34284,2,0,P|23:130|39:65,1,140,2|0,0:0|0:0,0:0:0:0:
116,29,35296,2,0,L|201:43,1,70,8|8,0:0|0:0,0:0:0:0:
252,90,35970,1,2,0:1:0:0:
286,254,36644,5,8,0:0:0:0:
351,306,36981,2,0,P|366:239|330:182,1,140,2|0,0:0|0:0,0:0:0:0:
246,177,37992,2,0,L|160:184,1,70,8|8,0:0|0:0,0:0:0:0:
107,133,38666,6,0,B|74:197|117:243|117:243|107:289|107:289|127:327,1,210,2|2,0:0|0:0,0:0:0:0:
281,259,40352,2,0,L|367:269,1,70,0|8,0:0|0:0,0:0:0:0:
414,319,41026,6,0,P|481:315|509:254,1,140,8|0,0:0|0:0,0:0:0:0:
466,182,42037,1,0,0:0:0:0:
403,125,42374,2,0,B|357:120|357:120|311:135|311:135|266:127,1,140,8|0,0:0|0:0,0:0:0:0:
117,49,43722,1,8,0:0:0:0:
46,96,44060,6,0,P|15:156|34:222,1,140,4|0,0:0|0:0,0:0:0:0:
171,319,45408,2,0,L|294:313,2,105,2|2|10,0:0|0:0|0:0,0:0:0:0:
97,278,46756,2,0,P|86:314|92:347,1,70,4|4,0:0|0:0,0:0:0:0:
322,243,48105,5,0,0:0:0:0:
396,281,48442,2,0,P|461:263|489:201,1,140,2|2,0:0|0:0,0:0:0:0:
326,160,49790,2,0,L|176:168,1,140,0|2,0:0|0:0,0:0:0:0:
110,204,50801,6,0,P|56:162|41:95,1,140,4|0,0:0|0:0,0:0:0:0:
98,34,51812,1,8,0:0:0:0:
179,55,52149,2,0,B|208:96|208:96|196:185,1,140,0|0,0:0|0:0,0:0:0:0:
85,311,53498,6,0,P|145:300|210:360,1,140,0|0,0:0|0:0,0:0:0:0:
278,306,54509,1,10,0:0:0:0:
240,231,54846,2,0,P|234:198|242:161,1,70,2|10,0:0|0:0,0:0:0:0:
319,131,55520,2,0,P|325:164|317:201,1,70,2|10,0:0|0:0,0:0:0:0:
365,268,56194,6,0,P|433:266|480:315,1,140,4|0,0:0|0:0,0:0:0:0:
314,347,57543,2,0,P|277:312|270:261,2,105,0|2|10,0:0|0:0|0:0,0:0:0:0:
398,354,58891,2,0,B|421:300|421:300|417:254|417:254|452:217|431:153,1,210,4|6,0:0|0:0,0:0:0:0:
301,48,60576,2,0,P|283:114|308:177,1,140,8|8,0:0|0:0,0:0:0:0:
355,248,61588,6,0,B|310:235|310:235|257:242|257:242|218:232,1,140,4|0,0:0|0:0,0:0:0:0:
137,210,62599,1,8,0:0:0:0:
58,242,62936,2,0,P|57:310|99:365,1,140,0|0,0:0|0:0,0:0:0:0:
215,244,64284,6,0,L|205:91,1,140,0|0,0:0|0:0,0:0:0:0:
348,193,65633,2,0,L|338:332,1,140,2|2,0:0|0:0,0:0:0:0:
261,365,66644,1,10,0:0:0:0:
190,316,66981,6,0,P|168:252|188:186,1,140,4|4,0:0|0:0,0:0:0:0:
310,71,68329,2,0,P|330:136|307:201,1,140,4|2,0:0|0:1,0:0:0:0:
240,252,69340,1,2,0:1:0:0:
188,186,69678,1,4,0:0:0:0:
372,148,72374,6,0,L|216:136,1,140,0|0,0:0|0:0,0:0:0:0:
148,152,73385,1,8,0:0:0:0:
191,223,73722,2,0,P|193:293|165:356,1,140,0|0,0:0|0:0,0:0:0:0:
44,240,75071,6,0,P|42:170|70:107,1,140,2|0,0:0|0:0,0:0:0:0:
136,56,76082,2,0,B|208:48|208:48|268:76,1,140,8|8,0:0|0:0,0:0:0:0:
324,140,77093,2,0,P|327:174|317:207,1,70,0|8,0:0|0:0,0:0:0:0:
252,260,77767,6,0,L|391:253,2,140,2|0|2,0:0|0:0|0:0,0:0:0:0:
124,368,79790,2,0,P|89:366|56:354,1,70,0|8,0:0|0:0,0:0:0:0:
19,279,80464,2,0,P|19:227|40:180,1,105,2|2,0:0|0:0,0:0:0:0:
96,116,81307,1,0,0:0:0:0:
172,148,81644,2,0,L|252:144,1,70,2|2,0:0|0:0,0:0:0:0:
316,183,82318,2,0,P|360:160|388:104,1,105,2|8,0:0|0:0,0:0:0:0:
332,48,83161,6,0,L|180:36,1,140,0|0,0:0|0:0,0:0:0:0:
116,72,84172,1,8,0:0:0:0:
35,48,84509,2,0,P|4:109|18:176,1,140,0|0,0:0|0:0,0:0:0:0:
140,296,85857,6,0,L|128:156,1,140,0|2,0:0|0:0,0:0:0:0:
248,35,87206,2,0,P|297:47|328:89,2,105,0|2|8,0:0|0:0|0:0,0:0:0:0:
251,117,88554,6,0,P|246:186|284:244,1,140,0|0,0:0|0:0,0:0:0:0:
427,158,89902,2,0,P|433:89|396:32,1,140,2|0,0:0|0:0,0:0:0:0:
333,88,90913,1,8,0:0:0:0:
284,156,91251,2,0,B|136:172,1,140,0|0,0:0|0:0,0:0:0:0:
15,280,92599,6,0,P|83:276|123:330,1,140,2|0,0:0|0:0,0:0:0:0:
200,364,93610,1,8,0:0:0:0:
196,280,93947,1,2,0:1:0:0:
292,140,94621,1,8,0:0:0:0:
344,204,94958,6,0,P|408:223|464:184,1,140,2|0,0:0|0:0,0:0:0:0:
428,108,95970,2,0,L|436:24,1,70,8|8,0:0|0:0,0:0:0:0:
355,12,96644,1,2,0:1:0:0:
208,92,97318,1,8,0:0:0:0:
144,40,97655,6,0,L|160:184,1,140,2|0,0:0|0:0,0:0:0:0:
232,224,98666,2,0,P|234:189|248:155,1,70,8|8,0:0|0:0,0:0:0:0:
308,100,99340,2,0,P|412:112|424:204,1,210,2|2,0:1|0:1,0:0:0:0:
288,295,101026,6,0,P|286:330|301:362,1,70,0|8,0:0|0:0,0:0:0:0:
371,315,101700,1,8,0:0:0:0:
219,241,102374,2,0,L|149:245,1,70,0|0,0:0|0:0,0:0:0:0:
72,279,103048,2,0,P|34:221|35:152,1,140,8|0,0:0|0:0,0:0:0:0:
146,26,104397,1,8,0:0:0:0:
223,59,104734,6,0,B|206:213,1,140,4|0,0:0|0:0,0:0:0:0:
189,365,106082,2,0,B|226:353|226:353|298:368,2,105,2|2|2,0:0|0:0|0:0,0:0:0:0:
112,329,107430,1,4,0:0:0:0:
33,299,107767,1,4,0:0:0:0:
294,86,109116,2,0,P|361:96|400:152,1,140,2|2,0:0|0:0,0:0:0:0:
296,284,110464,2,0,P|228:274|189:218,1,140,0|2,0:0|0:0,0:0:0:0:
219,139,111475,6,0,P|175:191|107:198,1,140,4|0,0:0|0:0,0:0:0:0:
39,148,112487,1,8,0:0:0:0:
16,229,112824,2,0,B|11:273|11:273|42:368,1,140,0|0,0:0|0:0,0:0:0:0:
190,290,114172,6,0,P|258:292|303:343,1,140,0|0,0:0|0:0,0:0:0:0:
378,306,115183,1,10,0:0:0:0:
326,239,115520,2,0,P|317:205|319:170,1,70,2|10,0:0|0:0,0:0:0:0:
235,175,116194,2,0,L|243:90,1,70,2|10,0:0|0:0,0:0:0:0:
172,57,116869,6,0,P|139:117|150:185,1,140,4|0,0:0|0:0,0:0:0:0:
305,249,118217,2,0,B|337:243|337:243|377:254|377:254|408:250,2,105,0|2|10,0:0|0:0|0:0,0:0:0:0:
245,308,119565,6,0,B|193:267|134:290|134:290|142:242|142:242|124:201,1,210,4|6,0:0|0:0,0:0:0:0:
51,51,121251,1,8,0:0:0:0:
218,52,121925,1,8,0:0:0:0:
266,120,122262,6,0,P|258:188|213:240,1,140,4|0,0:0|0:0,0:0:0:0:
339,351,123610,2,0,P|318:284|335:218,1,140,0|0,0:0|0:0,0:0:0:0:
470,118,124958,2,0,L|483:257,1,140,0|0,0:0|0:0,0:0:0:0:
360,373,126307,6,0,P|326:353|306:320,1,70,2|10,0:0|0:0,0:0:0:0:
250,267,126981,2,0,P|263:233|270:185,1,70,2|10,0:0|0:0,0:0:0:0:
211,139,127655,2,0,P|143:142|92:191,2,140,4|4|4,0:0|0:0|0:0,0:0:0:0:
334,163,129678,2,0,P|339:124|356:87,1,70,4|4,0:0|0:0,0:0:0:0:
422,52,130352,6,0,L|278:53,1,140,4|0,0:0|0:0,0:0:0:0:
127,119,131700,2,0,B|73:138|74:97|26:106,2,105,0|0|8,0:0|0:0|0:0,0:0:0:0:
206,91,133048,6,0,L|191:243,1,140,0|0,0:0|0:0,0:0:0:0:
307,353,134397,2,0,P|374:356|421:306,1,140,0|0,0:0|0:0,0:0:0:0:
298,191,135745,6,0,L|158:205,1,140,0|0,0:0|0:0,0:0:0:0:
42,84,137093,2,0,L|181:69,1,140,0|0,0:0|0:0,0:0:0:0:
335,136,138442,6,0,P|411:130|442:72,1,140,0|0,0:0|0:0,0:0:0:0:
273,67,139790,2,0,L|188:65,1,70,4|0,0:0|0:0,0:0:0:0:
155,134,140464,2,0,P|157:171|170:208,1,70,4|0,0:0|0:0,0:0:0:0:
243,236,141138,6,0,P|246:296|209:366,1,140,4|0,0:0|0:0,0:0:0:0:
51,308,142487,2,0,L|43:198,2,105,2|2|8,0:0|0:0|0:0,0:0:0:0:
127,273,143835,6,0,P|127:204|162:145,1,140,2|0,0:0|0:0,0:0:0:0:
306,58,145183,2,0,B|319:91|319:91|304:159,2,105,2|2|8,0:0|0:0|0:0,0:0:0:0:
236,104,146531,6,0,B|181:113|145:60|145:60|118:126|48:128|48:128|86:85,1,280,2|0,0:0|0:0,0:0:0:0:
407,23,149228,6,0,L|387:172,1,140,2|2,0:0|0:0,0:0:0:0:
286,294,150576,2,0,P|281:243|251:200,1,105,2|2,0:0|0:0,0:0:0:0:
256,192,151588,12,4,154621,0:0:0:0:
318,225,160015,6,0,P|325:294|289:353,1,140,4|0,0:0|0:0,0:0:0:0:
133,289,161363,2,0,P|139:236|141:184,2,105,0|2|10,0:0|0:0|0:0,0:0:0:0:
60,331,162711,6,0,P|9:286|9:218,1,140,4|2,0:0|0:0,0:0:0:0:
75,166,163722,2,0,B|110:124|89:67|89:67|117:47,1,140,4|8,0:0|0:0,0:0:0:0:
285,36,165071,1,8,0:0:0:0:
239,106,165408,6,0,P|220:171|252:231,1,140,4|0,0:0|0:0,0:0:0:0:
406,299,166756,2,0,L|394:146,1,140,0|0,0:0|0:0,0:0:0:0:
239,106,168105,6,0,P|173:87|113:119,1,140,0|0,0:0|0:0,0:0:0:0:
46,273,169453,2,0,L|199:261,1,140,2|2,0:0|0:0,0:0:0:0:
253,212,170464,1,8,0:0:0:0:
312,270,170801,6,0,P|311:337|364:379,1,140,4|4,0:0|0:0,0:0:0:0:
443,350,171812,1,0,0:0:0:0:
494,283,172149,2,0,B|501:235|501:235|475:147,1,140,4|2,0:0|0:1,0:0:0:0:
400,108,173161,1,2,0:1:0:0:
373,187,173498,6,0,P|321:142|320:75,1,140,4|0,0:0|0:0,0:0:0:0:
460,165,174846,2,0,P|454:233|401:275,1,140,0|0,0:0|0:0,0:0:0:0:
236,217,176194,6,0,B|252:256|252:256|229:364,1,140,0|0,0:0|0:0,0:0:0:0:
83,271,177543,2,0,B|66:231|66:231|90:124,1,140,2|2,0:0|0:0,0:0:0:0:
159,93,178554,1,10,0:0:0:0:
220,149,178891,6,0,P|287:142|325:86,1,140,4|2,0:0|0:0,0:0:0:0:
175,10,180239,2,0,B|142:7|142:7|108:24|108:24|74:21,2,105,0|2|10,0:0|0:0|0:0,0:0:0:0:
158,93,181588,6,0,B|182:162|182:162|148:239|148:239|207:208,1,210,4|4,0:0|0:0,0:0:0:0:
345,140,183273,1,8,0:0:0:0:
215,32,183947,1,8,0:0:0:0:
157,93,184284,6,0,B|101:121|61:86|61:86|24:111,1,140,4|0,0:0|0:0,0:0:0:0:
5,186,185296,1,8,0:0:0:0:
49,257,185633,2,0,L|200:232,1,140,0|0,0:0|0:0,0:0:0:0:
295,362,186981,6,0,L|433:339,1,140,0|0,0:0|0:0,0:0:0:0:
486,179,188329,2,0,B|495:146|495:146|486:110,1,70,2|10,0:0|0:0,0:0:0:0:
408,143,189003,2,0,B|399:177|399:177|408:210,1,70,2|10,0:0|0:0,0:0:0:0:
374,288,189678,6,0,P|310:310|247:283,2,140,4|4|4,0:0|0:0|0:0,0:0:0:0:
230,202,191700,2,0,L|144:216,1,70,4|4,0:0|0:0,0:0:0:0:
99,270,192374,1,0,0:0:0:0:
256,58,196419,6,0,B|292:108|256:152|256:152|260:189,1,140,4|0,0:0|0:0,0:0:0:0:
219,352,197767,2,0,P|168:360|120:341,2,105,0|0|8,0:0|0:0|0:0,0:0:0:0:
291,306,199116,6,0,P|358:297|410:341,1,140,0|0,0:0|0:0,0:0:0:0:
493,195,200464,2,0,P|485:142|467:79,2,105,0|0|8,0:0|0:0|0:0,0:0:0:0:
434,254,201812,6,0,B|386:251|386:251|344:229|344:229|300:225,1,140,0|0,0:0|0:0,0:0:0:0:
150,303,203161,2,0,B|106:279|51:295|51:295|77:262|77:262|57:234|63:198,1,210,0|2,0:0|0:0,0:0:0:0:
222,253,204846,1,4,0:0:0:0:
