osu file format v6

[General]
AudioFilename: 01 - Shiawase Negai Kanata Kara.mp3
AudioLeadIn: 0
PreviewTime: 167407
Countdown: 0
SampleSet: Soft
StackLeniency: 0.7
Mode: 0
LetterboxInBreaks: 0
SkinPreference:LuckyStar

[Editor]
DistanceSpacing: 1
BeatDivisor: 4
GridSize: 8

[Metadata]
Title:Shiawase Negai Kanata Kara
Artist:Shimamoto Sumi
Creator:happy30
Version:Normal
Source:Lucky Star
Tags:Dangaard

[Difficulty]
HPDrainRate:5
CircleSize:5
OverallDifficulty:5
SliderMultiplier:1.8
SliderTickRate:1

[Events]
//Background and Video events
0,0,"SouchirouandKanata.jpg"
//Break Periods
2,119286,121219
2,220950,229550
//Storyboard Layer 0 (Background)
//Storyboard Layer 1 (Fail)
//Storyboard Layer 2 (Pass)
//Storyboard Layer 3 (Foreground)
//Storyboard Sound Samples
//Background Colour Transformations
3,100,0,0,0

[TimingPoints]
753,833.333333333333,4,2,0,50,1,0
152419,555.555555555556,4,2,0,50,1,0
152835,833.333333333333,4,2,0,50,1,0
155751,555.555555555556,4,2,0,50,1,0
156167,833.333333333333,4,2,0,50,1,0
157417,833.333333333333,4,2,0,50,1,0
243646,-100,4,2,0,35,0,0
252836,-100,4,2,0,47,0,0

[Colours]
Combo1 : 255,255,255
Combo2 : 15,55,244
Combo3 : 23,163,7

[HitObjects]
256,208,24086,12,2,25752
40,192,27419,6,0,B|56:288|168:320,1,180
240,336,28669,5,0
240,336,28877,1,0
240,336,29086,2,0,B|264:272|352:256,1,135
432,248,30127,1,0
336,344,30752,2,0,B|320:240|224:200,1,180
152,176,32002,2,0,B|48:176,1,90,0|2
88,264,32836,2,0,B|184:264,1,90,0|2
256,312,33669,5,0
312,240,34086,2,0,B|416:224,1,90
400,226,34711,1,0
464,288,35127,2,0,B|424:360|328:320,1,135
80,88,37419,6,0,B|56:144|96:184,1,90
86,173,38044,1,0
216,144,38669,1,0
216,144,39086,2,0,B|312:112|376:208,1,180,0|2
296,248,40336,2,0,B|248:264|224:320,1,90,0|2
392,336,42003,5,0
392,336,42211,1,0
392,336,42419,2,0,B|440:312|448:264,1,90
447,268,43044,1,0
384,200,43461,1,0
272,280,44086,2,0,B|184:304|144:240,1,135
149,248,44919,1,0
72,288,45336,2,0,B|32:264|32:208,1,90,0|2
120,216,46169,2,0,B|160:240|160:296,1,90,0|2
96,360,47003,5,0
56,280,47419,2,0,B|152:296,1,90
144,294,48044,1,0
216,352,48461,1,0
288,240,49086,2,0,B|360:288|464:232,1,180
440,320,50336,1,0
360,352,50753,6,0,B|256:328,1,90
232,344,51378,2,0,B|176:320|176:256,1,90
176,144,52419,2,0,B|248:216|344:168,1,180
408,232,53669,2,0,B|360:264|368:312,1,90,0|4
328,128,54919,5,2
328,128,55128,1,0
328,128,55336,1,0
328,128,55544,1,2
328,128,55753,2,0,B|256:56,1,90
248,104,56378,2,0,B|200:96|160:136,1,90,0|2
64,224,57419,1,2
224,304,58253,5,2
224,304,58461,1,0
224,304,58669,1,0
224,304,58878,1,2
224,304,59086,2,0,B|264:264|312:272,1,90
336,304,59711,2,0,B|400:232,1,90,0|2
480,128,60753,1,2
224,64,62003,5,0
224,64,62211,1,2
224,64,62419,2,0,B|264:128|216:192,1,135,0|0
176,176,63253,2,0,B|144:272,1,90
120,344,64086,2,0,B|16:344,2,90
200,312,65336,1,0
280,344,65753,2,0,B|352:280|328:176,1,180,0|2
304,96,67003,1,0
216,64,67419,6,0,B|176:104|120:80,1,90,4|0
88,64,68044,2,0,B|48:160,1,90
40,192,68669,1,0
40,192,68878,2,0,B|112:208|136:288,1,135
152,320,69711,1,0
152,320,69919,1,2
224,264,70336,1,2
304,304,70753,6,0,B|416:312,1,90,2|0
424,280,71378,2,0,B|384:240|400:184,1,90
408,152,72003,1,2
336,96,72419,1,0
248,96,72836,1,0
176,144,73253,2,0,B|72:120,1,90,2|0
32,192,74086,6,0,B|80:216|80:280,1,90,2|0
64,304,74711,2,0,B|200:352,1,135
256,288,75753,2,0,B|368:256|440:368,1,180,2|2
384,144,77419,5,2
320,80,77836,1,0
320,80,78044,2,0,B|280:128|232:96,1,90,2|0
208,72,78669,2,0,B|112:56,2,90,0|2|0
144,136,79919,1,2
192,208,80336,1,0
112,256,80752,6,0,B|176:352|320:384|424:208,1,360,2|2
376,120,83669,5,0
376,120,84086,2,0,B|328:208,1,90,2|0
344,240,84711,2,0,B|304:312|208:288,1,135
144,264,85752,1,2
200,48,87419,6,0,B|296:24,1,90,0|2
272,112,88252,2,0,B|176:136,1,90,0|2
200,224,89086,1,0
272,272,89502,2,0,B|368:224|456:296,1,180,0|2
376,344,90752,6,0,B|296:184|432:80,1,270,2|0
480,40,92419,1,2
296,40,93252,1,2
120,88,94086,6,0,B|184:168,1,90,2|0
136,184,94711,2,0,B|160:240|104:296,1,90
96,304,95336,1,2
176,344,95752,1,0
248,288,96169,2,0,B|320:216,2,90,0|2|0
320,336,97419,6,0,B|368:328|400:280,1,90,2|0
440,296,98044,2,0,B|416:192,1,90
408,160,98669,1,2
328,120,99086,1,0
256,176,99502,1,0
216,96,99919,1,2
136,144,100336,1,0
48,112,100752,6,0,B|104:96|120:24,1,90,2|0
152,56,101377,2,0,B|208:-8|288:32,1,135
280,112,102419,2,0,B|224:192|288:288,1,180,0|2
344,352,103669,1,0
416,296,104086,6,0,B|376:200,1,90,2|0
416,192,104711,2,0,B|432:144|408:96,1,90
392,64,105336,1,2
312,104,105752,1,0
336,192,106169,1,0
272,256,106586,1,2
320,328,107002,1,0
232,352,107419,6,0,B|136:304,1,90,2|0
112,328,108044,2,0,B|48:280|64:200,1,135
96,128,109086,2,0,B|200:168,2,90,0|0|2
144,56,110336,5,0
232,32,110752,2,0,B|296:104,1,90,2|0
336,80,111377,2,0,B|376:128|336:216,1,135
288,280,112419,1,2
104,280,113252,1,2
72,192,113669,5,0
72,192,113877,1,0
72,192,114086,2,0,B|120:96|240:104,1,180
376,152,115752,1,0
400,240,116169,1,0
360,320,116586,1,0
280,360,117002,1,0
256,208,117419,12,2,119086
256,208,122419,12,4,124086
136,224,125336,5,0
168,248,125544,1,0
208,240,125752,2,0,B|296:272,1,90,2|0
296,312,126377,2,0,B|352:344|416:280,1,90
456,192,127419,2,0,B|472:136|424:104,1,90,2|0
392,128,128044,2,0,B|288:96,1,90
264,88,128669,1,2
168,104,129086,2,0,B|168:200,1,90,2|0
80,176,129919,1,2
48,256,130336,5,0
112,320,130752,2,0,B|200:280,1,90,2|0
224,312,131377,1,0
312,336,131794,2,0,B|392:360|448:304,1,135,0|2
464,136,133252,1,2
336,264,134086,6,0,B|248:224,1,90,2|0
224,256,134711,1,0
136,280,135127,1,0
136,280,135336,2,0,B|88:312|16:280,1,90,0|2
64,200,136169,2,0,B|24:112,2,90,0|2|0
152,176,137419,1,2
344,168,138669,5,0
360,208,138877,1,0
400,224,139086,2,0,B|432:264|400:320,1,90,2|0
360,296,139711,2,0,B|264:344,1,90
152,288,140752,2,0,B|120:248|152:192,1,90,2|0
192,200,141377,2,0,B|288:152,1,90
288,120,142002,2,0,B|240:40,1,90,0|2
56,88,143252,1,2
96,168,143669,5,0
56,248,144086,2,0,B|152:280,1,90,2|0
128,320,144711,1,0
208,352,145127,2,0,B|248:288|344:288,1,135,0|2
408,256,146169,1,0
408,256,146377,1,0
408,256,146586,2,0,B|440:216|424:160,1,90,2|0
376,96,147419,6,0,B|280:128,1,90,2|0
288,80,148044,2,0,B|200:48,1,90,2|2
72,32,149086,1,2
40,112,149502,1,0
88,192,149919,2,0,B|160:152|184:248|264:176,1,180,2|4
344,312,151586,5,2
376,280,151794,1,0
392,240,152002,1,0
392,192,152211,1,2
368,152,152419,2,0,B|312:104|224:160,1,135
264,192,153043,2,0,B|248:232|176:240,1,90,0|2
56,248,154085,1,2
64,64,154918,5,2
96,88,155126,1,0
144,88,155335,1,0
176,56,155543,1,2
224,48,155751,2,0,B|272:104|240:176,1,135
288,168,156375,2,0,B|336:264,1,90,0|2
376,376,157417,1,2
432,208,158250,1,0
384,128,158667,6,0,B|288:128,1,90,0|2
168,72,159708,1,0
168,72,159917,1,2
168,72,160125,1,0
96,184,160750,2,0,B|160:256,1,90,2|0
200,240,161375,2,0,B|256:288|328:232,1,135,0|2
392,176,162417,5,2
248,64,163250,2,0,B|152:96,1,90
80,120,164083,2,0,B|40:160|64:224,2,90,4|0|0
80,120,165125,1,0
80,120,165333,1,2
168,136,165750,1,2
232,192,166167,2,0,B|328:192,2,90,2|4|2
152,232,167417,6,0,B|216:312,1,90,2|0
248,280,168042,2,0,B|312:352|384:304,1,135
400,336,168875,2,0,B|464:208,1,135,2|0
460,215,169708,1,0
460,215,169917,1,2
424,136,170333,1,2
336,152,170750,6,0,B|288:120|232:144,1,90,2|0
256,184,171375,2,0,B|168:304,1,135
96,328,172417,1,2
56,248,172833,1,0
128,200,173250,1,0
104,112,173667,1,2
184,72,174083,6,0,B|216:112|280:96,1,90,2|0
304,80,174708,2,0,B|336:168,1,90
344,208,175333,1,2
288,280,175750,2,0,B|200:304,1,90,0|2
112,272,176583,1,0
168,200,177000,1,2
88,152,177417,6,0,B|112:64,1,90,2|0
152,64,178042,2,0,B|184:96|240:80,1,90
264,48,178667,2,0,B|368:40,2,90,2|0|2
312,120,179917,1,0
328,208,180333,1,2
296,288,180750,6,0,B|248:392|112:336,1,180
80,288,182000,1,0
56,200,182417,2,0,B|104:96|240:152,1,180
288,176,183667,5,2
248,256,184083,2,0,B|376:256,1,90,2|0
352,296,184708,2,0,B|424:304|456:224,1,135
464,136,185750,2,0,B|360:152,1,90,2|0
320,72,186583,2,0,B|216:72,1,90,2|0
160,128,187417,6,0,B|80:80,2,90,2|0|2
136,216,188667,2,0,B|240:240,2,90,2|2|2
136,216,190333,1,0
160,304,190750,2,0,B|264:376|304:240,1,180,2|0
240,184,192000,5,0
264,96,192417,2,0,B|299:-22|403:50,1,180,2|2
424,136,193667,1,2
352,192,194083,6,0,B|400:280,1,90,4|0
376,312,194708,2,0,B|320:288|272:320,1,90
248,320,195333,1,2
176,264,195750,2,0,B|208:176,1,90,2|0
160,184,196375,2,0,B|160:128|112:104,1,90,2|2
80,80,197000,1,0
32,152,197417,6,0,B|64:248,1,90,2|0
40,280,198042,1,2
152,352,198667,1,2
200,280,199083,2,0,B|296:312,1,90,2|0
360,256,199917,1,2
440,304,200333,1,0
456,216,200750,6,0,B|424:120,1,90,2|0
384,152,201375,2,0,B|328:176|256:104,1,135,2|0
248,200,202417,2,0,B|216:296,1,90,2|0
176,264,203042,2,0,B|120:240|48:312,1,135,2|0
40,216,204083,6,0,B|88:128,1,90,2|0
120,160,204708,2,0,B|152:80|240:104,1,135,2|0
312,128,205750,1,0
352,208,206167,1,0
312,288,206583,1,0
224,320,207000,1,2
136,312,207417,6,0,B|152:208,1,90,2|0
104,224,208042,2,0,B|0:136|112:16,1,225
168,88,209500,1,0
256,56,209917,1,4
344,56,210333,5,2
344,56,210750,2,0,B|400:144,1,90,2|0
432,120,211375,2,0,B|504:248|376:336,1,225
304,296,212833,1,0
224,344,213250,1,2
136,320,213667,5,0
96,296,213875,1,0
72,256,214083,2,0,B|16:176|112:80,1,180
280,80,215750,1,0
312,160,216167,1,0
392,200,216583,1,0
432,280,217000,1,0
256,208,217417,12,0,220750
392,304,230750,5,0
392,304,232417,5,0
336,232,232833,1,0
336,232,233042,2,0,B|288:184|192:192,1,135
120,208,234083,1,2
120,208,235750,5,0
176,136,236167,1,0
176,136,236375,2,0,B|232:80|304:112,1,135
376,152,237417,1,2
376,152,239083,5,0
424,224,239500,1,0
424,224,239708,2,0,B|432:272|384:312,1,90
256,328,240750,5,2
96,240,241583,1,0
136,64,242417,1,2
448,240,244083,6,0,B|416:208|360:208,1,90,2|0
360,248,244708,2,0,B|296:280|224:240,1,135,2|0
200,208,245542,2,0,B|56:208,1,135,2|0
64,304,247417,6,0,B|112:328|160:296,1,90,2|0
176,336,248042,2,0,B|232:296|312:328,1,135,0|2
384,288,249083,2,0,B|472:320,2,90,2|0|2
424,208,250333,1,0
336,176,250750,6,0,B|296:200|232:176,1,90,2|0
216,208,251375,2,0,B|64:208,1,135,0|2
296,40,254083,6,0,B|328:128,1,90,2|0
280,120,254708,2,0,B|296:168|264:216,1,90
248,248,255333,1,2
160,232,255750,2,0,B|112:152,2,90,2|0|2
112,304,257000,1,0
112,304,257417,6,0,B|192:368|288:336|352:248,1,270,2|0
400,184,259083,1,2
264,152,259708,1,2
352,48,260333,5,2
264,32,260750,2,0,B|232:72|168:48,1,90
136,40,261375,2,0,B|104:176,1,135,2|0
32,232,262417,2,0,B|48:328|176:336,1,180
336,296,264083,5,4
336,296,264917,1,2
152,112,265750,5,4
152,112,266583,1,2
54,200,267416,6,0,B|27:284,3,45,2|0|0|0
92,288,268250,2,0,B|107:243,3,45,2|0|0|0
176,240,269083,2,0,B|161:285,3,45,2|0|0|0
136,344,269917,2,0,B|240:344,1,90,2|2
360,344,270750,1,4
200,272,271583,6,0,B|136:184|184:96,1,180,4|2
264,128,272833,2,0,B|280:176|264:224,2,90,0|2|0
344,80,274083,6,0,B|416:168,1,90,4|2
440,168,274708,2,0,B|408:224|456:272,1,90,0|2
464,288,275333,2,0,B|400:360,2,90,0|2|0
384,256,276583,1,2
312,312,277000,1,0
240,264,277417,6,0,B|136:264,1,90,2|0
112,288,278042,2,0,B|64:248|72:160,1,135,2|0
72,164,279083,1,2
160,192,279500,1,4
256,88,280125,1,4
328,200,280750,6,0,B|272:288,1,90,2|0
320,304,281375,2,0,B|368:272|416:304,1,90,0|2
448,288,282000,2,0,B|496:368,2,90,0|2|0
480,200,283250,1,2
432,120,283667,1,0
440,32,284083,6,0,B|328:56,1,90,2|0
344,96,284708,2,0,B|272:120|288:224,1,135,2|0
288,296,285750,2,0,B|176:272,1,90,2|0
192,232,286375,2,0,B|120:208|136:104,1,135,0|2
208,64,287417,6,0,B|240:112|296:88,1,90,2|0
328,64,288042,2,0,B|416:176,1,135,2|0
368,248,289083,2,0,B|272:296|208:192,1,180,2|0
160,128,290333,5,0
160,128,290542,1,0
160,128,290750,2,0,B|72:192|96:304,1,180,2|0
264,344,292417,6,0,B|352:280|328:168,1,180,2|2
256,208,294083,12,0,297417
