osu file format v6

[General]
AudioFilename: 01 - Shiawase Negai Kanata Kara.mp3
AudioLeadIn: 0
PreviewTime: 167407
Countdown: 0
SampleSet: Soft
StackLeniency: 0.7
Mode: 0
LetterboxInBreaks: 0
SkinPreference:LuckyStar

[Editor]
Bookmarks: 27419,67419,94086,124086,167419,194086,220753,230752,264086,270753,297419
DistanceSpacing: 1
BeatDivisor: 4
GridSize: 8

[Metadata]
Title:Shiawase Negai Kanata Kara
Artist:Shimamoto Sumi
Creator:happy30
Version:Easy Dan
Source:Lucky Star
Tags:Dangaard

[Difficulty]
HPDrainRate:2
CircleSize:3
OverallDifficulty:2
SliderMultiplier:1
SliderTickRate:1

[Events]
//Background and Video events
0,0,"SouchirouandKanata.jpg"
//Break Periods
2,119286,122526
2,164286,165859
2,220952,229192
2,244286,262526
//Storyboard Layer 0 (Background)
//Storyboard Layer 1 (Fail)
//Storyboard Layer 2 (Pass)
//Storyboard Layer 3 (Foreground)
//Storyboard Sound Samples
//Background Colour Transformations
3,100,0,0,0

[TimingPoints]
753,833.333333333333,4,2,0,50,1,0
115753,-100,4,2,0,40,0,0
123253,-100,4,2,0,60,0,0
160753,-100,4,2,0,50,0,0
166586,-100,4,2,0,60,0,0
215753,-100,4,2,0,40,0,0
229919,-100,4,2,0,50,0,0
241169,-100,4,2,0,40,0,0
242836,-100,4,2,0,35,0,0
243669,-100,4,2,0,30,0,0
263252,-100,4,2,0,50,0,0
268044,-100,4,2,0,60,0,0
271169,-100,4,2,0,70,0,0
292419,-100,4,2,0,30,0,0
297419,-100,4,2,0,10,0,0

[Colours]
Combo1 : 255,255,255
Combo2 : 15,55,244
Combo3 : 23,163,7

[HitObjects]
112,128,27419,1,2
48,208,28252,1,0
80,304,29086,2,0,B|192:344|296:296,1,200,0|2
368,344,31586,5,0
424,256,32419,2,0,B|400:192|320:208,1,100,0|0
392,112,34086,6,0,B|320:80|240:136|176:88,1,200,2|0
120,272,37419,6,0,B|192:304|272:248|336:296,1,200,2|0
400,336,39919,1,0
464,256,40752,6,0,B|440:200|456:144,1,100,2|0
368,216,42418,2,0,B|304:240|248:208,1,100,0|0
232,312,44086,6,0,B|200:248|88:296|64:200,2,200,2|0|2
328,280,48252,6,0,B|360:224|344:168,1,100,0|0
288,104,49919,1,0
200,48,50752,6,0,B|152:112|160:192|208:272,1,200,2|2
392,240,54086,5,2
312,296,54919,1,2
216,272,55752,2,0,B|144:248|128:160|176:104,1,200,2|2
264,144,58252,5,2
296,240,59086,2,0,B|368:208|440:248|496:240,1,200,2|2
320,136,62419,5,2
120,160,64086,6,0,B|104:240|128:296|200:328,1,200,2|4
440,176,67419,5,2
392,264,68252,1,0
296,288,69086,1,0
208,240,69919,1,0
192,136,70752,6,0,B|240:104|288:112|320:160|320:200|296:232|264:256,1,200,2|0
192,232,73252,1,0
128,312,74086,6,0,B|48:224|96:104,1,200,2|0
288,128,77419,6,0,B|224:96|160:144|88:112,1,200,2|0
64,208,79919,1,0
104,296,80752,6,0,B|208:344|320:288,1,200,2|0
384,344,83252,1,0
456,272,84086,5,2
376,208,84919,1,0
280,248,85752,2,0,B|264:304|288:352,1,100,0|0
184,336,87419,5,2
96,280,88252,1,0
80,184,89086,1,0
136,104,89919,1,0
224,152,90752,6,0,B|296:128|384:168|456:152,1,200,2|0
422,155,93252,1,0
360,232,94086,6,0,B|336:304|272:320|208:288|200:224,2,200,2|0|2
336,136,98252,5,0
248,88,99086,1,0
144,96,99919,1,0
64,152,100752,6,0,B|104:208|168:184,1,100,2|0
232,240,102419,2,0,B|192:296|128:272,1,100
152,176,104086,6,0,B|168:96|248:64|320:88,2,200,2|0|2
56,216,108252,5,0
104,304,109086,2,0,B|160:336|224:304,1,100
240,216,110752,5,2
312,280,111586,1,0
408,264,112419,2,0,B|440:216|424:160,2,100,0|0|2
256,208,115752,12,4,119086
136,96,124086,6,0,B|104:168|144:216,1,100,2|0
64,264,125752,2,0,B|104:304|184:280,1,100,0|0
192,320,127002,1,0
240,336,127419,6,0,B|304:280|248:208|264:128,1,200,2|4
448,232,130336,5,0
448,232,130752,2,0,B|408:264|344:264,1,100,2|0
280,200,132419,2,0,B|224:176|160:200,1,100
120,112,134086,6,0,B|48:152|32:232|80:304,1,200,2|0
160,312,136586,1,0
208,304,137002,1,0
256,312,137419,6,0,B|288:264|272:192,1,100,2|0
200,152,139086,1,0
264,72,139919,1,0
312,80,140336,1,0
336,120,140752,6,0,B|424:184|368:256|416:312,1,200,2|4
264,248,143669,5,0
216,232,144086,1,2
208,128,144919,1,0
160,112,145336,1,0
112,120,145752,2,0,B|72:168|96:248,1,100
184,200,147419,6,0,B|264:256|336:184|384:216,1,200,2|4
208,320,150752,5,4
160,232,151586,1,4
248,184,152419,2,0,B|248:128|200:88,1,100,4|0
104,96,154086,5,4
72,192,154919,1,4
40,288,155752,2,0,B|80:328|152:312,1,100,4|0
152,216,157419,6,0,B|240:168|272:272|368:192,1,200,2|4
424,152,159919,1,0
256,208,160752,12,4,164086
448,136,167419,6,0,B|464:192|440:248,1,100,4|0
344,208,169086,1,2
312,248,169502,1,0
264,264,169919,1,0
216,256,170336,1,0
176,224,170752,6,0,B|200:160|152:128|176:48,1,150,2|0
120,64,172419,2,0,B|108:117|148:157|124:213,1,150,2|0
124,211,174086,5,2
176,296,174919,1,0
272,328,175752,1,2
280,280,176169,1,0
264,232,176586,1,0
224,200,177002,1,0
184,232,177419,6,0,B|128:248|72:232,1,100,2|0
40,328,179085,2,0,B|96:344|152:328,1,100,2|0
176,296,180335,1,0
224,312,180752,6,0,B|304:280|312:208|304:152|280:120,1,200,4|2
192,128,183252,1,0
104,176,184085,6,0,B|64:136|72:72,1,100,2|0
120,80,185335,1,0
152,40,185752,2,0,B|224:48|248:120|216:184|288:216,1,200,2|2
352,168,188252,5,0
376,208,188668,1,0
368,256,189085,1,2
280,304,189918,1,0
192,352,190752,6,0,B|104:272|160:128,1,200,2|2
146,168,193252,1,0
224,224,194085,6,0,B|328:272|368:208|400:224|440:224,1,200,4|2
464,248,196168,1,0
480,296,196585,1,0
456,344,197002,1,0
408,352,197418,6,0,B|352:312|336:232|360:152,1,200,4|2
440,216,199918,1,0
456,168,200335,1,0
456,120,200752,6,0,B|376:176|320:104|296:128|256:128,1,200,4|2
184,64,203252,1,0
88,96,204085,6,0,B|72:144|80:208,1,100,4|0
144,272,205752,1,2
192,272,206168,1,0
240,288,206585,1,0
288,288,207002,1,0
328,320,207418,6,0,B|400:296|408:232|368:168|296:184,1,200,4|2
232,224,209918,1,0
184,232,210335,1,0
136,232,210752,6,0,B|64:208|56:144|96:80|168:96,1,200,4|2
232,144,213252,1,0
280,128,213668,1,0
328,136,214085,6,0,B|352:192|328:256,1,100,4|0
256,208,215752,12,4,220752
216,336,230752,5,2
48,224,232419,2,0,B|120:256|184:240|184:184|256:192,1,200,0|2
368,344,235753,6,0,B|416:280|376:232|352:208|352:152,1,200,0|2
184,256,239086,6,0,B|160:208|168:144,1,100
256,112,240753,5,2
328,184,241586,1,2
424,152,242419,2,0,B|456:200|448:256,1,100,2|0
360,288,244086,5,4
72,320,264086,5,2
168,304,264919,2,0,B|192:240|168:168,1,100,0|2
128,120,266586,1,0
64,200,267419,5,2
64,248,267836,1,0
96,288,268253,2,0,B|144:312|200:296,1,100,0|2
216,200,269919,2,0,B|192:144|216:80,1,100,0|2
296,152,271586,6,0,B|360:128|400:176|456:144,1,150,4|0
472,192,273252,1,0
456,240,273669,1,0
456,288,274086,6,0,B|400:304|344:288|336:224|272:208,1,200,4|2
232,296,276586,1,0
184,312,277003,1,0
136,304,277419,6,0,B|104:256|120:184,1,100,4|0
72,112,279086,1,2
160,64,279919,1,0
256,96,280752,6,0,B|312:200|264:304,1,200,4|2
352,344,283252,1,0
392,312,283669,1,0
384,264,284086,6,0,B|328:240|272:256|248:320|168:320,1,200,4|2
104,280,286586,1,0
144,248,287003,1,0
152,200,287420,6,0,B|208:176|264:192|288:256|368:256,1,200,4|2
416,192,289919,2,0,B|448:240|440:304,1,100,0|4
352,336,291586,5,0
256,208,292419,12,2,297419
