osu file format v11

[General]
AudioFilename: Higurashi_no_Naku_Koro_ni_Kai_-_Naraku_no_Hana_TV_Size.mp3
AudioLeadIn: 0
PreviewTime: 38757
Countdown: 0
SampleSet: Soft
StackLeniency: 0.7
Mode: 0
LetterboxInBreaks: 0

[Editor]
Bookmarks: -49,22381,44399,66831,88711
DistanceSpacing: 1.4
BeatDivisor: 4
GridSize: 4

[Metadata]
Title:Naraku no Hana (TV Size)
TitleUnicode:Naraku no Hana (TV Size)
Artist:Shimamiya Eiko
ArtistUnicode:Shimamiya Eiko
Creator:Revy
Version:Normal
Source:Higurashi no Naku Koro ni Kai
Tags:lally undermine when they cry wtc collab
BeatmapID:197771
BeatmapSetID:68176

[Difficulty]
HPDrainRate:4
CircleSize:3
OverallDifficulty:3
ApproachRate:4
SliderMultiplier:1.4
SliderTickRate:2

[Events]
//Background and Video events
0,0,"bg2.jpg"
Video,-1200,"Higurashi No Naku Koro Ni Opening.AVI"
//Break Periods
//Storyboard Layer 0 (Background)
//Storyboard Layer 1 (Fail)
//Storyboard Layer 2 (Pass)
//Storyboard Layer 3 (Foreground)
Sprite,Foreground,Centre,"lallyhigurashi.png",320,240 F,0,4078,4354,0,1 M,0,4354,,184,127 S,0,4354,,0.4219355 R,0,4354,,0.2807741 F,0,4354,21693,1 F,0,21693,21968,1,0 F,0,21968,44262,0 F,0,44262,44537,0,1 F,0,44537,66831,1 F,0,66831,67106,1,0 F,0,67106,74812,0 F,0,74812,75363,0,1 F,0,75363,94078,1 F,0,94078,94353,1,0
Sprite,Foreground,Centre,"revyhigurashi.png",320,240 M,0,22168,,450,120 S,0,22168,,0.4549677 R,0,22168,,-0.4954837 F,0,22168,22794,0,1 F,0,22794,43436,1 F,0,43436,43987,1,0 F,0,43987,66968,0 F,0,66968,67381,0,1 F,0,67381,73987,1 F,0,73987,74262,1,0
//Storyboard Sound Samples
//Background Colour Transformations
3,100,163,162,255

[TimingPoints]
4354,550.45871559633,4,2,1,35,1,0
8895,-100,4,2,1,5,0,0
9170,-100,4,2,1,35,0,0
10271,-100,4,2,1,5,0,0
10546,-100,4,2,1,35,0,0
10959,-100,4,2,1,35,0,0
13161,-100,4,2,0,35,0,0
13711,-100,4,2,1,35,0,0
16464,-100,4,2,1,35,0,0
21968,-100,4,2,0,35,0,0
25133,-100,4,2,1,35,0,0
25409,-100,4,2,0,35,0,0
34353,-100,4,2,0,10,0,0
37381,-100,4,2,0,65,0,0
39583,-100,4,2,1,65,0,1
48115,-100,4,2,0,65,0,1
48184,-100,4,2,1,65,0,1
56097,-100,4,2,1,50,0,0
57198,-100,4,2,1,65,0,1
60776,-100,4,2,0,65,0,1
60844,-100,4,2,1,65,0,1
61876,-100,4,2,0,65,0,1
61945,-100,4,2,1,65,0,1
66005,-100,4,2,0,65,0,0
66142,-100,4,2,1,65,0,0
94353,-100,4,2,1,5,0,0

[Colours]
Combo1 : 255,128,255
Combo2 : 85,255,255
Combo3 : 125,125,255
Combo4 : 255,255,255

[HitObjects]
256,296,4354,1,6,0:0:0
168,264,4629,2,0,P|208:216|208:140,1,140
256,64,5454,1,0,0:0:0
304,140,5730,2,0,P|305:215|345:263,1,140
400,184,6555,5,4,0:0:0
428,88,6831,2,0,P|496:52,2,70
336,60,7656,1,2,0:0:0
72,128,8482,5,0,0:0:0
72,128,8757,2,0,P|36:192|48:260,1,140,4|2,0:0|0:0,0:0:0
132,304,9583,1,0,0:0:0
172,216,9858,2,0,P|252:216|292:256,1,140,0|2,0:0|0:0,0:0:0
356,328,10684,1,0,0:0:0
436,272,10959,1,6,0:0:0
256,352,12610,6,0,P|256:316|256:316|252:308|252:308|260:308|260:308|256:300|256:300|256:276|256:276|252:268|252:268|260:268|260:268|256:260|256:260|256:232,1,140,2|4,0:0|0:0,0:0:0
163,58,13711,6,0,P|183:74|255:22|255:22|335:74|351:58,1,210,0|2,0:0|0:0,0:0:0
448,200,15087,2,0,P|508:156|508:88,2,140,0|0|0,0:0|0:0|0:0,0:0:0
348,200,16464,1,2,0:0:0
76,132,17565,6,0,P|44:188|76:268,1,140,4|2,0:0|0:0,0:0:0
148,308,18390,1,0,0:0:0
164,212,18665,2,0,P|196:168|276:164,1,140,0|2,0:0|0:0,0:0:0
256,40,21418,6,0,P|256:76|256:76|252:84|252:84|260:84|260:84|256:92|256:92|256:116|256:116|252:124|252:124|260:124|260:124|256:132|256:132|256:160,1,140,2|4,0:0|0:0,0:0:0
452,184,22519,6,0,P|428:236|348:264,1,140,2|0,0:0|0:0,0:0:0
160,264,23620,1,2,0:0:0
256,92,24170,2,0,P|280:40|360:12,1,140,0|2,0:0|0:0,0:0:0
476,164,25271,1,2,0:0:0
316,316,26372,6,0,P|253:347|191:315,1,140,4|2,0:0|0:0,0:0:0
120,256,27198,2,0,P|92:191|129:132,1,140,0|0,0:0|0:0,0:0:0
192,64,28023,2,0,P|256:36|315:73,1,140,2|4,0:0|0:0,0:0:0
464,192,29124,2,0,P|464:280,2,70,2|0|0,0:0|0:0|0:0,0:0:0
188,128,30776,6,0,P|167:228|201:267,1,140,4|2,0:0|0:0,0:0:0
256,319,31601,1,0,0:0:0
328,253,31876,2,0,P|348:152|314:113,1,140,0|2,0:0|0:0,0:0:0
256,64,32702,2,0,P|216:52|188:28,1,70,0|4,0:0|0:0,0:0:0
256,192,34353,12,4,37381,0:0:0
216,164,38757,5,0,0:0:0
132,216,39032,1,8,0:0:0
108,312,39308,1,0,0:0:0
200,344,39583,38,0,P|260:312|320:352,1,140,6|8,0:0|0:0,0:0:0
416,328,40409,1,0,0:0:0
352,256,40684,2,0,P|333:166|386:130,1,140,2|8,0:0|0:0,0:0:0
440,192,41509,1,0,0:0:0
456,96,41785,2,0,P|408:40|328:48,1,140,6|8,0:0|0:0,0:0:0
264,88,42610,1,0,0:0:0
168,80,42886,6,0,P|200:160|256:184,1,140,2|8,0:0|0:0,0:0:0
340,168,43711,2,0,P|372:184|380:232,1,70,0|6,0:0|0:0,0:0:0
348,308,44262,2,0,P|316:292|308:244,1,70,0|8,0:0|0:0,0:0:0
340,168,44812,1,0,0:0:0
480,304,45363,6,0,P|436:368|372:376,2,140,0|4|0,0:0|0:0|0:0,0:0:0
480,204,46739,1,8,0:0:0
452,112,47014,2,0,P|416:76|384:68,1,70,0|2,0:0|0:0,0:0:0
116,264,48115,6,0,P|172:216|172:140,1,140,4|0,0:0|0:0,0:0:0
256,96,48941,1,8,0:0:0
336,152,49216,2,0,P|340:214|396:262,1,140,0|0,0:0|0:0,0:0:0
292,320,50317,6,0,P|208:320,1,70,0|4,0:0|0:0,0:0:0
124,320,50867,1,0,0:0:0
26,320,51142,1,8,0:0:0
72,232,51418,2,0,P|76:152|124:112,1,140,0|0,0:0|0:0,0:0:0
256,192,52243,12,2,53895,0:0:0
97,227,54445,5,8,0:0:0
158,41,54996,1,6,0:0:0
355,41,55546,1,8,0:0:0
414,227,56097,1,2,0:0:0
256,343,56647,1,8,0:0:0
248,148,57198,6,0,P|316:174|340:242,1,140,6|8,0:0|0:0,0:0:0
296,320,58024,1,0,0:0:0
200,340,58299,2,0,P|132:314|116:252,1,140,2|8,0:0|0:0,0:0:0
168,172,59125,6,0,P|212:136|220:104,2,70,0|6|0,0:0|0:0|0:0,0:0:0
104,96,59951,2,0,P|62:156|84:218,1,140,8|2,0:0|0:0,0:0:0
168,172,60776,6,0,P|208:228|176:300,1,140,4|0,0:0|0:0,0:0:0
344,176,61876,2,0,P|304:232|336:304,1,140,4|0,0:0|0:0,0:0:0
292,100,62977,2,0,P|353:72|413:104,1,140,2|0,0:0|0:0,0:0:0
256,192,63803,12,4,66005,0:0:0
144,288,66831,5,0,0:0:0
104,200,67106,1,2,0:0:0
192,160,67381,2,0,P|214:78|184:24,1,140
320,32,68207,2,0,P|297:113|328:168,1,140,4|8,0:0|0:0,0:0:0
416,176,69032,2,0,P|392:232|304:248,1,140,2|0,0:0|0:0,0:0:0
128,312,70133,5,0,0:0:0
128,312,70409,2,0,P|152:248|128:176,1,140,4|8,0:0|0:0,0:0:0
32,168,71234,1,0,0:0:0
80,88,71509,2,0,P|144:64|208:96,1,140,2|8,0:0|0:0,0:0:0
256,192,72198,12,2,74262,0:0:0
184,284,74812,6,0,P|128:268|112:312|72:276,2,105,4|2|0,0:0|0:0|0:0,0:0:0
256,216,75913,2,0,P|296:172|332:188|312:152|344:104,1,140,0|8,0:0|0:0,0:0:0
396,148,78115,2,0,P|428:176|440:204,1,70,2|0,0:0|0:0,0:0:0
388,284,78665,2,0,P|356:256|344:228,1,70,8|0,0:0|0:0,0:0:0
284,156,79216,6,0,P|256:120|256:120|224:96|192:88,2,105,4|2|0,0:0|0:0|0:0,0:0:0
252,248,80317,2,0,P|216:280|208:368,1,140,2|8,0:0|0:0,0:0:0
32,80,82519,2,0,P|84:140|116:36|168:112,1,140,2|8,0:0|0:0,0:0:0
348,64,83620,6,0,P|384:44|416:64|416:64|448:40,2,105,4|2|0,0:0|0:0|0:0,0:0:0
260,20,84720,2,0,P|244:92|292:148,1,140,2|8,0:0|0:0,0:0:0
204,176,86922,2,0,P|204:256,1,70,2|0,0:0|0:0,0:0:0
304,244,87473,2,0,P|304:156,1,70,8|0,0:0|0:0,0:0:0
316,76,88023,6,0,P|356:48|380:44|380:44|408:12,2,105,4|2|0,0:0|0:0|0:0,0:0:0
220,84,89124,2,0,P|160:60|156:132|92:132,1,140,2|8,0:0|0:0,0:0:0
232,148,91326,2,0,P|192:172|180:212,1,70,2|0,0:0|0:0,0:0:0
268,240,91876,2,0,P|308:216|320:176,1,70,8|0,0:0|0:0,0:0:0
256,192,92427,12,0,94353,0:0:0
