osu file format v11

[General]
AudioFilename: Higurashi_no_Naku_Koro_ni_Kai_-_Naraku_no_Hana_TV_Size.mp3
AudioLeadIn: 0
PreviewTime: 38757
Countdown: 0
SampleSet: Soft
StackLeniency: 0.7
Mode: 0
LetterboxInBreaks: 0

[Editor]
Bookmarks: 38757
DistanceSpacing: 1
BeatDivisor: 2
GridSize: 4

[Metadata]
Title:Naraku no Hana (TV Size)
TitleUnicode:Naraku no Hana (TV Size)
Artist:Shimamiya Eiko
ArtistUnicode:Shimamiya Eiko
Creator:Revy
Version:Hard
Source:Higurashi no Naku Koro ni Kai
Tags:lally undermine when they cry wtc collab
BeatmapID:197494
BeatmapSetID:68176

[Difficulty]
HPDrainRate:6
CircleSize:4
OverallDifficulty:6
ApproachRate:7
SliderMultiplier:1.4
SliderTickRate:2

[Events]
//Background and Video events
0,0,"bg2.jpg"
Video,-1300,"Higurashi No Naku Koro Ni Opening.AVI"
//Break Periods
//Storyboard Layer 0 (Background)
//Storyboard Layer 1 (Fail)
//Storyboard Layer 2 (Pass)
//Storyboard Layer 3 (Foreground)
//Storyboard Sound Samples
//Background Colour Transformations
3,100,163,162,255

[TimingPoints]
4354,550.45871559633,4,2,0,25,1,0
11234,-100,4,2,1,25,0,0
13161,-100,4,2,0,25,0,0
20042,-100,4,2,1,25,0,0
21968,-100,4,2,0,25,0,0
37243,-100,4,2,0,5,0,0
38757,-66.6666666666667,4,2,0,65,0,0
39583,-66.6666666666667,4,2,1,65,0,1
55684,-66.6666666666667,4,2,0,65,0,1
56097,-100,4,2,1,65,0,0
57198,-66.6666666666667,4,2,1,65,0,1
62565,-66.6666666666667,4,2,0,65,0,1
62840,-66.6666666666667,4,2,1,65,0,1
65867,-66.6666666666667,4,2,0,65,0,1
66005,-66.6666666666667,4,2,1,65,0,0
74262,-66.6666666666667,4,2,1,65,0,0
80867,-66.6666666666667,4,2,0,65,0,0
94353,-100,4,2,1,5,0,0

[Colours]
Combo1 : 255,128,255
Combo2 : 85,255,255
Combo3 : 125,125,255
Combo4 : 255,255,255

[HitObjects]
68,128,4354,1,0,0:0:0
20,192,4629,1,0,0:0:0
68,256,4904,1,0,0:0:0
116,192,5179,2,0,P|268:192,1,140
332,312,6280,5,0,0:0:0
256,332,6555,1,0,0:0:0
180,312,6831,1,0,0:0:0
256,332,7106,1,0,0:0:0
256,332,7381,2,0,P|256:188,1,140
256,52,8482,5,0,0:0:0
256,52,8620,1,0,0:0:0
256,52,8757,2,0,P|256:196,1,140
332,192,9583,2,0,P|364:256|332:328,1,140,0|0,0:0|0:0,0:0:0
169,317,10409,2,0,P|148:256|180:192,1,140
332,192,11234,6,0,P|396:192,2,35,0|0|0,0:0|0:0|0:0,0:0:0
180,192,11785,2,0,P|116:192,2,35,0|0|0,0:0|0:0|0:0,0:0:0
256,128,12335,5,0,0:0:0
180,192,12610,1,0,0:0:0
256,256,12886,1,4,0:0:0
256,256,13161,6,0,P|308:252|344:264,1,70,2|0,0:0|0:0,0:0:0
432,256,13711,1,0,0:0:0
432,256,13987,2,0,P|436:184|388:128,1,140
192,56,15087,5,0,0:0:0
192,56,15363,2,0,P|256:80|320:56,1,140
372,112,16188,1,0,0:0:0
372,112,16464,2,0,P|256:176|136:108,1,280,2|0,0:0|0:0,0:0:0
180,228,18115,5,0,0:0:0
180,228,18390,2,0,P|204:288|160:356,1,140
328,348,19216,2,0,P|304:288|348:220,1,140
176,192,20042,6,0,P|112:192,2,35,0|0|0,0:0|0:0|0:0,0:0:0
336,192,20593,2,0,P|400:192,2,35,0|0|0,0:0|0:0|0:0,0:0:0
256,192,21142,5,0,0:0:0
256,268,21418,1,0,0:0:0
184,292,21693,1,4,0:0:0
132,348,21968,6,4,P|108:284|144:228,1,140,4|0,0:0|0:0,0:0:0
128,152,22794,1,0,0:0:0
88,84,23069,2,0,P|156:76|208:140,1,140
220,200,23895,1,0,0:0:0
292,232,24170,2,0,P|264:292|288:360,1,140
344,300,24996,1,0,0:0:0
344,300,25271,2,0,P|256:308|204:288,1,140,2|0,0:0|0:0,0:0:0
64,348,26372,6,0,P|88:284|60:216,1,140,4|0,0:0|0:0,0:0:0
96,148,27198,2,0,P|160:176|224:156,1,140
260,88,28023,2,0,P|300:140|280:208,1,140
160,304,29124,1,0,0:0:0
92,336,29399,1,0,0:0:0
112,76,30225,6,0,P|76:124|76:156,1,70
152,208,30776,6,0,P|184:264|254:272,1,140,6|0,0:0|0:0,0:0:0
254,273,31601,5,0,0:0:0
327,249,31876,1,0,0:0:0
304,175,32152,1,0,0:0:0
230,198,32427,1,0,0:0:0
152,208,32702,2,0,P|168:144|236:120,1,140,2|0,0:0|0:0,0:0:0
400,352,34353,5,0,0:0:0
336,308,34629,1,2,0:0:0
260,292,34904,1,0,0:0:0
192,324,35179,2,0,P|104:360,1,70,2|0,0:0|0:0,0:0:0
108,276,35730,1,2,0:0:0
80,204,36005,1,2,0:0:0
104,132,36280,1,0,0:0:0
164,84,36555,1,0,0:0:0
240,96,36831,2,0,P|300:148,1,70
256,192,37381,12,0,38482,0:0:0
160,304,38757,5,0,0:0:0
256,192,39032,1,0,0:0:0
352,304,39308,1,0,0:0:0
420,212,39583,6,0,P|480:264,2,52.5000020027161,4|0|0,0:0|0:0|0:0,0:0:0
348,120,40133,1,4,0:0:0
348,120,40409,2,0,P|298:98|259:27,1,105.000004005432,0|4,0:0|0:0,0:0:0
148,48,40959,5,0,0:0:0
148,48,41097,1,0,0:0:0
148,48,41234,1,4,0:0:0
116,148,41509,2,0,P|56:104,2,52.5000020027161,0|0|4,0:0|0:0|0:0,0:0:0
120,252,42060,1,0,0:0:0
120,252,42198,1,0,0:0:0
120,252,42335,1,4,0:0:0
204,316,42610,2,0,P|256:316|316:316,1,105.000004005432,0|4,0:0|0:0,0:0:0
420,344,43161,5,0,0:0:0
464,236,43436,1,4,0:0:0
464,236,43711,2,0,P|448:172|480:108,1,105.000004005432,0|4,0:0|0:0,0:0:0
396,40,44262,1,0,0:0:0
332,136,44537,1,4,0:0:0
268,40,44812,1,2,0:0:0
268,40,44950,1,0,0:0:0
268,40,45087,1,4,0:0:0
172,84,45363,6,0,P|112:44,2,52.5000020027161
172,84,45913,2,0,P|140:132|96:156,1,105.000004005432,2|4,0:0|0:0,0:0:0
96,260,46464,2,0,P|148:280|196:264,1,105.000004005432,2|4,0:0|0:0,0:0:0
284,216,47014,2,0,P|340:200|396:224,1,105.000004005432,2|4,0:0|0:0,0:0:0
388,320,47565,2,0,P|428:360,2,52.5000020027161,0|0|4,0:0|0:0|0:0,0:0:0
388,320,48115,6,0,P|412:264|404:216,1,105.000004005432,0|6,0:0|0:0,0:0:0
344,136,48665,2,0,P|316:100|256:100,1,105.000004005432,0|6,0:0|0:0,0:0:0
212,192,49216,1,0,0:0:0
148,100,49491,1,4,0:0:0
32,84,49766,2,0,P|-4:32,2,52.5000020027161,0|0|4,0:0|0:0|0:0,0:0:0
52,184,50317,5,0,0:0:0
52,184,50454,1,0,0:0:0
52,184,50592,1,6,0:0:0
164,216,50867,1,0,0:0:0
108,316,51142,2,0,P|156:336|212:316,1,105.000004005432,6|0,0:0|0:0,0:0:0
256,216,51693,5,10,0:0:0
256,100,51968,1,0,0:0:0
256,228,52243,1,10,0:0:0
256,88,52519,1,0,0:0:0
256,88,52656,1,0,0:0:0
256,88,52794,1,8,0:0:0
348,156,53069,2,4,P|372:200|424:216,1,105.000004005432,0|2,0:0|0:0,0:0:0
440,112,53620,2,0,P|504:88,2,52.5000020027161
440,112,54170,6,4,P|404:80|344:64,1,105.000004005432,0|2,0:0|0:0,0:0:0
240,68,54720,1,0,0:0:0
136,116,54996,2,0,P|88:72,2,52.5000020027161,2|0|0,0:0|0:0|0:0,0:0:0
164,228,55546,2,0,P|215:206|239:161,1,105.000004005432,0|4,0:0|0:0,0:0:0
342,164,56372,5,0,0:0:0
206,266,56647,1,0,0:0:0
256,104,56922,1,0,0:0:0
311,264,57198,1,4,0:0:0
172,167,57473,1,0,0:0:0
256,192,57748,5,6,0:0:0
256,192,58023,2,0,P|256:304,1,105.000004005432,0|6,0:0|0:0,0:0:0
144,324,58574,5,0,0:0:0
144,324,58711,1,0,0:0:0
144,324,58849,1,6,0:0:0
72,232,59124,2,0,P|48:184|68:136,1,105.000004005432,0|6,0:0|0:0,0:0:0
156,68,59675,2,0,P|180:136|164:180,1,105.000004005432,0|4,0:0|0:0,0:0:0
208,276,60225,2,0,P|256:300|304:280,1,105.000004005432,0|6,0:0|0:0,0:0:0
256,176,60776,5,0,0:0:0
320,80,61051,1,10,0:0:0
408,156,61326,2,0,P|456:180|472:240,1,105.000004005432,0|10,0:0|0:0,0:0:0
364,260,61876,2,0,P|348:324|300:348,1,105.000004005432,0|10,0:0|0:0,0:0:0
193,344,62427,2,0,P|164:324|148:260,1,105.000004005432,0|10,0:0|0:0,0:0:0
220,144,62977,6,0,P|164:156|104:140,1,105.000004005432,0|12,0:0|0:0,0:0:0
16,96,63528,1,0,0:0:0
120,48,63803,2,0,P|172:36|232:56,1,105.000004005432,4|0,0:0|0:0,0:0:0
328,88,64353,1,6,0:0:0
436,128,64629,2,0,P|436:248,1,105.000004005432,0|6,0:0|0:0,0:0:0
432,348,65179,2,0,P|380:344|344:296,1,105.000004005432,0|6,0:0|0:0,0:0:0
352,192,65730,2,0,P|304:192|260:236,1,105.000004005432,0|4,0:0|0:0,0:0:0
164,172,66280,2,0,P|128:120,2,52.5000020027161,0|0|4,0:0|0:0|0:0,0:0:0
256,96,66831,5,0,0:0:0
256,112,67106,1,10,0:0:0
256,132,67381,1,0,0:0:0
256,152,67656,1,10,0:0:0
304,256,67931,6,2,P|256:268|200:256,1,105.000004005432,0|10,0:0|0:0,0:0:0
136,168,68482,1,0,0:0:0
184,64,68757,1,10,0:0:0
296,32,69032,2,0,P|352:64|372:104,1,105.000004005432,0|10,0:0|0:0,0:0:0
456,192,69583,2,0,P|456:244|416:304,1,105.000004005432,0|10,0:0|0:0,0:0:0
352,192,70133,1,0,0:0:0
304,308,70409,6,0,P|256:320|184:300,1,105.000004005432,6|0,0:0|0:0,0:0:0
144,220,70959,1,8,0:0:0
88,118,71234,1,0,0:0:0
166,34,71509,1,6,0:0:0
271,83,71785,1,0,0:0:0
257,197,72060,1,6,0:0:0
256,192,72335,12,0,74262,0:0:0
280,336,74812,6,0,P|352:256,1,105.000004005432,4|0,0:0|0:0,0:0:0
412,228,75225,2,0,P|456:264,1,52.5000020027161,0|8,0:0|0:0,0:0:0
412,152,75638,1,0,0:0:0
412,152,75776,1,0,0:0:0
412,152,75914,1,2,0:0:0
276,104,76188,2,0,P|224:124|152:100,1,105.000004005432,0|8,0:0|0:0,0:0:0
80,56,76739,2,0,P|48:104|64:168,1,105.000004005432,0|4,0:0|0:0,0:0:0
88,264,77289,5,0,0:0:0
88,264,77427,1,0,0:0:0
88,264,77565,1,8,0:0:0
204,260,77840,2,0,P|160:304,1,52.5000020027161
204,260,78115,6,0,P|284:300|328:296,1,105.000004005432,2|0,0:0|0:0,0:0:0
328,188,78665,2,0,P|268:152|196:156,1,105.000004005432,8|0,0:0|0:0,0:0:0
204,36,79216,6,0,P|244:56|312:56,1,105.000004005432,4|0,0:0|0:0,0:0:0
303,58,79629,2,0,P|292:4,1,52.5000020027161,0|8,0:0|0:0,0:0:0
376,88,80042,1,0,0:0:0
376,88,80179,1,0,0:0:0
376,88,80317,1,2,0:0:0
452,172,80592,2,0,P|456:268|420:300,1,105.000004005432,0|8,0:0|0:0,0:0:0
364,344,81142,2,0,P|316:328|248:356,1,105.000004005432,0|4,0:0|0:0,0:0:0
176,288,81693,5,0,0:0:0
176,288,81831,1,0,0:0:0
176,288,81968,1,8,0:0:0
80,224,82243,2,0,P|44:276,1,52.5000020027161
80,224,82519,6,0,P|136:212|168:168,1,105.000004005432,2|0,0:0|0:0,0:0:0
140,64,83069,2,0,P|192:104|260:96,1,105.000004005432,8|0,0:0|0:0,0:0:0
340,68,83620,6,0,P|320:164|344:196,1,105.000004005432,4|0,0:0|0:0,0:0:0
320,164,84032,2,0,P|380:140,1,52.5000020027161,0|8,0:0|0:0,0:0:0
452,224,84445,1,0,0:0:0
452,224,84583,1,0,0:0:0
452,224,84720,1,2,0:0:0
372,308,84996,2,0,P|320:328|252:308,1,105.000004005432,0|8,0:0|0:0,0:0:0
160,348,85546,6,0,P|184:264|164:216,1,105.000004005432,0|4,0:0|0:0,0:0:0
80,192,86097,1,0,0:0:0
80,192,86234,1,0,0:0:0
80,192,86372,1,8,0:0:0
104,80,86647,2,0,P|48:120,1,52.5000020027161
104,80,86922,6,0,P|120:128|212:152,1,105.000004005432,2|0,0:0|0:0,0:0:0
276,128,87473,2,0,P|292:180|256:264,1,105.000004005432,8|0,0:0|0:0,0:0:0
184,292,88023,6,0,P|256:316|320:292,1,105.000004005432,4|0,0:0|0:0,0:0:0
340,312,88436,2,0,P|332:368,1,52.5000020027161,0|8,0:0|0:0,0:0:0
416,284,88849,2,0,P|384:240|380:148,1,105.000004005432,0|2,0:0|0:0,0:0:0
364,76,89399,1,0,0:0:0
364,76,89537,1,0,0:0:0
364,76,89675,1,8,0:0:0
256,120,89950,6,0,P|216:156|160:164,1,105.000004005432,0|4,0:0|0:0,0:0:0
52,184,90500,2,0,P|-4:260,1,52.5000020027161
32,284,90776,1,8,0:0:0
140,324,91051,1,0,0:0:0
196,324,91188,1,0,0:0:0
252,324,91326,1,2,0:0:0
368,328,91601,2,0,P|404:272|396:208,1,105.000004005432,0|8,0:0|0:0,0:0:0
304,112,92152,1,2,0:0:0
256,192,92427,12,0,94353,0:0:0
