osu file format v11

[General]
AudioFilename: Higurashi_no_Naku_Koro_ni_Kai_-_Naraku_no_Hana_TV_Size.mp3
AudioLeadIn: 0
PreviewTime: 38757
Countdown: 0
SampleSet: Soft
StackLeniency: 0.7
Mode: 0
LetterboxInBreaks: 0

[Editor]
Bookmarks: -49,22381,44399,66831,88711
DistanceSpacing: 1.2
BeatDivisor: 4
GridSize: 4

[Metadata]
Title:Naraku no Hana (TV Size)
TitleUnicode:Naraku no Hana (TV Size)
Artist:Shimamiya Eiko
ArtistUnicode:Shimamiya Eiko
Creator:Revy
Version:Easy
Source:Higurashi no Naku Koro ni Kai
Tags:lally undermine when they cry wtc collab
BeatmapID:198064
BeatmapSetID:68176

[Difficulty]
HPDrainRate:2
CircleSize:2
OverallDifficulty:2
ApproachRate:2
SliderMultiplier:1.1
SliderTickRate:2

[Events]
//Background and Video events
0,0,"bg2.jpg"
Video,-1300,"Higurashi No Naku Koro Ni Opening.AVI"
//Break Periods
//Storyboard Layer 0 (Background)
//Storyboard Layer 1 (Fail)
//Storyboard Layer 2 (Pass)
//Storyboard Layer 3 (Foreground)
//Storyboard Sound Samples
//Background Colour Transformations
3,100,163,162,255

[TimingPoints]
4354,550.45871559633,4,2,1,45,1,0
4904,-100,4,2,0,50,0,0
12610,-100,4,1,0,30,0,0
12748,-100,4,1,0,50,0,0
13023,-100,4,2,0,50,0,0
16464,-100,4,2,1,50,0,0
16601,-100,4,2,0,50,0,0
21418,-100,4,1,0,30,0,0
21555,-100,4,1,0,50,0,0
21968,-100,4,2,0,50,0,0
25271,-100,4,2,1,50,0,0
26097,-100,4,2,0,50,0,0
27473,-100,4,2,0,30,0,0
28023,-100,4,2,0,50,0,0
30225,-100,4,1,0,30,0,0
30776,-100,4,2,0,50,0,0
34353,-100,4,2,0,35,0,0
37381,-100,4,2,0,5,0,0
39032,-100,4,2,0,35,0,0
39583,-100,4,2,0,45,0,1
39720,-100,4,2,0,65,0,1
40133,-100,4,3,0,85,0,1
40271,-100,4,2,0,65,0,1
41234,-100,4,3,0,85,0,1
41372,-100,4,2,0,65,0,1
42335,-100,4,3,0,85,0,1
42473,-100,4,2,0,65,0,1
43436,-100,4,3,0,85,0,1
43574,-100,4,2,0,65,0,1
44537,-100,4,3,0,85,0,1
44675,-100,4,2,0,65,0,1
45638,-100,4,3,0,85,0,1
45776,-100,4,2,0,65,0,1
46739,-100,4,3,0,85,0,1
46876,-100,4,2,0,65,0,1
48941,-100,4,3,0,85,0,1
49216,-100,4,2,0,65,0,1
50042,-100,4,3,0,85,0,1
50592,-100,4,2,0,65,0,1
51142,-100,4,3,0,85,0,1
51693,-100,4,2,0,65,0,1
52243,-100,4,3,0,85,0,1
52794,-100,4,2,0,65,0,1
55821,-100,4,2,0,65,0,0
56647,-100,4,2,0,50,0,1
57198,-100,4,2,0,45,0,1
57335,-100,4,2,0,65,0,1
57748,-100,4,3,0,85,0,1
58849,-100,4,2,0,65,0,1
59399,-100,4,3,0,85,0,1
59537,-100,4,2,0,65,0,1
60500,-100,4,3,0,85,0,1
61051,-100,4,2,0,65,0,1
62152,-100,4,3,0,85,0,1
62289,-100,4,2,0,65,0,1
63803,-100,4,2,0,55,0,1
64078,-100,4,2,0,65,0,1
66005,-100,4,3,0,75,0,0
66831,-100,4,2,0,65,0,0
68207,-100,4,3,0,85,0,0
68895,-100,4,2,0,65,0,0
70133,-100,4,2,0,55,0,0
70271,-100,4,2,0,65,0,0
70959,-100,4,3,0,85,0,0
71234,-100,4,2,0,65,0,0
72060,-100,4,3,0,85,0,0
72610,-100,4,3,0,80,0,0
72886,-100,4,2,0,55,0,0
73161,-100,4,3,0,70,0,0
73436,-100,4,2,0,50,0,0
73987,-100,4,2,0,45,0,0
74262,-100,4,3,0,75,0,0
74950,-100,4,2,0,65,0,0
75638,-100,4,2,0,65,0,0
75913,-100,4,3,0,85,0,0
76051,-100,4,2,0,65,0,0
76739,-100,4,2,0,50,0,0
78115,-100,4,3,0,85,0,0
78253,-100,4,2,0,65,0,0
79216,-100,4,3,0,85,0,0
79353,-100,4,2,0,65,0,0
80317,-100,4,3,0,85,0,0
80454,-100,4,2,0,65,0,0
81142,-100,4,2,0,50,0,0
82519,-100,4,1,0,35,0,0
83620,-100,4,3,0,85,0,0
84170,-100,4,2,0,65,0,0
84720,-100,4,3,0,85,0,0
84858,-100,4,2,0,65,0,0
85271,-100,4,3,0,85,0,0
87060,-100,4,2,0,65,0,0
88023,-100,4,3,0,85,0,0
88574,-100,4,2,0,65,0,0
88711,-100,4,1,0,75,0,0
89124,-100,4,3,0,75,0,0
90225,-100,4,3,0,80,0,0
92427,-100,4,2,0,65,0,0
94353,-100,4,2,0,5,0,0

[Colours]
Combo1 : 255,128,255
Combo2 : 85,255,255
Combo3 : 125,125,255
Combo4 : 255,255,255

[HitObjects]
256,192,4354,1,2,0:0:0
136,128,4904,6,0,P|168:80|224:64,1,110
376,176,6280,2,0,P|329:268|225:308,1,220,2|2,0:0|0:0,0:0:0
48,192,8207,6,0,P|48:136,1,55,0|2,0:0|0:0,0:0:0
48,72,8757,2,0,P|136:92|168:160,2,165,0|2|0,0:0|0:0|0:0,0:0:0
304,256,12610,6,2,P|352:240|376:280|416:256,1,110,0|0,0:0|0:0,0:0:0
448,128,13711,6,0,P|440:96|416:72,1,55,0|2,0:0|0:0,0:0:0
272,296,15087,2,0,P|176:248|160:128,1,220,2|2,0:0|0:0,0:0:0
168,80,16464,1,2,0:0:0
336,280,17565,6,0,P|417:219|457:171,2,165,0|2|0,0:0|0:0|0:0,0:0:0
48,64,21418,6,2,P|64:104|24:128|48:176,1,110,2|0,0:0|0:0,0:0:0
48,304,22519,6,0,P|104:304,1,55,0|2,0:0|0:0,0:0:0
368,304,23895,2,0,P|264:290|288:178|288:178|176:160,1,275,0|2,0:0|0:0,0:0:0
40,288,26097,6,0,P|40:184|40:184|104:120|104:120|104:40,1,275
224,96,28023,1,0,0:0:0
344,40,28574,2,0,P|344:104|344:104|328:144|328:144|328:216,2,165,0|2|2,0:0|0:0|0:0,0:0:0
224,96,30776,1,0,0:0:0
152,208,31326,6,0,P|88:208,2,55,0|2|0,0:0|0:0|0:0,0:0:0
288,208,32427,2,0,P|352:208,1,55,0|2,0:0|0:0,0:0:0
408,208,32977,2,0,P|416:152|408:88,1,110
352,288,34353,2,0,P|296:320|240:272|184:304,1,165,2|0,0:0|0:0,0:0:0
256,192,35317,12,0,37381,0:0:0
368,288,39032,6,0,P|368:232,1,55,0|2,0:0|0:0,0:0:0
368,168,39583,2,0,P|400:120|464:88,2,110,4|0|2,0:0|0:0|0:0,0:0:0
264,88,41234,2,0,P|264:143,1,55,0|2,0:0|0:0,0:0:0
264,208,41785,2,0,P|220:234|188:282,2,110,2|0|2,0:0|0:0|0:0,0:0:0
152,136,43436,6,0,P|112:88,2,55,0|0|2,0:0|0:0|0:0,0:0:0
152,272,44537,2,0,P|116:314,2,55,0|0|2,0:0|0:0|0:0,0:0:0
264,204,45638,2,0,P|320:204|376:204,3,110,0|0|0|2,0:0|0:0|0:0|0:0,0:0:0
508,204,47840,6,0,P|508:120|508:120|436:96|392:48,1,220
328,48,49216,2,0,P|240:96|240:152,1,165,2|0,0:0|0:0,0:0:0
240,284,50592,2,0,P|295:284,2,55,0|2|0,0:0|0:0|0:0,0:0:0
296,164,51693,2,0,P|241:164,2,55,0|2|0,0:0|0:0|0:0,0:0:0
428,164,52794,6,0,P|476:100|420:44,1,165,2|2,0:0|0:0,0:0:0
312,108,54170,2,0,P|248:92|208:132|144:108,2,165,2|0|2,0:0|0:0|0:0,0:0:0
148,220,56647,6,0,P|92:267|76:299,2,110,0|4|0,0:0|0:0|0:0,0:0:0
248,304,58298,1,2,0:0:0
360,232,58849,2,0,P|360:176,1,55,0|2,0:0|0:0,0:0:0
356,112,59399,2,0,P|340:80|284:32,2,110
224,120,61051,6,0,P|230:174,1,55,0|2,0:0|0:0,0:0:0
104,200,61876,2,0,P|88:144,2,55,4|0|2,0:0|0:0|0:0,0:0:0
120,332,62977,2,0,P|200:332|280:284,1,165,0|4,0:0|0:0,0:0:0
320,248,64078,2,0,P|352:208|368:152,2,110,2|0|2,0:0|0:0|0:0,0:0:0
184,104,66005,1,0,0:0:0
72,268,66831,6,0,P|200:332|300:268,1,275
192,192,68757,2,0,P|240:128|320:112,1,165,0|2,0:0|0:0,0:0:0
380,232,70133,2,0,P|332:296|252:312,1,165,6|0,0:0|0:0,0:0:0
188,312,71234,2,0,P|108:296|60:232,1,165,2|0,0:0|0:0,0:0:0
180,168,72610,6,0,P|180:104,1,55,0|4,0:0|0:0,0:0:0
244,100,73161,2,0,P|244:44,1,55,0|6,0:0|0:0,0:0:0
376,44,73987,2,0,P|376:99,1,55,4|0,0:0|0:0,0:0:0
376,232,74812,6,0,P|265:272|232:304,1,165,0|2,0:0|0:0,0:0:0
168,304,75913,2,0,P|136:272|25:231,1,165,0|2,0:0|0:0,0:0:0
328,96,78115,2,0,P|358:50,2,55,0|0|2,0:0|0:0|0:0,0:0:0
196,84,79216,6,0,P|140:156|116:92|52:156,1,165,0|2,0:0|0:0,0:0:0
52,220,80317,2,0,P|108:292|132:228|194:290,1,165,0|2,0:0|0:0,0:0:0
500,176,82519,2,2,P|436:176|404:136|404:136|372:176|300:176,1,220,2|0,0:0|0:0,0:0:0
168,176,84170,6,0,P|168:112,1,55,0|2,0:0|0:0,0:0:0
168,56,84720,2,0,P|224:40|272:56,1,110
168,328,86922,2,0,P|224:344|272:328,2,110
168,192,88574,6,0,P|264:128,1,110
32,272,90225,2,0,P|32:336,2,55,0|4|0,0:0|0:0|0:0,0:0:0
152,208,91326,2,0,P|152:144,2,55,4|0|0,0:0|0:0|0:0,0:0:0
264,272,92427,1,4,0:0:0
256,192,92565,12,0,94353,0:0:0
