osu file format v6

[General]
AudioFilename: Higurashi_no_Naku_Koro_ni_Kai_-_Naraku_no_Hana.mp3
AudioLeadIn: 0
PreviewTime: 52188
Countdown: 0
SampleSet: Normal
StackLeniency: 0.7
Mode: 0
LetterboxInBreaks: 0
SkinPreference:Default

[Editor]
DistanceSpacing: 1
BeatDivisor: 4
GridSize: 8

[Metadata]
Title:Naraku no Hana
Artist:Shimamiya Eiko
Creator:Azure_Kyte
Version:Shiroi no Hana
Source:Higurashi no Naku Koro ni Kai
Tags:When they Cry Anime Game Flower Hell Cicadas

[Difficulty]
HPDrainRate:3
CircleSize:3
OverallDifficulty:3
SliderMultiplier:1
SliderTickRate:1

[Events]
//Background and Video events
0,0,"rika-y-hanyuu.jpg"
//Break Periods
//Storyboard Layer 0 (Background)
Sprite,Background,Centre,"sb\black.png",320,240 F,0,-2,9286,1 F,0,9286,9355,1,0.9334397 F,0,9355,9424,0.9334397,1 F,0,9424,11763,1 F,0,11763,11832,1,0.9420798 F,0,11832,11901,0.9420798,1 F,0,11901,12245,1 F,0,12245,12314,1,0.9523199 F,0,12314,12382,0.9523199,1 F,0,12382,14516,1 F,0,14516,16167,1,0.9539198 F,0,16167,16236,0.9539198,1 F,0,16236,18093,1 F,0,18093,25800,1,0.4863999 F,0,25800,26075,0.4863999,1 F,0,26075,26901,1,0.9890909 F,0,26901,34607,0.9890909,0.4403201 F,0,34607,34882,0.4403201,1 F,0,34882,36259,1 F,0,36259,43415,1,0.4506752 F,0,43415,43690,0.4506752,1 F,0,43690,45066,1 F,0,45066,50571,1,0 F,0,50571,51953,0,1 F,0,51953,52222,1,0 F,0,52222,52503,0,1 F,0,52503,88518,1 F,0,88518,89069,1,0
Sprite,Background,Centre,"sb\white.png",320,240 M,0,88518,,320,240 F,0,88518,89344,1,0
//Storyboard Layer 1 (Fail)
//Storyboard Layer 2 (Pass)
//Storyboard Layer 3 (Foreground)
Sprite,Foreground,Centre,"sb\kei1top.png",320,240 M,0,9355,,318,82 F,0,9355,9424,0,1 M,0,9424,,322,86 M,0,9493,,319,86 M,0,9561,,315,85 M,0,9630,,317,82 M,0,9699,,322,86 M,0,9768,,320,86 M,0,9837,,318,87 M,0,9905,,320,84 M,0,9974,,316,87 M,0,10043,,318,84 M,0,10112,,311,86 M,0,10181,,314,82 M,0,10249,,316,84 F,0,9424,10318,1,0 M,0,10318,,312,80 F,0,10318,10387,0,1 M,0,10387,,306,84 F,0,10387,10456,1,0 M,0,10456,,308,82 F,0,10456,15892,0 F,0,15892,15960,0,1 F,0,15960,16029,1,0 F,0,16029,16098,0,0.1337115 M,0,16098,,309,84 F,0,16098,16167,0.1337115,1 M,0,16167,,311,84 F,0,16167,16236,1,0 M,0,16236,,313,86 M,0,16305,,315,84 M,0,16373,,311,86 M,0,16442,,314,89 M,0,16511,,318,86 M,0,16580,,320,91 F,0,16236,16649,0 M,0,16649,,318,91 F,0,16649,16717,0,0.9913786 M,0,16717,,315,92 F,0,16717,16786,0.9913786,0 M,0,16786,,320,90 M,0,16855,,323,93 M,0,16924,,317,89 M,0,16993,,313,91 M,0,17061,,317,91 M,0,17130,,319,89 M,0,17199,,313,91 M,0,17268,,316,86 M,0,17337,,318,92 M,0,17405,,314,90 M,0,17474,,310,93 M,0,17543,,312,89 M,0,17612,,314,91 M,0,17681,,310,93 M,0,17749,,313,89 F,0,16786,17818,0,1 M,0,17818,,315,90 F,0,17818,17887,1,0 M,0,17887,,313,88
Sprite,Foreground,Centre,"sb\kei1mid.png",320,240 M,0,7566,,320,240 F,0,7566,7635,0,1 M,0,7635,,317,237 M,0,7704,,313,240 M,0,7772,,315,237 F,0,7635,7841,1,0 M,0,7841,,317,241 F,0,7841,9355,0 F,0,9286,9355,0,1 M,0,9355,,317,239 F,0,9355,9424,0,1 F,0,9355,9424,0,1 M,0,9424,,315,242 F,0,9424,,1 M,0,9493,,318,240 M,0,9561,,319,244 M,0,9630,,315,245 M,0,9699,,317,243 M,0,9768,,313,246 M,0,9837,,316,244 M,0,9905,,312,246 M,0,9974,,316,245 M,0,10043,,319,249 M,0,10112,,325,246 M,0,10181,,320,248 M,0,10249,,323,246 M,0,10318,,320,247 M,0,10387,,316,247 F,0,9424,10456,1,0 M,0,10456,,320,251 F,0,10456,,0 F,0,9424,10525,0.64672,0 F,0,10525,16029,0 F,0,16029,16098,0,1 M,0,16167,,318,249 M,0,16236,,320,250 F,0,16098,16305,1,0.08352005 M,0,16305,,318,251 M,0,16373,,322,245 M,0,16442,,320,247 M,0,16511,,323,249 M,0,16580,,319,251 M,0,16649,,316,246 M,0,16717,,314,247 M,0,16786,,316,250 M,0,16855,,314,250 M,0,16924,,315,250 M,0,16993,,316,248 F,0,16305,17061,0.08352005,1 M,0,17061,,314,251 M,0,17130,,315,253 M,0,17199,,315,251 F,0,17061,17268,1,0 M,0,17268,,316,248
Sprite,Foreground,Centre,"sb\kei1mid.png",320,240 F,0,16098,16167,0,1 F,0,16167,16236,1,0 F,0,16236,17337,0 M,0,17337,,317,238 F,0,17337,17405,0,1 M,0,17405,,315,238 M,0,17474,,316,238 M,0,17543,,318,238 M,0,17612,,316,238 F,0,17405,17681,1,0 M,0,17681,,318,238 F,0,17681,17749,0,1 M,0,17749,,317,238 M,0,17818,,318,238 M,0,17887,,316,236 F,0,17749,17956,1 M,0,17956,,317,237 M,0,18025,,315,238 F,0,17956,18093,1,0 M,0,18093,,316,238
Sprite,Foreground,Centre,"sb\shi1btm.png",320,240 M,0,26282,,296,399 F,0,26282,26350,0,1 M,0,26350,,317,400 M,0,26419,,329,401 M,0,26488,,324,396 M,0,26488,,292,363 M,0,26488,26557,292,381,302,396 M,0,26557,,317,372 M,0,26557,,314,400 F,0,26350,26626,1,0.0714306 M,0,26626,,314,398 M,0,26769,,314,385 F,0,26626,26832,0.0714306,0 F,0,26832,26907,0,1 F,0,26907,27182,1,0
Sprite,Foreground,Centre,"sb\shi1mid.png",320,240 F,0,26282,26350,0,1 M,0,26282,26419,317,239,324,245 F,0,26350,26557,1,0 M,0,26419,26557,324,245,318,239 F,0,26557,26626,0,0.896 M,0,26557,26694,318,239,316,239 F,0,26626,26694,0.896,0 F,0,26694,26832,0 F,0,26832,26901,0,1 F,0,26901,27182,1,0
Sprite,Foreground,Centre,"sb\kei1btm.png",320,240 M,0,16167,,317,381 F,0,16167,16236,0,1 M,0,16236,,322,386 F,0,16236,16305,1,0 M,0,16305,,320,386 M,0,16373,,323,380 M,0,16442,,322,380 M,0,16511,,324,382 M,0,16580,,328,376 M,0,16649,,322,379 M,0,16717,,325,383 F,0,16305,16786,0 M,0,16786,,321,385 F,0,16786,16855,0,1 M,0,16855,,324,383 F,0,16855,16924,1,0 M,0,16924,,326,385 M,0,16993,,321,388 M,0,17061,,324,388 M,0,17130,,326,386 F,0,16924,17199,0 M,0,17199,,324,390 F,0,17199,17268,0,0.8405797 M,0,17268,,326,388 M,0,17337,,322,390 M,0,17405,,323,391 M,0,17474,,327,391 M,0,17543,,327,393 M,0,17612,,328,390 M,0,17681,,325,391 M,0,17749,,327,389 M,0,17818,,325,391 M,0,17887,,328,389 M,0,17956,,331,391 F,0,17268,18025,0.8405797 M,0,18025,,325,393 F,0,18025,18093,0.8405797,0 M,0,18093,,327,391
Sprite,Foreground,Centre,"sb\shi1top.png",320,240 M,0,26282,,317,80 F,0,26282,26350,0,1 M,0,26350,,317,82 M,0,26419,,321,80 M,0,26488,,314,82 M,0,26557,,316,80 F,0,26350,26626,1,0 M,0,26626,,322,85 F,0,26626,26832,0 F,0,26832,26901,0,1 F,0,26901,27182,1,0
Sprite,Foreground,Centre,"sb\rena1top.png",320,240 M,0,35089,,319,67 F,0,35089,35158,0.1142401,1 M,0,35158,,314,74 M,0,35227,,318,74 M,0,35295,,314,75 M,0,35364,,315,73 M,0,35433,,314,75 F,0,35158,35502,1,0 M,0,35502,,315,76 F,0,35502,35571,0,0.896 M,0,35571,,313,77 M,0,35639,,312,78 F,0,35571,35783,0.896,0.7688446 F,0,35571,35783,0.896,0.02635297 F,0,35783,35989,0.02635297,0.7688446 F,0,35989,36265,0.7688446,0
Sprite,Foreground,Centre,"sb\rena1mid.png",320,240 M,0,35089,,320,240 F,0,35089,35158,0,1 M,0,35158,,314,240 M,0,35227,,314,238 M,0,35295,,316,240 M,0,35364,,313,241 M,0,35433,,315,243 F,0,35158,35502,1,0 M,0,35502,,314,243 F,0,35502,35571,0,1 M,0,35571,,315,243 M,0,35639,,314,243 F,0,35571,35783,1,0 F,0,35783,35989,0,0.9984001 F,0,35989,36265,0.9984001,0
Sprite,Foreground,Centre,"sb\rena1btm.png",320,240 M,0,35089,,320,394 F,0,35089,35158,0,1 M,0,35158,,317,391 M,0,35227,,320,391 M,0,35295,,321,389 M,0,35364,,321,393 M,0,35433,,322,391 F,0,35158,35502,1,0 M,0,35502,,323,391 F,0,35502,35571,0,1 M,0,35571,,321,391 M,0,35639,,316,393 F,0,35571,35783,1,0 F,0,35783,35989,0,1 F,0,35989,36265,1,0
Sprite,Foreground,Centre,"sb\satoko1btm.png",320,240 M,0,43902,,329,349 F,0,43902,43971,0,1 M,0,43971,,321,369 M,0,44040,,318,371 M,0,44109,,321,369 M,0,44177,,321,371 F,0,43971,44246,1,0 M,0,44246,,315,369 M,0,44315,,317,370 M,0,44384,,312,365 F,0,44246,44453,0 M,0,44453,,314,381 F,0,44453,44522,0,1 F,0,44522,44659,1,0 F,0,44659,44797,0,1 F,0,44797,45072,1,0
Sprite,Foreground,Centre,"sb\satoko1mid.png",320,240 M,0,43902,,320,245 F,0,43902,43971,0,1 M,0,43971,,322,245 M,0,44040,,321,246 M,0,44109,,315,244 M,0,44177,,317,245 F,0,43971,44246,1,0 M,0,44246,,317,250 F,0,44246,44453,0 F,0,44453,44522,0,1 F,0,44522,44659,1,0.0323201 F,0,44659,44797,0.0323201,1 F,0,44797,45072,1,0
Sprite,Foreground,Centre,"sb\satoko1top.png",320,240 M,0,43902,,310,115 M,0,43902,,370,78 M,0,43965,,330,90 F,0,43902,43971,0,1 M,0,44033,,326,90 M,0,44102,,334,95 M,0,44102,,334,95 M,0,44102,,334,95 M,0,44177,,321,88 M,0,44240,,319,94 F,0,43971,44246,1,0 F,0,44246,44453,0 F,0,44453,44522,0,1 F,0,44522,44659,1,0 F,0,44659,44793,0,1 F,0,44659,44797,0,0.91136 F,0,44793,44797,1,0 F,0,44797,45072,0.91136,0
Sprite,Foreground,Centre,"sb\choruspic1.jpg",320,240 F,1,52496,54147,0,0.7290727 F,0,54147,54422,0.7290727,0 F,0,59101,59376,0.01188112,1 F,0,59376,59651,1,0
Sprite,Foreground,Centre,"sb\choruspic2.jpg",320,240 F,1,54698,56349,0,1 F,0,56349,56624,1,0 F,0,59651,59927,0,1 F,0,59927,60202,1,0
Sprite,Foreground,Centre,"sb\choruspic3.jpg",320,240 F,1,56899,58551,0,1 F,0,58551,58826,1,0 F,0,60202,60477,0,0.896 F,0,60477,60752,0.896,0
Sprite,Foreground,Centre,"sb\choruspic4.jpg",320,240 F,0,60752,61027,0,1 F,0,61027,61303,1,0
Sprite,Foreground,Centre,"sb\choruspic5.jpg",320,240 F,1,61853,63779,0,1 F,0,63779,66256,1 F,0,66256,67632,1,0
Sprite,Foreground,Centre,"sb\choruspic6.jpg",320,240 F,0,67901,68177,0,1 F,0,68177,68452,1,0 F,0,69002,69277,0,1 F,0,69277,69553,1,0
Sprite,Foreground,Centre,"sb\choruspic7.jpg",320,240 F,0,68452,68727,0,1 F,0,68727,69002,1,0
Sprite,Foreground,Centre,"sb\choruspic8.jpg",320,240 F,0,69553,69828,0,1 F,0,69828,70103,1,0
Sprite,Foreground,Centre,"sb\choruspic9.jpg",320,240 F,1,70103,71988,0,0.999525 F,0,71988,73956,0.999525,0.2953455
Sprite,Foreground,Centre,"sb\choruspic10.jpg",320,240 M,0,74506,,320,240 F,1,74506,76158,0,1 F,0,76158,76433,1 F,0,76433,76708,1,0.84128 F,0,76708,76983,0.84128,1 F,0,76983,77258,1,0.67232 F,0,77258,77534,0.67232,1 F,0,77534,77809,1,0.478873 F,0,77809,78084,0.478873,1 F,0,78084,78359,1,0
Sprite,Foreground,Centre,"sb\choruspic11.jpg",320,240 F,0,78359,78634,0,1 F,0,78634,78910,1,0 F,0,78910,79185,0,1 F,0,79185,79460,1,0 F,0,79460,79735,0,1 F,0,79735,80010,1,0
Sprite,Foreground,Centre,"sb\choruspic12.jpg",320,240 F,0,72263,72813,0,1 F,0,74189,74464,1,0
Sprite,Foreground,Centre,"sb\finalepic.jpg",320,240 F,1,80286,83313,0,1 F,1,83313,86157,1
Sprite,Foreground,Centre,"sb\lyrics\romaji1.png",320,240 F,0,18325,18600,0,1 M,0,18646,,440,83 F,0,24970,25245,1,0
Sprite,Foreground,Centre,"sb\lyrics\romaji2.png",320,240 F,0,27171,27446,0,1 F,0,27446,,1 M,0,28095,,427,84 F,0,33782,34057,1,0
Sprite,Foreground,Centre,"sb\lyrics\romaji3.png",320,240 F,0,35978,36259,0,1 M,0,36259,,453,87 F,0,36259,,1 F,0,43414,43689,1,0
Sprite,Foreground,Centre,"sb\lyrics\romaji4.png",320,240 S,0,45060,,0.97952 F,0,45060,45341,0,1 M,0,45341,,392,88 F,0,45341,,1 F,0,48643,48918,1,0
Sprite,Foreground,Centre,"sb\lyrics\romaji5.png",320,240 M,0,52215,,432,89 F,0,52215,52490,0,1 F,0,52490,56618,1 F,0,56618,56893,1,0
Sprite,Foreground,Centre,"sb\lyrics\romaji6.png",320,240 M,0,56893,,418,87 F,0,56893,57168,0,1 F,0,61572,61847,1,0
Sprite,Foreground,Centre,"sb\lyrics\romaji7.png",320,240 M,0,62086,,440,87 F,0,61847,62122,0,1 F,0,66525,67626,1,0
Sprite,Foreground,Centre,"sb\lyrics\romaji8.png",320,240 S,0,67901,,1 F,0,67901,68177,0,1 M,0,68416,,377,87 F,0,69828,70103,1,0
Sprite,Foreground,Centre,"sb\lyrics\romaji9.png",320,240 M,0,70068,,399,85 F,0,69828,70103,0,1 F,0,70103,,1 F,0,70103,,1 F,0,71994,72270,1,0 F,0,72270,72545,0,1 F,0,72545,74231,1 F,0,74231,,1 F,0,74231,74506,1,0
Sprite,Foreground,Centre,"sb\lyrics\romajiten.png",320,240 F,0,74231,74506,0,1 M,0,74800,,414,84 F,0,79735,80286,1,0
Sprite,Foreground,Centre,"sb\lyrics\romaji11.png",320,240 M,0,80527,,451,83 F,0,80286,80561,0,1 F,0,80561,,1 F,0,85756,88508,1,0
Sprite,Foreground,Centre,"sb\lyrics\english1.png",320,240 S,0,18325,,0.9180801 F,0,18325,18600,0,1 M,0,18600,,436,108 F,0,24930,25205,0.9418182,0
Sprite,Foreground,Centre,"sb\lyrics\english2.png",320,240 S,0,27132,,0.93856 F,0,27132,27407,0,1 M,0,27407,,440,105 F,0,33738,34013,1,0
Sprite,Foreground,Centre,"sb\lyrics\english3.png",320,240 F,0,35939,36215,0,1 M,0,36259,,449,110 F,0,43371,43646,1,0
Sprite,Foreground,Centre,"sb\lyrics\english4.png",320,240 S,0,45022,,0.95904 F,0,45022,45297,0,1 M,0,45341,,443,115 F,0,48600,48875,0.9490909,0
Sprite,Foreground,Centre,"sb\lyrics\english5.png",320,240 F,0,52178,52453,0,1 M,0,53835,,452,113 F,0,56582,56857,0.9963636,0
Sprite,Foreground,Centre,"sb\lyrics\english6.png",320,240 S,0,56857,,0.97952 F,0,56857,57132,0,1 M,0,57545,,448,110 F,0,61536,61811,0.9381818,0
Sprite,Foreground,Centre,"sb\lyrics\english7.png",320,240 F,0,61811,62086,0,1 M,0,62086,,444,110 S,0,62086,,0.95904 F,0,62086,66490,1 F,0,66490,67866,1,0
Sprite,Foreground,Centre,"sb\lyrics\english8.png",320,240 S,0,67866,,0.9692799 F,0,67866,68141,0,1 M,0,68141,,446,113 F,0,68141,69793,1 F,0,69793,70068,1,0
Sprite,Foreground,Centre,"sb\lyrics\english9.png",320,240 M,0,69793,,458,113 S,0,69793,,0.95904 F,0,69793,70068,0,1 F,0,71994,72270,1,0 F,0,72270,72545,0,1 F,0,72545,74196,1 F,0,74196,74471,1,0
Sprite,Foreground,Centre,"sb\lyrics\englishten.png",320,240 M,0,74196,,456,112 S,0,74196,,0.97952 F,0,74196,74471,0,1 F,0,79701,80251,1,0
Sprite,Foreground,Centre,"sb\lyrics\english11.png",320,240 M,0,80251,,473,110 S,0,80251,,0.9488 F,0,80251,80527,0,1 F,0,80527,85756,1 F,0,85756,88508,1,0
Sprite,Foreground,Centre,"sb\Song_Title.png",320,240 F,0,2647,3197,0,0.54272 F,0,3197,4298,0.54272 M,0,2647,4849,358,172,280,172 F,0,4298,4849,0.54272,0
Sprite,Foreground,Centre,"sb\Artist_Title.png",320,240 F,0,1271,1821,0,0.55296 F,0,1821,2371,0.55296,0.5632 M,0,1271,2921,341,116,300,114 M,0,2921,,300,114 F,0,2371,2922,0.5632,0
Sprite,Foreground,Centre,"sb\Beatmapby1.png",320,240 F,0,4298,4849,0,0.45728 F,0,4849,5399,0.45728,0.6006399 M,0,4298,5949,348,220,293,219 F,0,5399,5949,0.6006399,0
Sprite,Foreground,Centre,"sb\flower3.png",320,240 S,0,1271,,0.5904001 F,0,1271,2647,0,0.7081601 M,0,2647,,316,161 F,0,2647,3748,0.7081601,0.4198399 R,0,1271,5399,0,3.42016 F,0,3748,5399,0.4198399,0
Sprite,Foreground,Centre,"sb\Artist_Title.png",320,240 F,0,1271,1546,0,1 M,0,1683,,317,121 F,0,1546,2922,1 F,0,2922,3197,1,0.07328007
Sprite,Foreground,Centre,"sb\Song_Title.png",320,240 M,0,2647,,305,174 F,0,2647,3748,0,1 F,0,3748,4298,1 F,0,4298,5399,1,0
Sprite,Foreground,Centre,"sb\Beatmapby1.png",320,240 M,0,4298,,320,225 F,0,4298,4573,0,1 F,0,5674,5949,1,0
//Storyboard Sound Samples
//Background Colour Transformations
3,100,163,162,255

[TimingPoints]
18050,550.458219429411,4,2,1,100,1,0
18885,-100,4,1,1,100,0,0
20124,-100,4,1,1,60,0,0
20949,-100,4,1,1,60,0,0
22050,-100,4,1,2,45,0,0
26179,-100,4,2,1,60,0,0
26454,-100,4,1,1,49,0,0
29482,-100,4,1,1,0,0,0
29757,-100,4,1,1,49,0,0
31133,-100,4,1,1,50,0,0
31683,-100,4,1,1,30,0,0
31959,-100,4,1,1,50,0,0
32509,-100,4,1,1,30,0,0
32784,-100,4,2,1,50,0,0
34986,-100,4,1,1,30,0,0
35537,-100,4,1,1,100,0,0
36087,-100,4,1,1,60,0,0
36913,-100,4,1,1,0,0,0
37188,-100,4,1,1,60,0,0
38564,-100,4,2,1,60,0,0
39665,-100,4,1,1,60,0,0
40491,-100,4,1,1,0,0,0
40766,-100,4,1,1,60,0,0
42555,-100,4,1,1,30,0,0
42830,-100,4,1,1,60,0,0
44344,-100,4,2,1,60,0,0
44619,-100,4,1,1,60,0,0
52050,-100,4,2,0,0,0,0
52738,-100,4,1,2,100,0,0
53289,-100,4,1,2,60,0,1
53977,-100,4,1,2,100,0,1
54252,-100,4,1,2,100,0,1
68289,-100,4,1,2,100,0,1
68564,-100,4,1,2,60,0,1
69390,-100,4,1,2,100,0,1
88381,-100,4,1,2,60,0,0
88518,-100,4,2,0,100,0,1
88656,-100,4,1,2,60,0,0

[Colours]
Combo1 : 235,235,235
Combo2 : 213,170,255
Combo3 : 0,0,187
Combo4 : 223,0,112
Combo5 : 221,0,0

[HitObjects]
256,64,18600,1,4
160,240,19701,5,2
256,248,20251,1,8
352,240,20802,1,2
352,240,21077,1,4
256,64,22178,6,0,B|224:64|192:88,1,50
248,168,23004,2,0,B|208:160|184:136,1,50
104,112,23829,2,0,B|168:112,1,50,0|8
256,192,26306,5,0
448,192,27407,5,2
448,192,27683,1,4
168,192,28783,1,8
168,192,29059,2,4,B|240:224|320:192,1,150
368,104,31260,6,4,B|328:72|272:80,1,100,2|4
272,128,32086,2,0,B|224:144|168:120,1,100,2|4
128,96,32912,1,4
256,192,35114,5,2
256,192,35664,1,4
256,192,36215,5,2
256,192,36490,2,4,B|256:40,1,150
256,48,37591,1,4
256,48,37866,2,4,B|200:88|144:40,1,100,4|8
162,53,38692,1,4
160,248,39793,5,2
160,248,40068,2,4,B|232:304|320:232,1,150
424,168,41719,1,2
344,104,42270,2,4,B|320:80|272:80,2,75
464,192,43921,5,8
360,192,44471,1,4
360,192,44747,1,4
256,192,45297,5,8
256,192,45572,2,4,B|256:264,1,50,2|4
256,242,46123,2,0,B|256:296,1,50,2|4
256,192,48049,6,8,B|256:72,1,100,2|4
256,192,48875,12,4,52178
64,192,53004,5,6
160,192,53554,1,2
256,192,54105,1,6
448,192,55205,5,6
352,192,55756,1,2
256,192,56306,1,6
48,192,57407,5,6
152,192,57958,1,0
256,192,58508,1,6
360,192,59059,1,0
464,192,59609,1,6
464,192,60160,1,6
464,192,60710,1,14
256,192,61811,6,0,B|144:192,1,100,6|2
156,192,62637,1,8
156,192,62912,1,2
360,192,64013,6,0,B|360:80,1,100,6|2
360,92,64838,1,2
360,92,65114,1,2
248,96,65664,1,12
248,96,66215,1,4
64,144,67866,6,4,B|120:112|176:152,1,100,4|6
256,144,68967,2,4,B|312:112|368:152,1,100,4|6
344,224,70068,5,8
296,224,70343,1,8
248,224,70618,1,6
144,224,71169,1,6
40,224,71719,1,6
40,120,72270,5,8
88,120,72545,1,8
136,120,72820,1,6
232,120,73371,1,6
328,120,73921,1,6
328,216,74471,5,8
328,216,74747,1,8
328,216,75022,1,6
224,216,75572,1,8
224,216,75848,1,6
224,216,76123,1,6
120,216,76673,5,4
128,264,76949,1,6
160,296,77224,1,4
208,312,77499,1,6
256,304,77774,1,6
336,248,78325,2,4,B|384:200|328:144,3,100,4|8|8|6
104,192,80527,6,0,B|120:136|176:112,1,100,2|0
165,116,81352,2,0,B|200:56|264:48,1,100,2|0
320,112,82453,1,8
320,112,82728,2,0,B|312:168|240:184,1,100,6|2
216,208,83554,1,6
168,232,83829,5,0
168,232,84104,2,0,B|200:280|264:288,1,100,6|2
249,285,84930,2,0,B|312:272|344:216,1,100,12|2
332,233,85756,1,12
256,192,85893,12,4,88508
