osu file format v6

[General]
AudioFilename: Higurashi_no_Naku_Koro_ni_Kai_-_Naraku_no_Hana.mp3
AudioLeadIn: 0
PreviewTime: 52188
Countdown: 0
SampleSet: Normal
StackLeniency: 0.7
Mode: 0
LetterboxInBreaks: 0
SkinPreference:Default

[Editor]
DistanceSpacing: 1
BeatDivisor: 4
GridSize: 8

[Metadata]
Title:Naraku no Hana
Artist:Shimamiya Eiko
Creator:Azure_Kyte
Version:Naraku no Hana
Source:Higurashi no Naku Koro ni Kai
Tags:When they Cry Anime Game Flower Hell Cicadas

[Difficulty]
HPDrainRate:6
CircleSize:5
OverallDifficulty:7
SliderMultiplier:1.6
SliderTickRate:1

[Events]
//Background and Video events
0,0,"rika-y-hanyuu.jpg"
//Break Periods
2,88708,96416
2,176770,184477
2,211999,218881
//Storyboard Layer 0 (Background)
Sprite,Background,Centre,"sb\bg2.png",320,240 F,0,105012,106113,0,1 F,0,106113,106388,1 F,0,106388,108039,1 F,0,108039,205678,1 F,0,205678,219497,1
Sprite,Background,Centre,"sb\black.png",320,240 F,0,-2,9286,1 F,0,9286,9355,1,0.9334397 F,0,9355,9424,0.9334397,1 F,0,9424,11763,1 F,0,11763,11832,1,0.9420798 F,0,11832,11901,0.9420798,1 F,0,11901,12245,1 F,0,12245,12314,1,0.9523199 F,0,12314,12382,0.9523199,1 F,0,12382,14516,1 F,0,14516,16167,1,0.9539198 F,0,16167,16236,0.9539198,1 F,0,16236,18093,1 F,0,18093,25800,1,0.4863999 F,0,25800,26075,0.4863999,1 F,0,26075,26901,1,0.9890909 F,0,26901,34607,0.9890909,0.4403201 F,0,34607,34882,0.4403201,1 F,0,34882,36259,1 F,0,36259,43415,1,0.4506752 F,0,43415,43690,0.4506752,1 F,0,43690,45066,1 F,0,45066,50571,1,0 F,0,50571,51953,0,1 F,0,51953,52222,1,0 F,0,52222,52503,0,1 F,0,52503,88362,1 F,0,88500,89188,0,1 F,0,89188,91802,1 F,0,91802,92077,1,0 F,0,92077,92353,0,1 F,0,92353,92628,1,0 F,0,92628,92903,0,1 F,0,92903,96205,1 F,0,96205,96756,1,0 F,0,96756,97306,0,1 F,0,97306,100609,1 F,0,100609,100884,1,0 F,0,100884,101159,0,1 F,0,101159,101434,1,0 F,0,101434,101710,0,1 F,0,101710,102260,1,0.04363638 F,0,102260,102535,0.04363638,1 F,0,102535,103911,1 F,0,103911,105012,1,0 F,0,105012,106113,0,0.5990402 F,0,106113,,0.8140801 F,0,106113,106663,0.5990402,1 F,0,106663,106938,1 F,0,106938,112718,1,0.5471031 F,0,112718,113819,0.5471031,1 F,0,89599,114919,1 F,0,114919,121524,1,0.6057599 F,0,121524,122625,0.6057599,1 F,0,113819,123726,1 F,0,122625,123726,1 F,0,123726,123863,1,0.7644801 F,0,123863,124001,0.7644801,1 F,0,124001,124139,1,0.7952 F,0,124139,124414,0.7952,1 F,0,124414,131156,1,0.4879999 F,0,131156,131707,0.4879999,1 F,0,131707,132532,1 F,0,132532,132670,1,0.67744 F,0,132670,132808,0.67744,1 F,0,132808,132945,1,0.52384 F,0,132945,133220,0.52384,0.9829333 F,0,133220,139137,0.9829333,0.1893333 F,0,139137,139688,0.1893333,1 F,0,139688,,1 F,0,176580,177061,0,1 F,0,177130,177612,0,1 F,0,177681,178162,0,1 F,0,178231,178713,0,1 F,0,178782,179263,0,1 F,0,179332,179814,0,1 F,0,179814,179883,1 F,0,179883,180158,1,0 F,0,180158,180433,0,1 F,0,180433,180708,1,0 F,0,180708,180915,0,1 F,0,181534,182016,0,1 F,0,182084,182566,0,1 F,0,182635,183116,0,1 F,0,183185,183667,0,1 F,0,183736,184217,0,1 F,0,184286,184837,1,0 F,0,184837,185318,0,1 F,0,185938,,0 F,0,185938,186419,0,1 F,0,186419,186488,1,0 F,0,186488,186970,0,1 F,0,186970,187038,1,0 F,0,187038,187520,0,1 F,0,187520,187589,1,0 F,0,187589,188071,0,1 F,0,188071,188139,1,0 F,0,188139,188621,0,1 F,0,188621,188690,1 F,0,188690,188965,1,0 F,0,188965,189240,0,1 F,0,189240,189516,1,0 F,0,189516,,0 F,0,189516,189722,0,1 F,0,190341,,0 F,0,190341,190823,0,1 F,0,190823,190892,1,0 F,0,190892,191373,0,1 F,0,191373,191442,1,0 F,0,191442,,0 F,0,191442,191924,0,0.9728 F,0,191924,191993,0.9728,0 F,0,191993,192130,0,1 F,0,192130,192268,1,0 F,0,192268,192543,0,1 F,0,192543,192681,1,0 F,0,192681,192956,0,1 F,0,192956,193094,1,0 F,0,193094,193369,0,1 F,0,193369,193628,1,0 F,0,193628,193903,0,1 F,0,233808,233876,1,0 F,0,233876,233945,0,1 F,0,233945,234014,1,0 F,0,234014,234083,0,1 F,0,234083,234152,1,0 F,0,234152,234908,0,1 M,0,248128,,320,240 F,0,185318,255846,1
Sprite,Background,Centre,"sb\fade1.jpg",320,240 M,0,180983,,320,240 F,0,180983,181534,1,0 F,0,185387,185938,1,0 F,0,189791,190341,1,0 F,0,193644,193919,0.6774399,0
Sprite,Background,Centre,"sb\white.png",320,240 F,0,88518,89069,1,0 F,0,177130,177405,0.38048,0 F,0,178231,178506,0.4352,0 F,0,179332,179607,0.4659199,0 F,0,180983,181259,0.41472,0 F,0,181534,181809,0.3737599,0 F,0,182635,182910,0.4556801,0 F,0,183185,183460,0.35328,0 M,0,185387,,320,240 F,0,185387,185662,0.4454399,0 F,0,185938,186213,0.39936,0 F,0,186488,186763,0.3891201,0 F,0,187038,187314,0.4556799,0 F,0,187589,187864,0.4721903,0 F,0,188139,188415,0.3839999,0 F,0,189791,190066,0.4332522,0 F,0,190341,190616,0.4864,0 F,0,190892,191167,0.5874036,0 F,0,191442,191717,0.5133203,0 F,0,191993,192130,0.5846926,0 F,0,192268,192543,1,0 F,0,192681,192956,0.4882618,0 F,0,193094,193369,0.5904,0 F,0,193644,193919,1,0 F,0,233797,233866,1,0.8960001 F,0,233866,,0 F,0,233866,233935,0,0.8960001 F,0,234004,,0 F,0,233935,234072,0.8960001,0.39072 F,0,234004,234072,0,1 F,0,234072,234623,1,0 F,0,238201,238476,1,0 F,0,238476,255816,0 F,0,255816,257742,1,0
//Storyboard Layer 1 (Fail)
//Storyboard Layer 2 (Pass)
//Storyboard Layer 3 (Foreground)
Sprite,Foreground,Centre,"sb\kei1top.png",320,240 M,0,9355,,318,82 F,0,9355,9424,0,1 M,0,9424,,322,86 M,0,9493,,319,86 M,0,9561,,315,85 M,0,9630,,317,82 M,0,9699,,322,86 M,0,9768,,320,86 M,0,9837,,318,87 M,0,9905,,320,84 M,0,9974,,316,87 M,0,10043,,318,84 M,0,10112,,311,86 M,0,10181,,314,82 M,0,10249,,316,84 F,0,9424,10318,1,0 M,0,10318,,312,80 F,0,10318,10387,0,1 M,0,10387,,306,84 F,0,10387,10456,1,0 M,0,10456,,308,82 F,0,10456,15892,0 F,0,15892,15960,0,1 F,0,15960,16029,1,0 F,0,16029,16098,0,0.1337115 M,0,16098,,309,84 F,0,16098,16167,0.1337115,1 M,0,16167,,311,84 F,0,16167,16236,1,0 M,0,16236,,313,86 M,0,16305,,315,84 M,0,16373,,311,86 M,0,16442,,314,89 M,0,16511,,318,86 M,0,16580,,320,91 F,0,16236,16649,0 M,0,16649,,318,91 F,0,16649,16717,0,0.9913786 M,0,16717,,315,92 F,0,16717,16786,0.9913786,0 M,0,16786,,320,90 M,0,16855,,323,93 M,0,16924,,317,89 M,0,16993,,313,91 M,0,17061,,317,91 M,0,17130,,319,89 M,0,17199,,313,91 M,0,17268,,316,86 M,0,17337,,318,92 M,0,17405,,314,90 M,0,17474,,310,93 M,0,17543,,312,89 M,0,17612,,314,91 M,0,17681,,310,93 M,0,17749,,313,89 F,0,16786,17818,0,1 M,0,17818,,315,90 F,0,17818,17887,1,0 M,0,17887,,313,88
Sprite,Foreground,Centre,"sb\kei1mid.png",320,240 M,0,7566,,320,240 F,0,7566,7635,0,1 M,0,7635,,317,237 M,0,7704,,313,240 M,0,7772,,315,237 F,0,7635,7841,1,0 M,0,7841,,317,241 F,0,7841,9355,0 F,0,9286,9355,0,1 M,0,9355,,317,239 F,0,9355,9424,0,1 F,0,9355,9424,0,1 M,0,9424,,315,242 F,0,9424,,1 M,0,9493,,318,240 M,0,9561,,319,244 M,0,9630,,315,245 M,0,9699,,317,243 M,0,9768,,313,246 M,0,9837,,316,244 M,0,9905,,312,246 M,0,9974,,316,245 M,0,10043,,319,249 M,0,10112,,325,246 M,0,10181,,320,248 M,0,10249,,323,246 M,0,10318,,320,247 M,0,10387,,316,247 F,0,9424,10456,1,0 M,0,10456,,320,251 F,0,10456,,0 F,0,9424,10525,0.64672,0 F,0,10525,16029,0 F,0,16029,16098,0,1 M,0,16167,,318,249 M,0,16236,,320,250 F,0,16098,16305,1,0.08352005 M,0,16305,,318,251 M,0,16373,,322,245 M,0,16442,,320,247 M,0,16511,,323,249 M,0,16580,,319,251 M,0,16649,,316,246 M,0,16717,,314,247 M,0,16786,,316,250 M,0,16855,,314,250 M,0,16924,,315,250 M,0,16993,,316,248 F,0,16305,17061,0.08352005,1 M,0,17061,,314,251 M,0,17130,,315,253 M,0,17199,,315,251 F,0,17061,17268,1,0 M,0,17268,,316,248
Sprite,Foreground,Centre,"sb\kei1mid.png",320,240 F,0,16098,16167,0,1 F,0,16167,16236,1,0 F,0,16236,17337,0 M,0,17337,,317,238 F,0,17337,17405,0,1 M,0,17405,,315,238 M,0,17474,,316,238 M,0,17543,,318,238 M,0,17612,,316,238 F,0,17405,17681,1,0 M,0,17681,,318,238 F,0,17681,17749,0,1 M,0,17749,,317,238 M,0,17818,,318,238 M,0,17887,,316,236 F,0,17749,17956,1 M,0,17956,,317,237 M,0,18025,,315,238 F,0,17956,18093,1,0 M,0,18093,,316,238
Sprite,Foreground,Centre,"sb\shi1btm.png",320,240 M,0,26282,,296,399 F,0,26282,26350,0,1 M,0,26350,,317,400 M,0,26419,,329,401 M,0,26488,,292,363 M,0,26488,,324,396 M,0,26488,26557,292,381,302,396 M,0,26557,,314,400 M,0,26557,,317,372 F,0,26350,26626,1,0.0714306 M,0,26626,,314,398 M,0,26769,,314,385 F,0,26626,26832,0.0714306,0 F,0,26832,26907,0,1 F,0,26907,27182,1,0
Sprite,Foreground,Centre,"sb\shi1mid.png",320,240 F,0,26282,26350,0,1 M,0,26282,26419,317,239,324,245 F,0,26350,26557,1,0 M,0,26419,26557,324,245,318,239 F,0,26557,26626,0,0.896 M,0,26557,26694,318,239,316,239 F,0,26626,26694,0.896,0 F,0,26694,26832,0 F,0,26832,26901,0,1 F,0,26901,27182,1,0
Sprite,Foreground,Centre,"sb\kei1btm.png",320,240 M,0,16167,,317,381 F,0,16167,16236,0,1 M,0,16236,,322,386 F,0,16236,16305,1,0 M,0,16305,,320,386 M,0,16373,,323,380 M,0,16442,,322,380 M,0,16511,,324,382 M,0,16580,,328,376 M,0,16649,,322,379 M,0,16717,,325,383 F,0,16305,16786,0 M,0,16786,,321,385 F,0,16786,16855,0,1 M,0,16855,,324,383 F,0,16855,16924,1,0 M,0,16924,,326,385 M,0,16993,,321,388 M,0,17061,,324,388 M,0,17130,,326,386 F,0,16924,17199,0 M,0,17199,,324,390 F,0,17199,17268,0,0.8405797 M,0,17268,,326,388 M,0,17337,,322,390 M,0,17405,,323,391 M,0,17474,,327,391 M,0,17543,,327,393 M,0,17612,,328,390 M,0,17681,,325,391 M,0,17749,,327,389 M,0,17818,,325,391 M,0,17887,,328,389 M,0,17956,,331,391 F,0,17268,18025,0.8405797 M,0,18025,,325,393 F,0,18025,18093,0.8405797,0 M,0,18093,,327,391
Sprite,Foreground,Centre,"sb\shi1top.png",320,240 M,0,26282,,317,80 F,0,26282,26350,0,1 M,0,26350,,317,82 M,0,26419,,321,80 M,0,26488,,314,82 M,0,26557,,316,80 F,0,26350,26626,1,0 M,0,26626,,322,85 F,0,26626,26832,0 F,0,26832,26901,0,1 F,0,26901,27182,1,0
Sprite,Foreground,Centre,"sb\rena1top.png",320,240 M,0,35089,,319,67 F,0,35089,35158,0.1142401,1 M,0,35158,,314,74 M,0,35227,,318,74 M,0,35295,,314,75 M,0,35364,,315,73 M,0,35433,,314,75 F,0,35158,35502,1,0 M,0,35502,,315,76 F,0,35502,35571,0,0.896 M,0,35571,,313,77 M,0,35639,,312,78 F,0,35571,35783,0.896,0.02635297 F,0,35571,35783,0.896,0.7688446 F,0,35783,35989,0.02635297,0.7688446 F,0,35989,36265,0.7688446,0
Sprite,Foreground,Centre,"sb\rena1mid.png",320,240 M,0,35089,,320,240 F,0,35089,35158,0,1 M,0,35158,,314,240 M,0,35227,,314,238 M,0,35295,,316,240 M,0,35364,,313,241 M,0,35433,,315,243 F,0,35158,35502,1,0 M,0,35502,,314,243 F,0,35502,35571,0,1 M,0,35571,,315,243 M,0,35639,,314,243 F,0,35571,35783,1,0 F,0,35783,35989,0,0.9984001 F,0,35989,36265,0.9984001,0
Sprite,Foreground,Centre,"sb\rena1btm.png",320,240 M,0,35089,,320,394 F,0,35089,35158,0,1 M,0,35158,,317,391 M,0,35227,,320,391 M,0,35295,,321,389 M,0,35364,,321,393 M,0,35433,,322,391 F,0,35158,35502,1,0 M,0,35502,,323,391 F,0,35502,35571,0,1 M,0,35571,,321,391 M,0,35639,,316,393 F,0,35571,35783,1,0 F,0,35783,35989,0,1 F,0,35989,36265,1,0
Sprite,Foreground,Centre,"sb\satoko1btm.png",320,240 M,0,43902,,329,349 F,0,43902,43971,0,1 M,0,43971,,321,369 M,0,44040,,318,371 M,0,44109,,321,369 M,0,44177,,321,371 F,0,43971,44246,1,0 M,0,44246,,315,369 M,0,44315,,317,370 M,0,44384,,312,365 F,0,44246,44453,0 M,0,44453,,314,381 F,0,44453,44522,0,1 F,0,44522,44659,1,0 F,0,44659,44797,0,1 F,0,44797,45072,1,0
Sprite,Foreground,Centre,"sb\satoko1mid.png",320,240 M,0,43902,,320,245 F,0,43902,43971,0,1 M,0,43971,,322,245 M,0,44040,,321,246 M,0,44109,,315,244 M,0,44177,,317,245 F,0,43971,44246,1,0 M,0,44246,,317,250 F,0,44246,44453,0 F,0,44453,44522,0,1 F,0,44522,44659,1,0.0323201 F,0,44659,44797,0.0323201,1 F,0,44797,45072,1,0
Sprite,Foreground,Centre,"sb\satoko1top.png",320,240 M,0,43902,,370,78 M,0,43902,,310,115 M,0,43965,,330,90 F,0,43902,43971,0,1 M,0,44033,,326,90 M,0,44102,,334,95 M,0,44102,,334,95 M,0,44102,,334,95 M,0,44177,,321,88 M,0,44240,,319,94 F,0,43971,44246,1,0 F,0,44246,44453,0 F,0,44453,44522,0,1 F,0,44522,44659,1,0 F,0,44659,44793,0,1 F,0,44659,44797,0,0.91136 F,0,44793,44797,1,0 F,0,44797,45072,0.91136,0
Sprite,Foreground,Centre,"sb\choruspic1.jpg",320,240 F,1,52496,54147,0,0.7290727 F,0,54147,54422,0.7290727,0 F,0,59101,59376,0.01188112,1 F,0,59376,59651,1,0
Sprite,Foreground,Centre,"sb\choruspic2.jpg",320,240 F,1,54698,56349,0,1 F,0,56349,56624,1,0 F,0,59651,59927,0,1 F,0,59927,60202,1,0
Sprite,Foreground,Centre,"sb\choruspic3.jpg",320,240 F,1,56899,58551,0,1 F,0,58551,58826,1,0 F,0,60202,60477,0,0.896 F,0,60477,60752,0.896,0
Sprite,Foreground,Centre,"sb\choruspic4.jpg",320,240 F,0,60752,61027,0,1 F,0,61027,61303,1,0
Sprite,Foreground,Centre,"sb\choruspic5.jpg",320,240 F,1,61853,63779,0,1 F,0,63779,66256,1 F,0,66256,67632,1,0
Sprite,Foreground,Centre,"sb\choruspic6.jpg",320,240 F,0,67901,68177,0,1 F,0,68177,68452,1,0 F,0,69002,69277,0,1 F,0,69277,69553,1,0
Sprite,Foreground,Centre,"sb\choruspic7.jpg",320,240 F,0,68452,68727,0,1 F,0,68727,69002,1,0
Sprite,Foreground,Centre,"sb\choruspic8.jpg",320,240 F,0,69553,69828,0,1 F,0,69828,70103,1,0
Sprite,Foreground,Centre,"sb\choruspic9.jpg",320,240 F,1,70103,71988,0,0.999525 F,0,71988,72813,0.999525,0 F,0,72813,,0
Sprite,Foreground,Centre,"sb\choruspic10.jpg",320,240 M,0,74506,,320,240 F,1,74506,76158,0,1 F,0,76158,76433,1 F,0,76433,76708,1,0.84128 F,0,76708,76983,0.84128,1 F,0,76983,77258,1,0.67232 F,0,77258,77534,0.67232,1 F,0,77534,77809,1,0.478873 F,0,77809,78084,0.478873,1 F,0,78084,78359,1,0
Sprite,Foreground,Centre,"sb\choruspic11.jpg",320,240 F,0,78359,78634,0,1 F,0,78634,78910,1,0 F,0,78910,79185,0,1 F,0,79185,79460,1,0 F,0,79460,79735,0,1 F,0,79735,80010,1,0
Sprite,Foreground,Centre,"sb\choruspic12.jpg",320,240 F,0,72263,72813,0,1 F,0,74189,74464,1,0
Sprite,Foreground,Centre,"sb\rikaleft.jpg",320,240 F,0,80261,81913,0,1 F,0,81913,88518,1
Sprite,Foreground,Centre,"sb\rikaright.jpg",320,240 F,0,168323,169974,0,1 F,0,169974,176580,1
Sprite,Foreground,Centre,"sb\lyrics\romaji1.png",320,240 F,0,18325,18600,0,1 M,0,18646,,440,83 F,0,24970,25245,1,0
Sprite,Foreground,Centre,"sb\lyrics\romaji2.png",320,240 F,0,27171,27446,0,1 F,0,27446,,1 M,0,28095,,427,84 F,0,33782,34057,1,0
Sprite,Foreground,Centre,"sb\lyrics\romaji3.png",320,240 F,0,35978,36259,0,1 M,0,36259,,453,87 F,0,36259,,1 F,0,43414,43689,1,0
Sprite,Foreground,Centre,"sb\lyrics\romaji4.png",320,240 S,0,45060,,0.97952 F,0,45060,45341,0,1 M,0,45341,,392,88 F,0,45341,,1 F,0,48643,48918,1,0
Sprite,Foreground,Centre,"sb\lyrics\romaji5.png",320,240 M,0,52215,,432,89 F,0,52215,52490,0,1 F,0,52490,56618,1 F,0,56618,56893,1,0
Sprite,Foreground,Centre,"sb\lyrics\romaji6.png",320,240 M,0,56893,,418,87 F,0,56893,57168,0,1 F,0,61572,61847,1,0
Sprite,Foreground,Centre,"sb\lyrics\romaji7.png",320,240 M,0,62086,,440,87 F,0,61847,62122,0,1 F,0,66525,67626,1,0
Sprite,Foreground,Centre,"sb\lyrics\romaji8.png",320,240 S,0,67901,,1 F,0,67901,68177,0,1 M,0,68416,,377,87 F,0,69828,70103,1,0
Sprite,Foreground,Centre,"sb\lyrics\romaji9.png",320,240 M,0,70068,,399,85 F,0,69828,70103,0,1 F,0,70103,,1 F,0,70103,,1 F,0,71994,72270,1,0 F,0,72270,72545,0,1 F,0,72545,74231,1 F,0,74231,,1 F,0,74231,74506,1,0
Sprite,Foreground,Centre,"sb\lyrics\romajiten.png",320,240 F,0,74231,74506,0,1 M,0,74800,,414,84 F,0,79735,80286,1,0
Sprite,Foreground,Centre,"sb\lyrics\romaji11.png",320,240 M,0,80527,,434,81 F,0,80286,80561,0,1 F,0,80561,,1 F,0,85756,88508,1,0
Sprite,Foreground,Centre,"sb\lyrics\english1.png",320,240 S,0,18325,,0.9180801 F,0,18325,18600,0,1 M,0,18600,,436,108 F,0,24930,25205,0.9418182,0
Sprite,Foreground,Centre,"sb\lyrics\english2.png",320,240 S,0,27132,,0.93856 F,0,27132,27407,0,1 M,0,27407,,440,105 F,0,33738,34013,1,0
Sprite,Foreground,Centre,"sb\lyrics\english3.png",320,240 F,0,35939,36215,0,1 M,0,36259,,449,110 F,0,43371,43646,1,0
Sprite,Foreground,Centre,"sb\lyrics\english4.png",320,240 S,0,45022,,0.95904 F,0,45022,45297,0,1 M,0,45341,,443,115 F,0,48600,48875,0.9490909,0
Sprite,Foreground,Centre,"sb\lyrics\english5.png",320,240 F,0,52178,52453,0,1 M,0,53835,,452,113 F,0,56582,56857,0.9963636,0
Sprite,Foreground,Centre,"sb\lyrics\english6.png",320,240 S,0,56857,,0.97952 F,0,56857,57132,0,1 M,0,57545,,448,110 F,0,61536,61811,0.9381818,0
Sprite,Foreground,Centre,"sb\lyrics\english7.png",320,240 F,0,61811,62086,0,1 M,0,62086,,444,110 S,0,62086,,0.95904 F,0,62086,66490,1 F,0,66490,67866,1,0
Sprite,Foreground,Centre,"sb\lyrics\english8.png",320,240 S,0,67866,,0.9692799 F,0,67866,68141,0,1 M,0,68141,,446,113 F,0,68141,69793,1 F,0,69793,70068,1,0
Sprite,Foreground,Centre,"sb\lyrics\english9.png",320,240 M,0,69793,,458,113 S,0,69793,,0.95904 F,0,69793,70068,0,1 F,0,71994,72270,1,0 F,0,72270,72545,0,1 F,0,72545,74196,1 F,0,74196,74471,1,0
Sprite,Foreground,Centre,"sb\lyrics\englishten.png",320,240 M,0,74196,,456,112 S,0,74196,,0.97952 F,0,74196,74471,0,1 F,0,79701,80251,1,0
Sprite,Foreground,Centre,"sb\lyrics\english11.png",320,240 S,0,80251,,0.9488 F,0,80251,80527,0,1 M,0,80527,,454,107 F,0,80527,85756,1 F,0,85756,88508,1,0
Sprite,Foreground,Centre,"sb\bg2.png",320,240 F,0,106113,106250,0,0.3088 S,0,106113,106388,1,1.1024 F,0,106250,106388,0.13984,0 F,0,106250,106388,0.3088,0
Sprite,Foreground,Centre,"sb\rena2top.png",320,240 M,0,114369,,318,87 F,0,114369,114438,0,1 M,0,114438,,315,90 M,0,114507,,316,88 M,0,114575,,321,93 M,0,114644,,323,88 M,0,114713,,316,90 M,0,114782,,318,86 F,0,114438,114851,1,0 M,0,114851,,318,85 M,0,114851,,318,85 F,0,114851,114919,0,0.8784209 F,0,114919,115195,0.8784209,0
Sprite,Foreground,Centre,"sb\rena2mid.png",320,240 M,0,114369,,320,240 F,0,114369,114438,0,1 M,0,114438,,315,243 M,0,114507,,319,243 M,0,114575,,316,244 M,0,114644,,321,245 M,0,114713,,324,238 M,0,114782,,322,241 F,0,114438,114851,1,0 M,0,114851,,321,238 F,0,114851,114919,0,1 F,0,114919,115195,1,0
Sprite,Foreground,Centre,"sb\rena2btm.png",320,240 M,0,114369,,316,384 F,0,114369,114438,0,1 M,0,114438,,320,382 M,0,114507,,315,384 M,0,114575,,320,387 M,0,114644,,325,381 M,0,114713,,318,386 M,0,114782,,320,382 F,0,114438,114851,1,0 M,0,114851,,320,383 F,0,114851,114919,0,1 F,0,114919,115195,1,0
Sprite,Foreground,Centre,"sb\hanyuu1top.png",320,240 M,0,123175,,317,85 F,0,123175,123244,0,0.83968 M,0,123244,,321,85 M,0,123313,,316,90 M,0,123382,,318,88 M,0,123451,,320,92 M,0,123519,,318,89 M,0,123588,,317,91 F,0,123244,123657,0.83968,0 M,0,123657,,319,91
Sprite,Foreground,Centre,"sb\hanyuu1mid.png",320,240 M,0,123175,,316,250 F,0,123175,123244,0,1 M,0,123244,,313,250 M,0,123313,,309,251 M,0,123382,,311,252 M,0,123451,,314,256 M,0,123519,,314,252 M,0,123588,,311,253 F,0,123244,123657,1,0
Sprite,Foreground,Centre,"sb\hanyuu1btm.png",320,240 M,0,123175,,320,397 F,0,123175,123244,0,1 M,0,123244,,322,393 M,0,123313,,313,399 M,0,123382,,316,397 M,0,123451,,311,397 M,0,123519,,315,397 M,0,123588,,317,399 F,0,123244,123657,1,0
Sprite,Foreground,Centre,"sb\shi2top.png",320,240 M,0,131982,,318,100 F,0,131982,132051,0,1 M,0,132051,,314,105 M,0,132120,,316,103 M,0,132188,,318,101 M,0,132257,,321,103 M,0,132326,,323,101 M,0,132395,,326,102 F,0,132051,132464,1,0 M,0,132464,,324,102 F,0,132464,,0
Sprite,Foreground,Centre,"sb\shi2mid.png",320,240 M,0,131982,,317,256 F,0,131982,132051,0,1 M,0,132051,,311,259 M,0,132120,,314,255 M,0,132188,,318,255 M,0,132257,,320,257 M,0,132326,,315,258 M,0,132395,,316,260 F,0,132051,132464,1,0 M,0,132464,,318,258
Sprite,Foreground,Centre,"sb\shi2btm.png",320,240 M,0,131982,,315,385 F,0,131982,132051,0.11424,1 M,0,132051,,317,385 M,0,132120,,317,383 M,0,132188,,312,380 M,0,132257,,316,380 M,0,132326,,314,383 M,0,132395,,318,384 F,0,132051,132464,1,0 M,0,132464,,321,385
Sprite,Foreground,Centre,"sb\choruspic13.jpg",320,240 F,0,140513,142440,0,1 F,0,142440,142715,1,0
Sprite,Foreground,Centre,"sb\choruspic14.jpg",320,240 F,0,149870,151246,0,1 F,0,151246,154274,1 F,0,154274,155650,1,0
Sprite,Foreground,Centre,"sb\choruspic15.jpg",320,240 M,0,144917,,320,240 F,0,144917,145742,0,1 F,0,145742,146568,1 F,0,146568,146843,1,0 F,0,146843,,0 F,0,148219,148769,0,1 F,0,148769,149320,1,0
Sprite,Foreground,Centre,"sb\choruspic16.jpg",320,240 F,0,146568,147118,0,1 F,0,147118,147393,1,0 F,0,147393,147669,0 F,0,147669,148219,0,1 F,0,148219,148769,1,0
Sprite,Foreground,Centre,"sb\choruspic17.jpg",320,240 F,0,147118,147669,0,1 F,0,147669,147944,1,0 F,0,147944,,0
Sprite,Foreground,Centre,"sb\choruspic18.jpg",320,240 F,0,148769,149320,0,1 F,0,149320,149595,1,0.9709619 F,0,149595,150145,0.9709619,0
Sprite,Foreground,Centre,"sb\choruspic13.jpg",320,240 R,0,142715,,3.15392 F,0,142715,144641,0,1 F,0,144641,144917,1,0.01695991
Sprite,Foreground,Centre,"sb\choruspic19.jpg",320,240 M,0,155925,,320,240 F,0,155925,156200,0,1 F,0,156200,156475,1,0
Sprite,Foreground,Centre,"sb\choruspictwenty.jpg",320,240 F,0,156475,156750,0,1 F,0,156750,157026,1,0
Sprite,Foreground,Centre,"sb\choruspictwenty.jpg",320,240 S,0,157026,,1.3584 F,0,157026,157301,0,1 F,0,157301,157576,1,0
Sprite,Foreground,Centre,"sb\choruspic18.jpg",320,240 F,0,157576,157851,0,1 F,0,157851,158126,1,0 F,0,158126,,0
Sprite,Foreground,Centre,"sb\choruspic21.jpg",320,240 F,0,158126,160053,0,1 F,0,160053,160328,1,0
Sprite,Foreground,Centre,"sb\choruspic22.jpg",320,240 M,0,160328,,320,240 F,0,160328,162254,0,1 F,0,162254,162530,1,0
Sprite,Foreground,Centre,"sb\choruspic23.jpg",320,240 F,0,162530,166383,0,1 F,0,166383,167759,1 F,0,167759,168309,1,0
Sprite,Foreground,Centre,"sb\choruspic23.jpg",320,240 F,0,166383,166658,1,0 S,0,166383,166658,1,1.0512 F,0,166933,167208,1,0 S,0,166933,167208,1,1.0512
Sprite,Foreground,Centre,"sb\photo1.png",320,240 F,0,88498,89049,0,1 S,0,88498,89049,0.6020923,0.5611323 M,0,89049,,226,189 R,0,89049,,-0.1228796 F,0,91250,91388,1,0 F,0,91388,,0
Sprite,Foreground,Centre,"sb\photo2.png",320,240 M,0,89049,,408,200 R,0,89049,,0.2047998 F,0,89049,89599,0,1 S,0,89049,89599,0.6415999,0.5596797 F,0,91388,,0.7495463 F,0,91388,91526,0.7495463,0 F,0,91526,,0.5017599
Sprite,Foreground,Centre,"sb\photo3.png",320,240 M,0,89599,,229,312 F,0,89599,90150,0,1 S,0,89599,90150,0.6723201,0.5699202 R,0,90150,,0.06144043 F,0,91526,91663,1,0 F,0,91526,91663,1,0
Sprite,Foreground,Centre,"sb\photo4.png",320,240 M,0,90307,,427,312 R,0,90307,,-0.2047998 F,0,90150,90700,0,1 S,0,90150,90700,0.6723197,0.5596796 F,0,91663,91801,0.7982938,0
Sprite,Foreground,Centre,"sb\phototen.png",320,240 M,0,90700,,276,208 R,0,90700,,0.1638403 F,0,90700,91250,0.6979201,1 S,0,90700,91250,0.7132805,0.6211205 F,0,91250,,1 F,0,91250,,1 F,0,92351,,1 S,0,92351,,0.5705908,4.646111 F,0,92351,92626,1,0 S,0,92351,92626,0.5705908,4.441311 F,0,92626,92988,0
Sprite,Foreground,Centre,"sb\photo5.png",320,240 F,0,91250,91801,0,1 S,0,91250,91801,0.7542398,0.6620798 R,0,91801,,-0.2662402 F,0,91801,92076,1,0 S,0,91801,92076,0.6620798,4.328
Sprite,Foreground,Centre,"sb\photo6.png",320,240 M,0,92922,,425,315 F,0,92922,93472,0,1 S,0,92922,93472,0.5187199,0.46752 R,0,93472,,-0.1228803 F,0,95674,95812,1,0
Sprite,Foreground,Centre,"sb\photo7.png",320,240 M,0,93472,,248,290 R,0,93472,,-2.703361 F,0,93472,94023,0,1 S,0,93472,94023,0.6006398,0.5084797 F,0,95812,95949,1,0
Sprite,Foreground,Centre,"sb\photo8.png",320,240 F,0,94023,94573,0,1 S,0,94023,94573,0.6518399,0.5392 R,0,94573,,-0.9420807 F,0,95949,96087,1,0
Sprite,Foreground,Centre,"sb\photo9.png",320,240 M,0,94573,,249,205 R,0,94573,,0.3071997 F,0,94573,95124,0,1 S,0,94573,95124,0.6416004,0.5494403 F,0,95124,,1 S,0,95124,,0.5494403 F,0,96225,,0.6658596 S,0,96225,,0.8060602 F,0,96225,96500,0.6658596,0 S,0,96225,96500,0.8060602,1.31744
Sprite,Foreground,Centre,"sb\lyrics\syllables\nu.png",320,240 M,0,219722,,132,116 F,0,219722,219997,0,1 F,0,219997,220135,1,0
Sprite,Foreground,Centre,"sb\lyrics\syllables\ke.png",320,240 M,0,219997,,189,116 F,0,219997,220341,0,1 F,0,220341,220479,1,0 F,0,220479,,0
Sprite,Foreground,Centre,"sb\lyrics\syllables\da.png",320,240 M,0,220341,,232,116 F,0,220341,220754,0,1 F,0,220754,,1 F,0,220754,220892,1,0
Sprite,Foreground,Centre,"sb\lyrics\syllables\shi.png",320,240 M,0,220754,,281,116 F,0,220685,220892,0,1 F,0,220892,,1 F,0,220892,221029,1,0
Sprite,Foreground,Centre,"sb\lyrics\syllables\te.png",320,240 M,0,220892,,336,116 F,0,220823,221442,0,1 F,0,221442,221580,1,0
Sprite,Foreground,Centre,"sb\lyrics\syllables\tte.png",320,240 M,0,221442,,371,116 F,0,221442,221993,0,1 F,0,221993,222130,1,0
Sprite,Foreground,Centre,"sb\lyrics\syllables\nu.png",320,240 M,0,221993,,247,178 F,0,221993,222268,0,1
Sprite,Foreground,Centre,"sb\lyrics\syllables\ke.png",320,240 M,0,222268,,305,178 F,0,222268,222543,0,1 F,0,222543,222681,1,0
Sprite,Foreground,Centre,"sb\lyrics\syllables\shi.png",320,240 M,0,222956,,397,178 F,0,222956,223162,0,1 F,0,223162,223438,1,0
Sprite,Foreground,Centre,"sb\lyrics\syllables\te.png",320,240 M,0,223162,,452,178 F,0,223162,223644,0,1 F,0,223644,223782,1,0.03232002
Sprite,Foreground,Centre,"sb\lyrics\syllables\tte.png",320,240 M,0,223644,,486,178 F,0,223644,224057,0,1 F,0,224057,224194,1,0
Sprite,Foreground,Centre,"sb\rikasketch.png",320,240 F,0,219722,225708,0,0.1618072 F,0,225708,228873,0.1618072,0.2473601 F,0,228873,233827,0.2473601,0.24064
Sprite,Foreground,Centre,"sb\lyrics\syllables\ka.png",320,240 M,0,224263,224470,134,193,157,204 F,0,224263,224470,0,1 F,0,224470,228598,1 F,0,228598,228873,1,0
Sprite,Foreground,Centre,"sb\lyrics\syllables\na.png",320,240 M,0,224470,224745,215,177,211,204 F,0,224470,224745,0,1 F,0,224745,228598,1 F,0,228598,228873,1,0
Sprite,Foreground,Centre,"sb\lyrics\syllables\da.png",320,240 M,0,222543,,347,178 F,0,222543,222956,0,1 F,0,222956,223094,1,0
Sprite,Foreground,Centre,"sb\lyrics\syllables\shi.png",320,240 F,0,224745,225227,0,1 M,0,224745,225295,286,179,259,204 F,0,225227,228598,1 F,0,228598,228873,1,0
Sprite,Foreground,Centre,"sb\lyrics\syllables\su.png",320,240 M,0,225295,225639,327,180,337,204 F,0,225295,225639,0,1 F,0,225639,228598,1 F,0,228598,228873,1,0
Sprite,Foreground,Centre,"sb\lyrics\syllables\gi.png",320,240 M,0,225639,225915,382,170,381,207 F,0,225639,225915,0,1 F,0,225915,228598,1 F,0,228598,228873,1,0
Sprite,Foreground,Centre,"sb\lyrics\syllables\ru.png",320,240 M,0,225915,226190,432,187,417,207 F,0,225915,226190,0.07167999,1 F,0,226190,228598,1 F,0,228598,228873,1,0
Sprite,Foreground,Centre,"sb\lyrics\syllables\u.png",320,240 M,0,226465,226671,263,259,256,278 M,0,226465,226671,259,255,256,278 F,0,226465,226671,0,1 F,0,226671,228598,1 F,0,228598,228873,1,0
Sprite,Foreground,Centre,"sb\lyrics\syllables\n.png",320,240 M,0,226671,226947,276,259,280,283 F,0,226671,226947,0,1 F,0,226947,228598,1 F,0,228598,228873,1,0
Sprite,Foreground,Centre,"sb\lyrics\syllables\me.png",320,240 M,0,226947,227222,299,313,304,275 F,0,226947,227222,0,1 F,0,227222,228598,1 F,0,228598,228873,1,0
Sprite,Foreground,Centre,"sb\lyrics\syllables\i.png",320,240 M,0,227222,227566,386,291,361,284 F,0,227222,227566,0,1 F,0,227566,228598,1 F,0,228598,228873,1,0
Sprite,Foreground,Centre,"sb\lyrics\syllables\ka2.png",320,240 M,0,227566,228185,380,249,398,277 F,0,227566,228185,0,1 F,0,228185,228598,1 F,0,228598,228873,1,0
Sprite,Foreground,Centre,"sb\lyrics\syllables\ra.png",320,240 F,0,228185,228598,0,1 M,0,228185,228873,476,253,450,281 F,0,228598,228873,1,0
Sprite,Foreground,Centre,"sb\lyrics\syllables\A.png",320,240 M,0,229149,229699,205,232,247,252 F,0,229149,229699,0,1 F,0,229699,234378,1 F,0,234378,234653,1,0
Sprite,Foreground,Centre,"sb\lyrics\syllables\na.png",320,240 M,0,229699,230043,287,216,278,252 F,0,229699,230043,0.08352005,1 F,0,230043,234378,1 F,0,234378,234653,1,0
Sprite,Foreground,Centre,"sb\lyrics\romaji12.png",320,240 M,0,106662,,431,88 S,0,106672,,0.90784 F,0,106672,106947,0,1 F,0,112727,113277,1,0
Sprite,Foreground,Centre,"sb\lyrics\romaji13.png",320,240 M,0,115469,,451,88 S,0,115479,,0.9488 F,0,115479,115754,0,1 F,0,121534,122084,1,0
Sprite,Foreground,Centre,"sb\lyrics\romaji14.png",320,240 M,0,124286,,451,93 S,0,124286,,0.9590399 F,0,124286,124561,0,1 F,0,131167,131717,1,0
Sprite,Foreground,Centre,"sb\lyrics\romaji15.png",320,240 M,0,133369,,376,93 S,0,133369,,0.9488 F,0,133369,133644,0,1 F,0,133644,137222,1 F,0,137222,140249,1,0
Sprite,Foreground,Centre,"sb\lyrics\romaji16.png",320,240 M,0,140525,,444,95 S,0,140525,,0.91808 F,0,140525,140800,0,0.8963225 F,0,140800,144653,0.8963225,1 F,0,144653,144928,1,0
Sprite,Foreground,Centre,"sb\lyrics\romaji17.png",320,240 M,0,144928,,449,94 S,0,144928,,0.9487999 F,0,144928,145204,0,1 F,0,145204,149057,1 F,0,149057,149607,1,0
Sprite,Foreground,Centre,"sb\lyrics\romaji7.png",320,240 M,0,149883,,438,96 S,0,149883,,0.97952 F,0,149883,150158,0,1 F,0,150158,154837,1 F,0,154837,155662,1,0
Sprite,Foreground,Centre,"sb\lyrics\romaji8.png",320,240 M,0,155938,,377,92 F,0,155938,156213,0,1 F,0,156213,157589,1 F,0,157589,158139,1,0
Sprite,Foreground,Centre,"sb\lyrics\romaji18.png",320,240 S,0,158139,,0.9488 F,0,158139,158415,0,1 M,0,158791,,447,93 F,0,160056,160331,1,0 F,0,160331,160606,0,1 F,0,161993,162543,1,0
Sprite,Foreground,Centre,"sb\lyrics\romaji19.png",320,240 M,0,162543,,452,96 S,0,162543,,0.95904 F,0,162543,162818,0,1 F,0,162818,167222,1 F,0,167222,168323,1,0
Sprite,Foreground,Centre,"sb\lyrics\romajitwenty.png",320,240 M,0,168598,,450,94 F,0,168598,168873,0,1 F,0,168873,173817,1 F,0,171503,176570,1,0 F,0,173817,176570,1,0
Sprite,Foreground,Centre,"sb\lyrics\english12.png",320,240 M,0,106673,,474,117 S,0,106673,,0.9488 F,0,106673,106937,0,1 F,0,112717,113267,0.9886364,0
Sprite,Foreground,Centre,"sb\lyrics\english13.png",320,240 M,0,115469,,472,113 S,0,115469,,0.9385599 F,0,115469,115744,0,1 F,0,121524,122074,0.9490909,0
Sprite,Foreground,Centre,"sb\lyrics\english14.png",320,240 M,0,124276,,464,118 S,0,124276,,0.8873601 F,0,124276,124551,0,1 F,0,131157,131707,0.96,0
Sprite,Foreground,Centre,"sb\lyrics\english15.png",320,240 M,0,133359,,470,120 S,0,133359,,0.91808 F,0,133359,133634,0,1 F,0,137487,140239,0.9345455,0
Sprite,Foreground,Centre,"sb\lyrics\english16.png",320,240 M,0,140515,,463,118 S,0,140515,,0.8771201 F,0,140515,140790,0,1 F,0,144643,144918,1,0
Sprite,Foreground,Centre,"sb\lyrics\english17.png",320,240 M,0,144918,,463,118 S,0,144918,,0.8771199 F,0,144918,145194,0,1 F,0,149047,149597,1,0
Sprite,Foreground,Centre,"sb\lyrics\english7.png",320,240 M,0,149872,,438,118 S,0,149872,,0.90784 F,0,149872,150148,0,1 F,0,154827,155652,0.9311594,0
Sprite,Foreground,Centre,"sb\lyrics\english8.png",320,240 M,0,155928,,434,114 S,0,155928,,0.8873601 F,0,155928,156203,0,1 F,0,157579,158129,1,0
Sprite,Foreground,Centre,"sb\lyrics\english18.png",320,240 M,0,158129,,462,115 S,0,158129,,0.87712 F,0,158129,158405,0,1 F,0,160056,160331,0.9311594,0 F,0,160331,160606,0,1 F,0,160606,161983,1,0.9563636 F,0,161983,162533,0.9563636,0
Sprite,Foreground,Centre,"sb\lyrics\english19.png",320,240 M,0,162533,,461,116 S,0,162533,,0.8668802 F,0,162533,162808,0,1 F,0,167212,168313,1,0
Sprite,Foreground,Centre,"sb\lyrics\englishtwenty.png",320,240 S,0,168588,,0.9385599 F,0,168588,168863,0,1 M,0,168965,,469,120 F,0,173817,176570,1,0
Sprite,Foreground,Centre,"sb\squealpic.jpg",320,240 M,0,178782,,313,234 M,0,178850,,321,224 M,0,178919,,326,235 M,0,178988,,321,240 M,0,179057,,325,249 M,0,179126,,330,238 M,0,179194,,334,244 M,0,179263,,325,247 M,0,179332,,318,236 M,0,179401,,312,222 M,0,179470,,318,216 M,0,179538,,304,231 M,0,179607,,309,238 M,0,179676,,315,229 M,0,179745,,322,233 M,0,179814,,308,236 M,0,179883,,302,229 M,0,179951,,303,235 M,0,180020,,309,223 M,0,180089,,316,231 M,0,180158,,304,236 M,0,180227,,289,241 M,0,180295,,270,222 M,0,180364,,279,232 F,0,178782,180433,0.2780801,0.01544052 S,0,178782,180433,0.9692799,1.36864 M,0,180433,,270,227
Sprite,Foreground,Centre,"sb\squealpic2.jpg",320,240 M,0,187589,,326,245 M,0,187658,,320,240 M,0,187727,,313,243 M,0,187795,,321,237 M,0,187864,,313,239 M,0,187933,,317,235 M,0,188002,,326,243 M,0,188071,,318,243 M,0,188139,,306,231 M,0,188208,,309,237 M,0,188277,,307,247 M,0,188346,,313,241 M,0,188415,,303,250 M,0,188483,,308,238 M,0,188552,,315,243 M,0,188621,,303,248 M,0,188690,,308,253 M,0,188759,,300,256 M,0,188827,,305,248 M,0,188896,,299,252 M,0,188965,,313,241 M,0,189034,,319,245 M,0,189103,,325,252 M,0,189171,,308,238 F,0,187589,189240,0.5443202,0 S,0,187589,189240,1,1.542721 M,0,189240,,302,243
Sprite,Foreground,Centre,"sb\choruspic1.jpg",320,240 F,0,238201,238476,0,1 F,0,238476,238751,1,0 F,0,238751,,0
Sprite,Foreground,Centre,"sb\choruspic2.jpg",320,240 F,0,238751,239027,0,1 F,0,239027,239302,1,0
Sprite,Foreground,Centre,"sb\choruspic4.jpg",320,240 F,0,239302,239577,0,1 F,0,239577,239852,1,0
Sprite,Foreground,Centre,"sb\choruspic5.jpg",320,240 F,0,239852,240127,0,1 F,0,240127,240403,1,0
Sprite,Foreground,Centre,"sb\choruspic3.jpg",320,240 F,0,240403,240678,0,1 F,0,240678,240953,1,0
Sprite,Foreground,Centre,"sb\choruspic9.jpg",320,240 F,0,240953,241228,0,1 F,0,241228,241779,1,0
Sprite,Foreground,Centre,"sb\choruspic15.jpg",320,240 F,0,241779,242054,0,1 F,0,242054,242329,1,0 F,0,242329,,0
Sprite,Foreground,Centre,"sb\choruspic17.jpg",320,240 F,0,242880,243155,0,1 F,0,243155,243430,1,0
Sprite,Foreground,Centre,"sb\choruspic16.jpg",320,240 F,0,242329,242605,0,1 F,0,242605,242880,1,0
Sprite,Foreground,Centre,"sb\rika1.jpg",320,240 F,0,243430,243705,0,1 F,0,243705,243981,1,0 F,0,243981,,0
Sprite,Foreground,Centre,"sb\rika2.jpg",320,240 F,0,243981,244256,0,1 F,0,244256,244325,1,0.2012509 F,0,244325,,0
Sprite,Foreground,Centre,"sb\rika1.jpg",320,240 F,0,244256,244531,0,1 F,0,244531,244600,1,0
Sprite,Foreground,Centre,"sb\choruspic17.jpg",320,240 F,0,244531,244806,0,1 F,0,244806,244875,1,0
Sprite,Foreground,Centre,"sb\choruspic16.jpg",320,240 F,0,244806,245082,0,1 F,0,245082,245150,1,0 F,0,245150,,0
Sprite,Foreground,Centre,"sb\choruspic15.jpg",320,240 F,0,245082,245357,0,1 F,0,245357,245632,1,0 F,0,245632,246114,0
Sprite,Foreground,Centre,"sb\choruspic19.jpg",320,240 F,0,245632,246114,1,0
Sprite,Foreground,Centre,"sb\choruspictwenty.jpg",320,240 F,0,246183,246664,1,0
Sprite,Foreground,Centre,"sb\finalepic.jpg",320,240 F,0,247834,250586,0,1 F,0,250586,255816,1
Animation,Foreground,Centre,"sb\choruspic1.jpg",320,240,10,500,LoopForever F,0,237130,237199,1,0 F,0,237199,237268,0,1 F,0,237268,237337,1,0 F,0,237337,237405,0,1 F,0,237405,237474,1,0 F,0,237474,237543,0,1 F,0,237543,237612,1,0.01183994 F,0,237612,237681,0.01183994,1 F,0,237681,237749,1,0 F,0,237749,237818,0,1 F,0,237818,237887,1,0 F,0,237887,237956,0,1 F,0,237956,238025,1,0.05279999 F,0,238025,238094,0.05279999,1 F,0,238094,238162,1,0
Sprite,Foreground,Centre,"sb\linenova.png",320,240 S,0,237119,237130,1.445916,2.7624 M,0,237130,,320,240 S,0,237130,238220,2.7624,0.9206135
Sprite,Foreground,Centre,"sb\lyrics\romaji9.png",320,240 M,0,237375,,401,99 S,0,237375,,1 F,0,237375,237650,0,1 F,0,237650,239321,1 F,0,239321,239596,1,0 F,0,239596,239872,0,1 F,0,239872,241504,1 F,0,241504,241779,1,0
Sprite,Foreground,Centre,"sb\lyrics\romajiten.png",320,240 M,0,241779,,414,99 F,0,241779,242054,0,1 F,0,242054,247008,1 F,0,247008,247559,1,0
Sprite,Foreground,Centre,"sb\lyrics\romaji11.png",320,240 S,0,247853,,0.9385599 F,0,247834,248109,0,1 M,0,248650,,422,92 F,0,248109,253063,1 F,0,253063,260494,1,0
Sprite,Foreground,Centre,"sb\lyrics\syllables\ta.png",320,240 M,0,229944,230219,335,231,301,256 F,0,229944,230219,0,1 F,0,234348,234623,1,0
Sprite,Foreground,Centre,"sb\lyrics\syllables\wa.png",320,240 F,0,230219,231114,0,1 M,1,230219,231320,435,256,355,256 F,0,234348,234623,1,0
Sprite,Foreground,Centre,"sb\lyrics\syllables\na.png",320,240 M,0,231320,231458,182,290,195,307 F,0,231320,231458,0,1 F,0,234348,234623,1,0
Sprite,Foreground,Centre,"sb\lyrics\syllables\ra.png",320,240 M,0,231458,231595,252,333,241,310 F,0,231458,231595,0,1 F,0,234348,234623,1,0
Sprite,Foreground,Centre,"sb\lyrics\syllables\ku.png",320,240 M,0,231595,231802,295,339,258,311 F,0,231595,231802,0,1 F,0,231802,,1 F,0,234348,234623,1,0
Sprite,Foreground,Centre,"sb\lyrics\syllables\no.png",320,240 M,0,231871,232146,322,280,323,311 F,0,231871,232146,0,1 F,0,232146,234348,1 F,0,234348,234623,1,0
Sprite,Foreground,Centre,"sb\lyrics\syllables\ha.png",320,240 M,0,232146,232421,371,274,385,311 F,0,232146,232421,0,1 F,0,232421,234348,1 F,0,234348,234623,1,0
Sprite,Foreground,Centre,"sb\lyrics\syllables\na.png",320,240 M,0,232421,232903,471,279,456,307 F,0,232421,232903,0,1 F,0,234348,234623,1,0
Sprite,Foreground,Centre,"sb\lyrics\syllables\ja.png",320,240 M,0,232972,,212,361 F,0,232972,233316,0,1 S,0,232972,233316,1.12288,1.38912 F,0,233316,234348,1 F,0,234348,234623,1,0
Sprite,Foreground,Centre,"sb\lyrics\syllables\na.png",320,240 M,0,233316,,487,357 F,0,233316,233591,0.1961601,1 S,0,233316,233591,1,1.31744 F,0,234348,234623,1,0
Sprite,Foreground,Centre,"sb\lyrics\syllables\i.png",320,240 M,0,233591,,543,361 F,0,233591,234348,0,1 S,0,233591,234348,1.07168,1.19456 F,0,234348,234623,1,0
Sprite,Foreground,Centre,"sb\lyrics\syllables\So.png",320,240 M,0,235173,,271,118 S,0,235173,,1.65536 R,0,235311,,-6.145239E-07 F,0,235173,235449,0,1 F,0,236825,237100,1,0
Sprite,Foreground,Centre,"sb\lyrics\syllables\n.png",320,240 M,0,235449,,376,115 S,0,235449,,1.59392 F,0,235449,235724,0.04768005,1 R,0,235724,,-0.04095994 F,0,236825,237100,1,0.02207993
Sprite,Foreground,Centre,"sb\lyrics\syllables\na.png",320,240 M,0,235724,,415,112 S,0,235724,,1.64512 R,0,235724,,-0.02048096 F,0,235724,236274,0,1 F,0,236825,237100,1,0
Sprite,Foreground,Centre,"sb\lyrics\syllables\ba.png",320,240 M,0,236274,,317,196 F,0,236274,236549,0,1 F,0,236825,237100,1,0
Sprite,Foreground,Centre,"sb\lyrics\syllables\sho.png",320,240 M,0,236549,,365,196 F,0,236549,236825,0,1 F,0,236825,237100,1,0
Sprite,Foreground,Centre,"sb\lyrics\syllables\de.png",320,240 M,0,236825,,464,195 F,0,236825,237100,1,0 S,0,236825,237100,1.19456,2.60768
Sprite,Foreground,Centre,"sb\squealpic3.jpg",320,240 M,0,218415,,321,233 M,0,218483,,314,237 M,0,218552,,317,241 M,0,218621,,311,245 F,0,218415,218690,0,1 M,0,218690,,314,253 M,0,218759,,323,241 M,0,218827,,329,251 M,0,218896,,317,255 M,0,218965,,323,245 M,0,219034,,327,251 M,0,219103,,312,257 M,0,219171,,319,247 M,0,219240,,327,257 M,0,219309,,313,264 M,0,219378,,319,256 F,0,218690,219447,1,0 M,0,219447,,327,265 F,0,219447,219516,0,1 M,0,219516,,316,248 S,0,218415,219584,1,1.58368 F,0,219516,219584,1,0 M,0,219584,,321,239
Sprite,Foreground,Centre,"sb\flower1.png",320,240 S,0,88518,,0.5903998 F,0,88518,89894,0,0.6758399 M,0,89894,,320,157 F,0,89894,90445,0.6758399,0.38912 R,0,88518,91821,-10.15808,-13.16864 F,0,90445,91821,0.38912,0
Sprite,Foreground,Centre,"sb\Artist_Title.png",320,240 F,0,88518,89069,0,0.51872 F,0,89069,90170,0.51872,0.53408 M,0,88518,90720,348,117,278,117 F,0,90170,90720,0.53408,0
Sprite,Foreground,Centre,"sb\Song_Title.png",320,240 F,0,89619,90170,0,0.55456 F,0,90170,90720,0.55456,0.68256 M,0,89619,91270,363,168,277,167 F,0,90720,91270,0.68256,0
Sprite,Foreground,Centre,"sb\Beatmapby1.png",320,240 F,0,90720,91270,0,0.5376 F,0,91270,91821,0.5376,0 F,0,91821,,0 M,0,90720,92371,349,218,276,217
Sprite,Foreground,Centre,"sb\Artist_Title.png",320,240 F,0,88518,88793,1 M,0,88518,89746,316,118 F,0,88793,90445,1 F,0,90445,90720,1,0
Sprite,Foreground,Centre,"sb\Song_Title.png",320,240 M,0,89619,,323,173 F,0,89619,89894,0,1 F,0,89894,91271,1 F,0,91271,91821,1,0 F,0,91821,,0
Sprite,Foreground,Centre,"sb\Beatmapby1.png",320,240 M,0,90720,,320,224 F,0,90720,91270,0,1 S,0,91821,92096,1,1.07168 F,0,91821,92371,1,0 S,0,92096,92371,1.07168,1 F,0,92371,,1 S,0,92371,,1
Sprite,Foreground,Centre,"sb\lyrics\english9.png",320,240 M,0,237612,,466,128 F,0,237394,237670,0,1 F,0,239321,239596,0.8731884,0 F,0,239596,239872,0,0.8731884 F,0,241523,241798,0.3828109,0
Sprite,Foreground,Centre,"sb\lyrics\englishten.png",320,240 M,0,241798,,454,129 S,0,241798,,0.9488 F,0,241798,242073,0,1 F,0,247028,247578,1,0
Sprite,Foreground,Centre,"sb\lyrics\english11.png",320,240 F,0,247853,248128,0,1 M,0,248128,,447,124 S,0,248128,,0.9180798 F,0,255835,260239,1,0
//Storyboard Sound Samples
//Background Colour Transformations
3,100,163,162,255

[TimingPoints]
18050,550.45871559633,4,1,1,50,1,0
21500,-100,4,1,1,0,0,0
21775,-100,4,1,1,50,0,0
21844,-100,4,2,1,60,0,0
21982,-100,4,1,1,50,0,0
23702,-100,4,1,1,0,0,0
23977,-100,4,1,1,50,0,0
25628,-100,4,1,1,0,0,0
25904,-100,4,1,1,50,0,0
26798,-100,4,2,1,50,0,0
26936,-100,4,1,1,50,0,0
28449,-100,4,2,1,70,0,0
28656,-100,4,1,1,50,0,0
31133,-100,4,1,1,0,0,0
31408,-100,4,1,1,50,0,0
32853,-100,4,2,1,70,0,0
34780,-100,4,1,1,40,0,0
35605,-100,4,1,1,60,0,0
36431,-100,4,2,2,50,0,0
36569,-100,4,1,1,51,0,0
40491,-100,4,1,1,0,0,0
40766,-100,4,1,1,51,0,0
41041,-100,4,1,1,0,0,0
41316,-100,4,1,1,51,0,0
43862,-100,4,1,1,70,0,0
44413,-100,4,2,1,40,0,0
44550,-100,4,1,1,40,0,0
52119,-100,4,1,1,0,0,0
52257,-100,4,1,1,60,0,0
53289,-100,4,1,2,100,0,1
53358,-100,4,1,1,100,0,1
55422,-100,4,1,2,100,0,1
55560,-100,4,1,1,100,0,1
57624,-100,4,1,2,100,0,1
57761,-100,4,1,1,100,0,1
58725,-100,4,1,2,100,0,1
58862,-100,4,1,1,100,0,1
59550,-100,4,1,2,100,0,1
59688,-100,4,1,1,100,0,1
60651,-100,4,1,2,100,0,1
60789,-100,4,1,1,100,0,1
61477,-100,4,1,2,100,0,1
61615,-100,4,1,1,100,0,1
62578,-100,4,1,2,100,0,1
62715,-100,4,1,1,100,0,1
63679,-100,4,2,1,100,0,1
63816,-100,4,1,1,100,0,1
64229,-100,4,1,2,100,0,1
64917,-100,4,1,1,100,0,1
67257,-100,4,2,0,70,0,1
67394,-100,4,1,1,100,0,1
68358,-100,4,2,0,70,0,1
68495,-100,4,1,1,100,0,1
68908,-100,4,2,0,85,0,1
69046,-100,4,1,1,100,0,1
69459,-100,4,2,0,100,0,1
69596,-100,4,1,1,100,0,1
70559,-100,4,1,2,80,0,1
71798,-100,4,1,1,100,0,1
72761,-100,4,1,2,100,0,1
74000,-100,4,1,1,100,0,1
75514,-100,4,2,2,79,0,1
75651,-100,4,1,1,100,0,1
79642,-100,4,2,0,80,0,1
79780,-100,4,1,1,100,0,1
80743,-100,4,1,2,100,0,1
80881,-100,4,1,1,100,0,1
81293,-100,4,1,2,100,0,1
81431,-100,4,1,1,100,0,1
81844,-100,4,1,2,100,0,1
81982,-100,4,1,1,100,0,1
84046,-100,4,1,2,100,0,1
84183,-100,4,1,1,100,0,1
84596,-100,4,1,2,100,0,1
84734,-100,4,1,1,100,0,1
85147,-100,4,1,2,100,0,1
85284,-100,4,1,1,100,0,1
85904,-100,4,1,1,100,0,0
88518,-100,4,2,2,100,0,1
88587,-100,4,1,1,100,0,0
97188,-100,4,2,0,60,0,0
98771,-100,4,2,0,60,0,0
98908,-100,4,2,0,70,0,0
99046,-100,4,2,0,80,0,0
99183,-100,4,2,0,90,0,0
99321,-100,4,2,0,62,0,0
101660,-100,4,2,0,80,0,0
101798,-100,4,2,0,60,0,0
104344,-100,4,2,0,0,0,0
105582,-100,4,2,0,0,0,0
106133,-100,4,1,2,100,0,0
106662,550.45871559633,4,1,2,60,1,0
106809,-100,4,1,1,61,0,0
107360,-100,4,1,2,60,0,0
107910,-100,4,1,1,60,0,0
112038,-100,4,1,2,80,0,0
112245,-100,4,1,1,80,0,0
113139,-100,4,1,1,40,0,0
113965,-100,4,1,1,65,0,0
114584,-100,4,2,1,65,0,0
114722,-100,4,1,1,80,0,0
115341,-100,4,1,1,80,0,0
117887,-100,4,2,1,80,0,0
118025,-100,4,1,1,80,0,0
119194,-100,4,1,1,60,0,0
120846,-100,4,1,1,80,0,0
122979,-100,4,1,2,80,0,0
123116,-100,4,1,1,80,0,0
123598,-100,4,2,1,80,0,0
123873,-100,4,1,1,80,0,0
127176,-100,4,1,1,0,0,0
127451,-100,4,1,1,80,0,0
128552,-100,4,1,1,0,0,0
128827,-100,4,1,1,80,0,0
129103,-100,4,1,1,0,0,0
129378,-100,4,1,1,80,0,0
130204,-100,4,1,2,80,0,0
131236,-100,4,1,1,100,0,0
131855,-100,4,1,2,100,0,0
132887,-100,4,1,1,80,0,0
135227,-100,4,1,2,100,0,0
135364,-100,4,1,1,80,0,0
140249,-100,4,1,1,0,0,0
140387,-100,4,1,1,80,0,0
141282,-100,4,1,2,100,0,0
141419,-100,4,1,1,100,0,0
143483,-100,4,1,2,100,0,0
143690,-100,4,1,1,100,0,0
145410,-100,4,1,2,100,0,0
145548,-100,4,1,1,100,0,0
146511,-100,4,1,1,100,0,0
146649,-100,4,1,1,100,0,0
149814,-100,4,1,2,100,0,0
150502,-100,4,1,1,100,0,0
151671,-100,4,1,2,100,0,0
155869,-100,4,2,0,40,0,0
156144,-100,4,2,0,50,0,0
156419,-100,4,2,0,60,0,0
156694,-100,4,2,0,70,0,0
156970,-100,4,2,0,80,0,0
157245,-100,4,2,0,90,0,0
157520,-100,4,2,0,100,0,0
157795,-100,4,1,1,100,0,0
158621,-100,4,2,0,69,0,0
159172,-100,4,1,1,100,0,0
159722,-100,4,2,0,70,0,0
159860,-100,4,1,1,100,0,0
160823,-100,4,2,0,69,0,0
161373,-100,4,1,1,100,0,0
161924,-100,4,2,0,70,0,0
162061,-100,4,1,1,100,0,0
163575,-100,4,2,0,100,0,0
163713,-100,4,1,1,100,0,0
166327,-100,4,2,0,100,0,0
166465,-100,4,1,2,60,0,0
167841,-100,4,1,2,61,0,0
172658,-100,4,1,2,100,0,0
172795,-100,4,1,1,100,0,0
176511,-100,4,2,2,100,0,0
176649,-100,4,1,1,100,0,0
185112,-100,4,1,1,100,0,0
185869,-100,4,2,0,70,0,0
186419,-100,4,1,1,100,0,0
186970,-100,4,2,0,70,0,0
187520,-100,4,1,1,100,0,0
188071,-100,4,2,0,70,0,0
188552,-100,4,2,2,70,0,0
189653,-100,4,2,2,100,0,0
190272,-100,4,2,0,70,0,0
190823,-100,4,2,2,100,0,0
191373,-100,4,2,0,70,0,0
191855,-100,4,2,0,100,0,0
194057,-100,4,1,2,100,0,0
194263,-100,4,1,1,100,0,0
195915,-100,4,1,2,100,0,0
196327,-100,4,1,1,100,0,0
211809,-100,4,2,0,80,0,1
211878,-100,4,1,1,100,0,0
219516,-100,4,2,0,21,0,0
220173,-100,4,2,0,30,0,0
220930,-100,4,2,0,15,0,0
221274,-100,4,2,0,30,0,0
222031,-100,4,2,0,15,0,0
222375,-100,4,2,0,30,0,0
223201,-100,4,2,0,14,0,0
223614,-100,4,2,0,30,0,0
224371,-100,4,2,0,14,0,0
224783,-100,4,2,0,30,0,0
228293,-100,4,2,0,14,0,0
231183,-100,4,2,0,25,0,0
233817,550.45871559633,4,2,0,60,1,0
233827,-100,4,2,0,60,0,1
233895,-100,4,2,0,60,0,0
233964,-100,4,2,0,60,0,1
234033,-100,4,2,0,60,0,0
234102,-100,4,2,0,60,0,1
234171,-100,4,2,0,60,0,0
235036,-100,4,2,0,50,0,0
235311,-100,4,2,0,60,0,0
235586,-100,4,2,0,70,0,0
235861,-100,4,2,0,80,0,0
236137,-100,4,2,0,70,0,0
236412,-100,4,2,0,80,0,0
236687,-100,4,2,0,100,0,0
236962,-100,4,1,0,20,0,0
237375,-100,4,1,0,40,0,0
237650,-100,4,1,0,60,0,0
237926,-100,4,1,0,80,0,0
238201,-100,4,2,0,80,0,1
238338,-100,4,1,1,100,0,1
241091,-100,4,1,2,100,0,1
241366,-100,4,1,1,100,0,1
246871,-100,4,2,0,80,0,1
247146,-100,4,1,1,100,0,1
250743,-100,4,2,0,70,0,1
251018,-100,4,1,1,100,0,1
255776,-100,4,1,1,100,0,0
255845,-100,4,2,0,90,0,1
255914,-100,4,1,0,80,0,0

[Colours]
Combo1 : 235,235,235
Combo2 : 213,170,255
Combo3 : 0,0,187
Combo4 : 223,0,112
Combo5 : 221,0,0

[HitObjects]
104,96,18049,1,8
168,56,18325,1,2
248,48,18600,1,8
328,56,18875,1,4
176,120,19426,1,4
112,168,19701,1,4
176,224,19976,5,8
176,304,20251,1,8
256,288,20527,1,4
328,256,20802,1,8
400,288,21077,2,0,B|464:160|336:56,1,240,4|2
280,40,22178,5,8
200,32,22453,2,0,B|112:32|48:96,1,160,4|2
88,160,23279,2,0,B|136:96|240:96,1,160,4|2
304,104,24105,1,4
256,192,24242,12,8,25756
160,192,26031,5,2
256,104,26306,1,8
352,192,26582,1,4
256,280,26857,1,0
120,192,27407,5,2
200,192,27683,1,4
336,112,28233,1,8
296,112,28371,1,8
256,112,28508,1,0
184,144,28783,5,8
112,112,29059,1,8
184,72,29334,1,2
256,112,29609,1,2
336,112,29884,1,4
256,192,30160,12,2,31261
424,192,31811,5,2
344,192,32086,2,0,B|264:160|176:192,1,160,4|2
112,192,32912,1,0
160,192,34838,5,2
256,280,35114,1,8
352,192,35389,1,4
256,104,35664,1,0
256,192,35939,1,4
256,192,36215,5,8
256,192,36490,1,2
112,72,37591,5,8
80,96,37728,1,8
56,136,37866,2,0,B|24:176|40:224,1,80,4|8
64,288,38416,2,8,B|96:320|136:320,1,80,8|6
272,240,39242,1,8
312,240,39380,1,8
352,240,39517,1,2
424,176,39793,5,2
352,136,40068,2,4,B|240:72|96:96,2,240
416,184,41994,1,8
464,248,42270,5,2
384,336,42683,1,2
304,248,43095,1,4
128,192,43646,5,4
256,72,43921,1,4
256,312,44472,1,4
384,192,44747,1,4
224,192,45297,6,0,B|128:192,2,80,8|8|2
304,192,46123,1,2
384,192,46398,1,4
256,32,48050,5,8
256,112,48325,1,8
256,192,48600,1,4
448,192,49150,5,8
448,272,49426,1,8
448,352,49701,1,4
256,352,49976,5,8
256,272,50251,1,8
256,192,50527,1,4
256,192,50802,12,8,52178
120,192,52453,5,8
256,232,52728,1,2
392,192,53004,1,2
344,128,53279,1,4
312,104,53416,1,2
272,96,53554,1,2
192,88,53829,1,4
112,104,54105,1,2
40,144,54380,1,4
16,176,54517,1,2
40,200,54655,5,8
112,224,54930,1,4
192,232,55205,1,2
272,224,55481,1,4
312,208,55618,1,2
344,192,55756,1,8
400,248,56031,1,4
328,288,56306,1,2
248,304,56582,1,4
208,304,56719,1,2
168,296,56857,6,4,B|128:296|80:248,1,80
32,208,57407,1,2
80,136,57683,1,4
104,112,57820,1,2
128,136,57958,2,0,B|160:176|200:184,1,80,0|4
272,208,58508,1,2
336,256,58783,1,4
392,192,59059,5,4
432,112,59334,1,8
352,112,59609,1,4
392,192,59884,1,4
432,112,60160,1,2
352,112,60435,1,2
392,192,60710,1,6
392,272,60985,1,8
376,312,61123,1,8
352,344,61261,1,2
272,360,61536,1,14
192,344,61811,6,0,B|120:288|128:200,1,160,4|6
136,128,62637,1,4
168,56,62912,1,8
136,128,63187,1,2
120,168,63325,1,2
128,208,63462,1,8
176,272,63738,1,0
248,296,64013,5,2
288,304,64150,1,2
328,288,64288,1,2
384,232,64563,1,4
408,152,64838,1,4
408,152,65114,1,4
328,288,65664,2,0,B|280:320|232:272,2,80,2|8|4
432,224,66490,5,2
312,192,66765,1,8
432,168,67040,1,8
312,136,67316,1,4
232,136,67591,1,2
196,166,67728,1,8
160,192,67866,5,8
80,192,68141,1,8
144,240,68416,1,6
120,160,68692,1,8
96,240,68967,1,6
120,320,69242,1,8
120,206,69517,1,6
176,152,69793,5,2
208,136,69930,1,2
248,128,70068,1,8
328,120,70343,1,4
408,144,70618,2,0,B|488:200|440:296,2,160,2|8|2
328,120,71994,1,2
288,112,72132,1,2
248,120,72270,5,8
176,168,72545,1,8
144,240,72820,2,4,B|120:328|224:376,2,160,2|8|2
176,168,74196,1,2
208,128,74334,1,2
248,112,74472,5,8
328,104,74747,1,8
408,120,75022,1,4
304,240,75572,1,4
224,216,75848,1,2
144,232,76123,1,4
264,336,76673,5,2
336,360,76949,1,6
408,336,77224,1,2
464,280,77499,1,6
480,200,77774,1,2
352,96,78325,2,4,B|288:32|192:56,1,160
160,168,79150,5,12
264,216,79426,1,4
144,224,79701,1,4
464,64,80527,5,2
368,128,80802,1,2
256,152,81077,1,8
144,128,81352,1,2
48,64,81627,1,2
48,176,81903,2,0,B|120:240|208:248,1,160,2|2
322,245,82728,2,0,B|392:240|464:176,1,160,4|2
256,264,83829,5,2
176,192,84105,1,2
256,120,84380,1,8
336,192,84655,1,2
256,120,84930,1,2
176,192,85205,1,2
256,264,85481,1,6
296,228,85618,1,6
336,192,85756,1,6
256,192,85894,12,4,88508
256,64,97316,5,4
312,152,97591,1,8
256,160,97728,1,8
152,152,98004,1,2
120,192,98141,1,8
216,232,98416,1,2
256,264,98554,1,8
352,224,98829,1,2
392,192,98967,1,2
344,168,99105,1,2
304,200,99242,1,4
200,192,99517,5,4
216,88,99793,1,8
256,56,99930,1,2
304,152,100205,1,8
256,136,100343,1,8
168,192,100618,2,0,B|176:232|248:256,1,80,2|2
327,247,101169,2,0,B|374:233|382:193,1,80,2|2
472,248,101719,5,4
408,328,101994,1,2
360,304,102132,1,8
256,328,102407,1,8
208,304,102545,1,2
104,320,102820,1,2
64,280,102958,1,2
24,184,103233,1,2
40,136,103371,1,8
72,176,103508,1,2
88,128,103646,1,6
192,128,103921,6,4,L|200:120|200:120|208:128|208:128|216:120|216:120|224:128|224:128|232:120|232:120|240:128|240:128|248:120|248:120|256:128|256:128|264:120|264:120|304:160|304:160|264:200|264:200|256:192|256:192|248:200|248:200|240:192|240:192|232:200|232:200|224:192|224:192|216:200|216:200|208:192|208:192|200:200|200:200|192:192|192:192|184:200,2,320,0|0|2
392,80,106662,5,2
440,144,106937,1,2
360,152,107212,1,12
280,160,107487,1,4
328,224,107762,1,2
248,232,108038,5,2
248,232,108175,1,2
248,232,108313,1,4
168,240,108588,1,8
216,304,108863,1,4
136,312,109139,1,8
88,248,109414,1,4
120,176,109689,1,8
160,104,109964,1,4
192,80,110102,1,2
232,72,110239,5,4
272,80,110377,1,8
296,104,110515,2,0,B|368:168|328:272,1,160,4|4
288,320,111340,2,0,B|240:360|168:352|152:272,1,160,2|4
144,208,112166,5,4
144,208,112304,1,4
56,152,112579,1,4
56,152,112717,1,4
256,192,113267,5,8
256,112,113542,1,8
256,192,113817,1,8
256,272,114093,5,8
256,272,114230,1,8
256,272,114368,1,4
256,272,114506,1,2
256,272,114643,5,4
256,112,114918,1,4
336,248,115469,5,4
176,248,115744,1,8
112,192,116019,1,4
80,120,116295,1,8
80,120,116570,1,4
88,160,116707,1,8
112,192,116845,5,4
136,224,116983,1,4
176,248,117120,1,4
248,272,117395,2,0,B|296:296|344:256,1,80,8|4
384,216,117946,2,4,B|424:136|352:64,2,160,0|4|4
336,280,119322,6,0,B|272:352|168:328,1,160,2|8
120,304,120148,1,4
64,248,120423,1,4
56,168,120698,1,8
88,96,120973,1,4
88,96,121111,1,4
152,48,121386,1,4
152,48,121524,1,4
312,64,122074,5,4
368,120,122350,1,8
408,192,122625,1,4
424,272,122900,5,4
408,312,123038,1,2
376,328,123175,1,4
336,336,123313,1,4
296,320,123450,1,12
256,248,123726,5,0
256,128,124001,1,4
176,192,124276,5,8
144,264,124551,1,4
176,336,124827,1,8
256,352,125102,1,4
328,320,125377,1,8
360,296,125515,1,8
368,256,125652,1,12
336,216,125790,1,2
320,264,125928,5,6
232,280,126203,1,8
184,216,126478,1,2
184,136,126753,2,4,B|176:32|352:16|376:104,1,240
400,152,127854,1,8
432,224,128129,6,4,B|448:296|360:368|272:328|232:288,2,240
360,192,130056,1,8
416,136,130331,2,0,B|416:72|344:64|304:112,2,120,2|8|2
256,192,131707,5,8
136,192,131983,1,2
376,192,132533,1,2
256,192,132808,1,4
120,104,133359,6,0,B|168:72|216:80,1,80,8|2
272,80,133909,2,0,B|344:88|368:120,1,80,2|2
408,152,134460,2,4,B|464:208|432:280|368:288|352:296,1,160
312,312,135285,1,2
232,320,135561,2,4,B|136:336|96:272|112:240,1,160
112,168,136386,2,0,B|128:128|200:136,1,80,4|4
256,192,137212,12,2,140239
256,48,140515,5,8
192,96,140790,1,8
256,144,141065,1,8
320,192,141340,1,4
320,192,141478,1,0
320,192,141616,1,0
256,232,141891,1,4
192,272,142166,1,0
120,232,142441,1,4
120,232,142579,1,0
120,232,142717,5,0
72,160,142992,1,4
168,160,143267,1,2
168,160,143405,1,2
168,160,143542,1,6
216,224,143817,1,0
216,224,143955,1,0
216,224,144093,1,4
264,160,144368,1,0
216,224,144643,1,4
256,320,144918,6,4,B|320:304|328:264,1,80
360,208,145469,2,0,B|392:120|336:72|264:104,1,160,12|4
216,136,146295,1,8
176,208,146570,2,0,B|152:272|104:280|48:232|80:192,1,160,6|4
112,128,147395,1,8
168,72,147671,2,4,B|248:16|328:64,2,160
112,128,149047,1,8
96,160,149184,1,8
104,200,149322,1,4
160,256,149597,1,4
232,288,149873,6,0,B|296:304|360:288|376:240,1,160,10|2
400,168,150698,1,4
392,128,150836,1,8
360,104,150973,2,4,B|272:64|200:112,1,160
152,160,151799,1,2
128,192,151937,1,4
120,232,152074,5,0
136,264,152212,1,0
168,288,152350,1,4
232,336,152625,2,0,B|272:368|328:336,2,80
200,312,153313,1,0
168,288,153450,1,0
152,208,153726,1,2
160,168,153863,1,2
184,136,154001,1,4
280,72,154276,5,2
352,176,154551,1,2
208,176,154827,1,2
368,104,155102,1,2
192,104,155377,1,4
352,328,155928,5,4
256,200,156203,1,0
96,200,156478,1,6
256,200,156753,1,0
160,328,157028,1,4
256,200,157304,1,0
352,328,157579,1,6
408,248,157854,5,2
408,248,157992,1,2
408,248,158129,2,4,B|448:192|392:144,1,80
352,96,158680,2,4,B|296:24|184:56,2,160,4|4|4
408,192,160056,5,2
416,240,160194,1,2
392,280,160331,2,0,B|376:320|312:344,1,80,8|4
240,352,160882,2,4,B|144:368|104:272,2,160
344,336,162258,5,2
384,312,162395,1,2
344,288,162533,2,0,B|296:280|272:240,1,80,2|4
224,168,163084,2,4,B|192:96|88:80,1,160
97,81,163909,1,0
96,80,164184,6,4,B|145:151|97:239,1,160
72,320,165010,1,8
152,272,165285,1,8
232,320,165561,1,2
312,272,165836,1,4
256,88,166386,5,4
256,280,166937,1,8
328,216,167212,1,2
256,144,167487,1,4
184,216,167762,1,4
456,336,168588,6,0,B|408:344|360:288,1,80,0|4
424,224,169139,2,0,B|384:184|336:176,1,80,0|4
296,256,169689,1,2
358,181,169964,2,4,B|302:109|222:85,1,160,4|12
231,87,170790,2,4,B|279:181|215:237,1,160,4|12
88,80,171891,5,2
104,128,172028,1,2
136,160,172166,2,0,B|160:200|216:216,1,80,4|4
288,232,172717,1,2
384,208,172992,2,4,B|464:168|512:80,1,160
499,100,173817,1,4
256,192,173955,12,4,176570
104,80,185377,5,4
104,272,185928,1,8
320,272,186478,1,4
320,80,187028,1,8
320,272,187579,1,4
104,272,188129,1,8
104,80,188680,5,8
136,112,188817,1,8
176,144,188955,1,4
248,208,189230,1,8
280,240,189368,1,8
320,272,189506,1,4
408,272,189781,5,2
408,96,190331,1,8
200,96,190882,1,2
200,272,191432,1,8
40,192,191983,5,8
72,160,192120,1,8
104,192,192258,1,4
192,192,192533,1,8
192,192,192671,1,2
280,192,192946,1,2
280,192,193084,1,4
368,192,193359,2,2,B|408:176|448:192,1,80,2|8
296,288,194184,5,4
256,312,194322,1,8
216,288,194460,1,2
176,264,194597,1,4
64,184,195010,1,4
136,128,195285,2,0,B|200:88|256:136,1,120,2|2
312,184,195973,1,2
256,304,196386,5,4
224,272,196524,1,2
256,248,196661,1,4
296,224,196799,1,8
256,144,197074,1,8
256,144,197212,1,2
256,56,197487,1,4
256,56,197762,1,8
256,56,198038,1,4
256,56,198313,1,8
176,88,198588,5,4
136,112,198726,1,2
112,152,198863,1,4
136,192,199001,1,8
200,256,199276,1,8
312,328,199689,2,0,B|384:296|400:240,1,120,2|2
400,160,200377,1,8
272,192,200790,5,4
240,224,200928,1,2
200,240,201065,1,4
240,224,201203,1,8
296,152,201478,1,2
296,152,201616,1,8
200,240,202441,2,8,B|160:264|112:256,1,80
200,240,202992,5,4
240,232,203129,1,2
280,240,203267,1,4
312,264,203405,1,8
344,344,203680,1,8
240,232,204093,1,4
200,240,204230,1,2
168,264,204368,1,4
312,264,204643,1,2
312,264,204781,1,4
256,144,205194,5,2
256,144,205331,1,8
256,144,205469,1,4
184,192,205744,1,2
184,192,205882,1,4
328,192,206157,1,2
328,192,206295,1,4
256,280,206570,5,4
120,192,206845,1,2
256,40,207120,1,4
256,128,207395,6,0,B|224:128|200:192|152:192,1,120,2|2
64,192,208084,2,4,B|24:256|72:312,1,120
184,352,208909,2,4,B|224:376|288:360,1,80
256,232,209597,5,4
256,232,209735,1,4
256,232,209873,1,2
256,144,210148,1,4
256,144,210285,1,2
256,56,210561,1,4
256,56,210698,1,2
184,104,210973,1,2
184,184,211249,2,4,B|200:240|264:232,1,80
320,232,211799,1,4
256,96,219781,5,2
344,96,220056,1,2
432,96,220331,2,2,B|432:168|352:168|296:168,1,160
224,168,221157,1,0
136,168,221432,2,2,B|136:240|200:240|280:240,1,160
336,240,222327,5,0
424,240,222602,2,2,B|424:312|360:312|288:312,1,160
224,312,223428,1,0
128,312,223703,2,2,B|96:296|64:248|96:192|136:176,1,160
168,248,224597,5,0
256,248,224873,2,2,B|376:248|376:168,1,160
375,171,225698,1,2
375,171,225973,1,2
256,24,226524,5,2
192,80,226799,1,2
320,80,227074,1,4
192,80,227350,1,0
320,80,227625,1,2
256,256,228175,1,4
184,72,229207,6,2,B|256:16|336:72,1,160
360,136,230033,1,8
360,136,230308,1,4
40,136,231340,5,8
40,136,231478,1,8
40,136,231616,2,2,B|40:184|72:224,1,80
62,211,232166,1,8
62,211,232441,1,4
200,296,232992,5,2
256,352,233267,1,0
312,296,233542,1,2
256,240,233817,5,2
256,240,233954,1,2
256,240,234092,1,6
8,40,235193,5,8
88,40,235468,1,2
88,120,235743,1,8
168,120,236018,1,2
168,200,236294,1,8
248,200,236569,1,10
248,280,236844,1,12
328,280,237119,6,0,B|368:280,16,20,8|0|0|0|8|0|0|0|12|0|0|0|12|0|0|0|4
352,200,238495,5,4
312,200,238633,1,4
272,200,238771,1,2
224,136,239046,1,4
264,136,239183,1,4
304,136,239321,1,2
224,136,239596,5,2
272,200,239872,1,2
320,264,240147,1,4
280,264,240284,1,4
240,264,240422,1,4
184,200,240697,1,4
144,200,240835,1,4
104,200,240972,1,4
184,200,241248,1,10
184,200,241523,1,2
64,88,241798,6,4,B|112:40|168:64,1,80
134,56,242349,2,4,B|96:112|136:224,1,160
131,210,243037,1,8
131,210,243174,2,4,B|176:168|232:160,1,80
256,320,244000,5,4
288,296,244138,1,4
256,264,244275,1,2
256,184,244550,1,4
224,152,244688,1,4
256,128,244826,1,2
336,152,245101,1,4
256,288,245651,5,8
216,264,245789,1,2
184,232,245927,1,4
168,192,246064,1,2
184,152,246202,1,4
216,128,246339,1,8
256,112,246477,1,4
320,152,246752,5,4
320,232,247028,1,6
80,192,247853,5,2
160,104,248128,1,8
240,192,248404,1,2
320,104,248679,1,8
400,192,248954,1,8
400,304,249229,2,0,B|296:368|216:336,1,160,4|4
128,312,250055,1,4
80,272,250193,1,8
48,224,250330,1,8
80,176,250468,1,0
128,136,250605,1,4
168,224,250881,5,4
256,208,251156,5,8
256,208,251294,1,8
256,208,251431,1,4
256,88,251706,1,8
256,88,251844,1,8
256,88,251982,1,2
136,192,252257,1,4
376,192,252807,5,8
256,312,253083,1,4
256,192,253220,12,4,255835
