osu file format v6

[General]
AudioFilename: Higurashi_no_Naku_Koro_ni_Kai_-_Naraku_no_Hana.mp3
AudioLeadIn: 0
PreviewTime: 52188
Countdown: 0
SampleSet: Normal
StackLeniency: 0.7
Mode: 0
LetterboxInBreaks: 0
SkinPreference:Default

[Editor]
DistanceSpacing: 1
BeatDivisor: 4
GridSize: 8

[Metadata]
Title:Naraku no Hana
Artist:Shimamiya Eiko
Creator:Azure_Kyte
Version:Kuroi no Hana
Source:Higurashi no Naku Koro ni Kai
Tags:When they Cry Anime Game Flower Hell Cicadas

[Difficulty]
HPDrainRate:5
CircleSize:5
OverallDifficulty:5
SliderMultiplier:1.4
SliderTickRate:1

[Events]
//Background and Video events
0,0,"rika-y-hanyuu.jpg"
//Break Periods
2,88708,96115
//Storyboard Layer 0 (Background)
Sprite,Background,Centre,"sb\bg2.png",320,240 F,0,105012,106113,0,1 F,0,106113,106388,1 F,0,106388,108039,1 F,0,108039,,1 F,0,176580,,1 F,0,176580,177130,1,0
Sprite,Background,Centre,"sb\black.png",320,240 F,0,-2,9286,1 F,0,9286,9355,1,0.9334397 F,0,9355,9424,0.9334397,1 F,0,9424,11763,1 F,0,11763,11832,1,0.9420798 F,0,11832,11901,0.9420798,1 F,0,11901,12245,1 F,0,12245,12314,1,0.9523199 F,0,12314,12382,0.9523199,1 F,0,12382,14516,1 F,0,14516,16167,1,0.9539198 F,0,16167,16236,0.9539198,1 F,0,16236,18093,1 F,0,18093,25800,1,0.4863999 F,0,25800,26075,0.4863999,1 F,0,26075,26901,1,0.9890909 F,0,26901,34607,0.9890909,0.4403201 F,0,34607,34882,0.4403201,1 F,0,34882,36259,1 F,0,36259,43415,1,0.4506752 F,0,43415,43690,0.4506752,1 F,0,43690,45066,1 F,0,45066,50571,1,0 F,0,50571,51953,0,1 F,0,51953,52503,1 F,0,52503,88362,1 F,0,88500,89188,0,1 F,0,89188,91802,1 F,0,91802,92077,1,0 F,0,92077,92353,0,1 F,0,92353,92628,1,0 F,0,92628,92903,0,1 F,0,92903,96205,1 F,0,96205,96756,1,0 F,0,96756,97306,0,1 F,0,97306,100609,1 F,0,100609,100884,1,0 F,0,100884,101159,0,1 F,0,101159,101434,1,0 F,0,101434,101710,0,1 F,0,101710,102260,1,0.04363638 F,0,102260,102535,0.04363638,1 F,0,102535,103911,1 F,0,103911,105012,1,0 F,0,105012,106113,0,0.5990402 F,0,106113,,0.8140801 F,0,106113,106663,0.5990402,1 F,0,106663,106938,1 F,0,106938,112718,1,0.5471031 F,0,112718,113819,0.5471031,1 F,0,89599,114919,1 F,0,114919,121524,1,0.6057599 F,0,121524,122625,0.6057599,1 F,0,113819,123726,1 F,0,122625,123726,1 F,0,123726,123863,1,0.7644801 F,0,123863,124001,0.7644801,1 F,0,124001,124139,1,0.7952 F,0,124139,124414,0.7952,1 F,0,124414,131156,1,0.4879999 F,0,131156,131707,0.4879999,1 F,0,131707,132532,1 F,0,132532,132670,1,0.67744 F,0,132670,132808,0.67744,1 F,0,132808,132945,1,0.52384 F,0,132945,133220,0.52384,0.9829333 F,0,133220,139137,0.9829333,0.1893333 F,0,139137,139688,0.1893333,1 F,0,27407,176580,0.9530569,1
Sprite,Background,Centre,"sb\white.png",320,240 F,0,88518,,1 F,0,88518,89069,1,0 F,0,176580,178231,1,0
//Storyboard Layer 1 (Fail)
//Storyboard Layer 2 (Pass)
//Storyboard Layer 3 (Foreground)
Sprite,Foreground,Centre,"sb\kei1top.png",320,240 M,0,9355,,318,82 F,0,9355,9424,0,1 M,0,9424,,322,86 M,0,9493,,319,86 M,0,9561,,315,85 M,0,9630,,317,82 M,0,9699,,322,86 M,0,9768,,320,86 M,0,9837,,318,87 M,0,9905,,320,84 M,0,9974,,316,87 M,0,10043,,318,84 M,0,10112,,311,86 M,0,10181,,314,82 M,0,10249,,316,84 F,0,9424,10318,1,0 M,0,10318,,312,80 F,0,10318,10387,0,1 M,0,10387,,306,84 F,0,10387,10456,1,0 M,0,10456,,308,82 F,0,10456,15892,0 F,0,15892,15960,0,1 F,0,15960,16029,1,0 F,0,16029,16098,0,0.1337115 M,0,16098,,309,84 F,0,16098,16167,0.1337115,1 M,0,16167,,311,84 F,0,16167,16236,1,0 M,0,16236,,313,86 M,0,16305,,315,84 M,0,16373,,311,86 M,0,16442,,314,89 M,0,16511,,318,86 M,0,16580,,320,91 F,0,16236,16649,0 M,0,16649,,318,91 F,0,16649,16717,0,0.9913786 M,0,16717,,315,92 F,0,16717,16786,0.9913786,0 M,0,16786,,320,90 M,0,16855,,323,93 M,0,16924,,317,89 M,0,16993,,313,91 M,0,17061,,317,91 M,0,17130,,319,89 M,0,17199,,313,91 M,0,17268,,316,86 M,0,17337,,318,92 M,0,17405,,314,90 M,0,17474,,310,93 M,0,17543,,312,89 M,0,17612,,314,91 M,0,17681,,310,93 M,0,17749,,313,89 F,0,16786,17818,0,1 M,0,17818,,315,90 F,0,17818,17887,1,0 M,0,17887,,313,88
Sprite,Foreground,Centre,"sb\kei1mid.png",320,240 M,0,7566,,320,240 F,0,7566,7635,0,1 M,0,7635,,317,237 M,0,7704,,313,240 M,0,7772,,315,237 F,0,7635,7841,1,0 M,0,7841,,317,241 F,0,7841,9355,0 F,0,9286,9355,0,1 M,0,9355,,317,239 F,0,9355,9424,0,1 F,0,9355,9424,0,1 M,0,9424,,315,242 F,0,9424,,1 M,0,9493,,318,240 M,0,9561,,319,244 M,0,9630,,315,245 M,0,9699,,317,243 M,0,9768,,313,246 M,0,9837,,316,244 M,0,9905,,312,246 M,0,9974,,316,245 M,0,10043,,319,249 M,0,10112,,325,246 M,0,10181,,320,248 M,0,10249,,323,246 M,0,10318,,320,247 M,0,10387,,316,247 F,0,9424,10456,1,0 M,0,10456,,320,251 F,0,10456,,0 F,0,9424,10525,0.64672,0 F,0,10525,16029,0 F,0,16029,16098,0,1 M,0,16167,,318,249 M,0,16236,,320,250 F,0,16098,16305,1,0.08352005 M,0,16305,,318,251 M,0,16373,,322,245 M,0,16442,,320,247 M,0,16511,,323,249 M,0,16580,,319,251 M,0,16649,,316,246 M,0,16717,,314,247 M,0,16786,,316,250 M,0,16855,,314,250 M,0,16924,,315,250 M,0,16993,,316,248 F,0,16305,17061,0.08352005,1 M,0,17061,,314,251 M,0,17130,,315,253 M,0,17199,,315,251 F,0,17061,17268,1,0 M,0,17268,,316,248
Sprite,Foreground,Centre,"sb\kei1mid.png",320,240 F,0,16098,16167,0,1 F,0,16167,16236,1,0 F,0,16236,17337,0 M,0,17337,,317,238 F,0,17337,17405,0,1 M,0,17405,,315,238 M,0,17474,,316,238 M,0,17543,,318,238 M,0,17612,,316,238 F,0,17405,17681,1,0 M,0,17681,,318,238 F,0,17681,17749,0,1 M,0,17749,,317,238 M,0,17818,,318,238 M,0,17887,,316,236 F,0,17749,17956,1 M,0,17956,,317,237 M,0,18025,,315,238 F,0,17956,18093,1,0 M,0,18093,,316,238
Sprite,Foreground,Centre,"sb\shi1btm.png",320,240 M,0,26282,,296,399 F,0,26282,26350,0,1 M,0,26350,,317,400 M,0,26419,,329,401 M,0,26488,,292,363 M,0,26488,,324,396 M,0,26488,26557,292,381,302,396 M,0,26557,,314,400 M,0,26557,,317,372 F,0,26350,26626,1,0.0714306 M,0,26626,,314,398 M,0,26769,,314,385 F,0,26626,26832,0.0714306,0 F,0,26832,26907,0,1 F,0,26907,27182,1,0
Sprite,Foreground,Centre,"sb\shi1mid.png",320,240 F,0,26282,26350,0,1 M,0,26282,26419,317,239,324,245 F,0,26350,26557,1,0 M,0,26419,26557,324,245,318,239 F,0,26557,26626,0,0.896 M,0,26557,26694,318,239,316,239 F,0,26626,26694,0.896,0 F,0,26694,26832,0 F,0,26832,26901,0,1 F,0,26901,27182,1,0
Sprite,Foreground,Centre,"sb\kei1btm.png",320,240 M,0,16167,,317,381 F,0,16167,16236,0,1 M,0,16236,,322,386 F,0,16236,16305,1,0 M,0,16305,,320,386 M,0,16373,,323,380 M,0,16442,,322,380 M,0,16511,,324,382 M,0,16580,,328,376 M,0,16649,,322,379 M,0,16717,,325,383 F,0,16305,16786,0 M,0,16786,,321,385 F,0,16786,16855,0,1 M,0,16855,,324,383 F,0,16855,16924,1,0 M,0,16924,,326,385 M,0,16993,,321,388 M,0,17061,,324,388 M,0,17130,,326,386 F,0,16924,17199,0 M,0,17199,,324,390 F,0,17199,17268,0,0.8405797 M,0,17268,,326,388 M,0,17337,,322,390 M,0,17405,,323,391 M,0,17474,,327,391 M,0,17543,,327,393 M,0,17612,,328,390 M,0,17681,,325,391 M,0,17749,,327,389 M,0,17818,,325,391 M,0,17887,,328,389 M,0,17956,,331,391 F,0,17268,18025,0.8405797 M,0,18025,,325,393 F,0,18025,18093,0.8405797,0 M,0,18093,,327,391
Sprite,Foreground,Centre,"sb\shi1top.png",320,240 M,0,26282,,317,80 F,0,26282,26350,0,1 M,0,26350,,317,82 M,0,26419,,321,80 M,0,26488,,314,82 M,0,26557,,316,80 F,0,26350,26626,1,0 M,0,26626,,322,85 F,0,26626,26832,0 F,0,26832,26901,0,1 F,0,26901,27182,1,0
Sprite,Foreground,Centre,"sb\rena1top.png",320,240 M,0,35089,,319,67 F,0,35089,35158,0.1142401,1 M,0,35158,,314,74 M,0,35227,,318,74 M,0,35295,,314,75 M,0,35364,,315,73 M,0,35433,,314,75 F,0,35158,35502,1,0 M,0,35502,,315,76 F,0,35502,35571,0,0.896 M,0,35571,,313,77 M,0,35639,,312,78 F,0,35571,35783,0.896,0.02635297 F,0,35571,35783,0.896,0.7688446 F,0,35783,35989,0.02635297,0.7688446 F,0,35989,36265,0.7688446,0
Sprite,Foreground,Centre,"sb\rena1mid.png",320,240 M,0,35089,,320,240 F,0,35089,35158,0,1 M,0,35158,,314,240 M,0,35227,,314,238 M,0,35295,,316,240 M,0,35364,,313,241 M,0,35433,,315,243 F,0,35158,35502,1,0 M,0,35502,,314,243 F,0,35502,35571,0,1 M,0,35571,,315,243 M,0,35639,,314,243 F,0,35571,35783,1,0 F,0,35783,35989,0,0.9984001 F,0,35989,36265,0.9984001,0
Sprite,Foreground,Centre,"sb\rena1btm.png",320,240 M,0,35089,,320,394 F,0,35089,35158,0,1 M,0,35158,,317,391 M,0,35227,,320,391 M,0,35295,,321,389 M,0,35364,,321,393 M,0,35433,,322,391 F,0,35158,35502,1,0 M,0,35502,,323,391 F,0,35502,35571,0,1 M,0,35571,,321,391 M,0,35639,,316,393 F,0,35571,35783,1,0 F,0,35783,35989,0,1 F,0,35989,36265,1,0
Sprite,Foreground,Centre,"sb\satoko1btm.png",320,240 M,0,43902,,329,349 F,0,43902,43971,0,1 M,0,43971,,321,369 M,0,44040,,318,371 M,0,44109,,321,369 M,0,44177,,321,371 F,0,43971,44246,1,0 M,0,44246,,315,369 M,0,44315,,317,370 M,0,44384,,312,365 F,0,44246,44453,0 M,0,44453,,314,381 F,0,44453,44522,0,1 F,0,44522,44659,1,0 F,0,44659,44797,0,1 F,0,44797,45072,1,0
Sprite,Foreground,Centre,"sb\satoko1mid.png",320,240 M,0,43902,,320,245 F,0,43902,43971,0,1 M,0,43971,,322,245 M,0,44040,,321,246 M,0,44109,,315,244 M,0,44177,,317,245 F,0,43971,44246,1,0 M,0,44246,,317,250 F,0,44246,44453,0 F,0,44453,44522,0,1 F,0,44522,44659,1,0.0323201 F,0,44659,44797,0.0323201,1 F,0,44797,45072,1,0
Sprite,Foreground,Centre,"sb\satoko1top.png",320,240 M,0,43902,,370,78 M,0,43902,,310,115 M,0,43965,,330,90 F,0,43902,43971,0,1 M,0,44033,,326,90 M,0,44102,,334,95 M,0,44102,,334,95 M,0,44102,,334,95 M,0,44177,,321,88 M,0,44240,,319,94 F,0,43971,44246,1,0 F,0,44246,44453,0 F,0,44453,44522,0,1 F,0,44522,44659,1,0 F,0,44659,44793,0,1 F,0,44659,44797,0,0.91136 F,0,44793,44797,1,0 F,0,44797,45072,0.91136,0
Sprite,Foreground,Centre,"sb\choruspic1.jpg",320,240 F,1,52496,54147,0,0.7290727 F,0,54147,54422,0.7290727,0 F,0,59101,59376,0.01188112,1 F,0,59376,59651,1,0
Sprite,Foreground,Centre,"sb\choruspic2.jpg",320,240 F,1,54698,56349,0,1 F,0,56349,56624,1,0 F,0,59651,59927,0,1 F,0,59927,60202,1,0
Sprite,Foreground,Centre,"sb\choruspic3.jpg",320,240 F,1,56899,58551,0,1 F,0,58551,58826,1,0 F,0,60202,60477,0,0.896 F,0,60477,60752,0.896,0
Sprite,Foreground,Centre,"sb\choruspic4.jpg",320,240 F,0,60752,61027,0,1 F,0,61027,61303,1,0
Sprite,Foreground,Centre,"sb\choruspic5.jpg",320,240 F,1,61853,63779,0,1 F,0,63779,66256,1 F,0,66256,67632,1,0
Sprite,Foreground,Centre,"sb\choruspic6.jpg",320,240 F,0,67901,68177,0,1 F,0,68177,68452,1,0 F,0,69002,69277,0,1 F,0,69277,69553,1,0
Sprite,Foreground,Centre,"sb\choruspic7.jpg",320,240 F,0,68452,68727,0,1 F,0,68727,69002,1,0
Sprite,Foreground,Centre,"sb\choruspic8.jpg",320,240 F,0,69553,69828,0,1 F,0,69828,70103,1,0
Sprite,Foreground,Centre,"sb\choruspic9.jpg",320,240 F,1,70103,71988,0,0.999525 F,0,71988,72813,0.999525,0 F,0,72813,,0
Sprite,Foreground,Centre,"sb\choruspic10.jpg",320,240 M,0,74506,,320,240 F,1,74506,76158,0,1 F,0,76158,76433,1 F,0,76433,76708,1,0.84128 F,0,76708,76983,0.84128,1 F,0,76983,77258,1,0.67232 F,0,77258,77534,0.67232,1 F,0,77534,77809,1,0.478873 F,0,77809,78084,0.478873,1 F,0,78084,78359,1,0
Sprite,Foreground,Centre,"sb\choruspic11.jpg",320,240 F,0,78359,78634,0,1 F,0,78634,78910,1,0 F,0,78910,79185,0,1 F,0,79185,79460,1,0 F,0,79460,79735,0,1 F,0,79735,80010,1,0
Sprite,Foreground,Centre,"sb\rikaleft.jpg",320,240 F,0,80261,81913,0,1 F,0,81913,88518,1
Sprite,Foreground,Centre,"sb\choruspic12.jpg",320,240 F,0,72263,72813,0,1 F,0,74189,74464,1,0
Sprite,Foreground,Centre,"sb\finalepic.jpg",320,240 F,0,168584,171336,0,1 F,0,171336,173813,1 F,0,173813,176565,1,0
Sprite,Foreground,Centre,"sb\lyrics\romaji1.png",320,240 F,0,18325,18600,0,1 M,0,18646,,440,83 F,0,24970,25245,1,0
Sprite,Foreground,Centre,"sb\lyrics\romaji2.png",320,240 F,0,27171,27446,0,1 F,0,27446,,1 M,0,28095,,427,84 F,0,33782,34057,1,0
Sprite,Foreground,Centre,"sb\lyrics\romaji3.png",320,240 F,0,35978,36259,0,1 M,0,36259,,453,87 F,0,36259,,1 F,0,43414,43689,1,0
Sprite,Foreground,Centre,"sb\lyrics\romaji4.png",320,240 S,0,45060,,0.97952 F,0,45060,45341,0,1 M,0,45341,,392,88 F,0,45341,,1 F,0,48643,48918,1,0
Sprite,Foreground,Centre,"sb\lyrics\romaji5.png",320,240 M,0,52215,,432,89 F,0,52215,52490,0,1 F,0,52490,56618,1 F,0,56618,56893,1,0
Sprite,Foreground,Centre,"sb\lyrics\romaji6.png",320,240 M,0,56893,,418,87 F,0,56893,57168,0,1 F,0,61572,61847,1,0
Sprite,Foreground,Centre,"sb\lyrics\romaji7.png",320,240 M,0,62086,,440,87 F,0,61847,62122,0,1 F,0,66525,67626,1,0
Sprite,Foreground,Centre,"sb\lyrics\romaji8.png",320,240 S,0,67901,,1 F,0,67901,68177,0,1 M,0,68416,,377,87 F,0,69828,70103,1,0
Sprite,Foreground,Centre,"sb\lyrics\romaji9.png",320,240 M,0,70068,,399,85 F,0,69828,70103,0,1 F,0,70103,,1 F,0,70103,,1 F,0,71994,72270,1,0 F,0,72270,72545,0,1 F,0,72545,74231,1 F,0,74231,,1 F,0,74231,74506,1,0
Sprite,Foreground,Centre,"sb\lyrics\romajiten.png",320,240 F,0,74231,74506,0,1 M,0,74800,,414,84 F,0,79735,80286,1,0
Sprite,Foreground,Centre,"sb\lyrics\romaji11.png",320,240 M,0,80527,,451,83 F,0,80286,80561,0,1 F,0,80561,,1 F,0,85756,88508,1,0
Sprite,Foreground,Centre,"sb\lyrics\english1.png",320,240 S,0,18325,,0.9180801 F,0,18325,18600,0,1 M,0,18600,,436,108 F,0,24930,25205,0.9418182,0
Sprite,Foreground,Centre,"sb\lyrics\english2.png",320,240 S,0,27132,,0.93856 F,0,27132,27407,0,1 M,0,27407,,440,105 F,0,33738,34013,1,0
Sprite,Foreground,Centre,"sb\lyrics\english3.png",320,240 F,0,35939,36215,0,1 M,0,36259,,449,110 F,0,43371,43646,1,0
Sprite,Foreground,Centre,"sb\lyrics\english4.png",320,240 S,0,45022,,0.95904 F,0,45022,45297,0,1 M,0,45341,,443,115 F,0,48600,48875,0.9490909,0
Sprite,Foreground,Centre,"sb\lyrics\english5.png",320,240 F,0,52178,52453,0,1 M,0,53835,,452,113 F,0,56582,56857,0.9963636,0
Sprite,Foreground,Centre,"sb\lyrics\english6.png",320,240 S,0,56857,,0.97952 F,0,56857,57132,0,1 M,0,57545,,448,110 F,0,61536,61811,0.9381818,0
Sprite,Foreground,Centre,"sb\lyrics\english7.png",320,240 F,0,61811,62086,0,1 M,0,62086,,444,110 S,0,62086,,0.95904 F,0,62086,66490,1 F,0,66490,67866,1,0
Sprite,Foreground,Centre,"sb\lyrics\english8.png",320,240 S,0,67866,,0.9692799 F,0,67866,68141,0,1 M,0,68141,,446,113 F,0,68141,69793,1 F,0,69793,70068,1,0
Sprite,Foreground,Centre,"sb\lyrics\english9.png",320,240 M,0,69793,,458,113 S,0,69793,,0.95904 F,0,69793,70068,0,1 F,0,71994,72270,1,0 F,0,72270,72545,0,1 F,0,72545,74196,1 F,0,74196,74471,1,0
Sprite,Foreground,Centre,"sb\lyrics\englishten.png",320,240 M,0,74196,,456,112 S,0,74196,,0.97952 F,0,74196,74471,0,1 F,0,79701,80251,1,0
Sprite,Foreground,Centre,"sb\lyrics\english11.png",320,240 M,0,80251,,473,110 S,0,80251,,0.9488 F,0,80251,80527,0,1 F,0,80527,85756,1 F,0,85756,88508,1,0
Sprite,Foreground,Centre,"sb\bg2.png",320,240 F,0,106113,106250,0,0.3088 S,0,106113,106388,1,1.1024 F,0,106250,106388,0.13984,0 F,0,106250,106388,0.3088,0
Sprite,Foreground,Centre,"sb\rena2top.png",320,240 M,0,114369,,318,87 F,0,114369,114438,0,1 M,0,114438,,315,90 M,0,114507,,316,88 M,0,114575,,321,93 M,0,114644,,323,88 M,0,114713,,316,90 M,0,114782,,318,86 F,0,114438,114851,1,0 M,0,114851,,318,85 M,0,114851,,318,85 F,0,114851,114919,0,0.8784209 F,0,114919,115195,0.8784209,0
Sprite,Foreground,Centre,"sb\rena2mid.png",320,240 M,0,114369,,320,240 F,0,114369,114438,0,1 M,0,114438,,315,243 M,0,114507,,319,243 M,0,114575,,316,244 M,0,114644,,321,245 M,0,114713,,324,238 M,0,114782,,322,241 F,0,114438,114851,1,0 M,0,114851,,321,238 F,0,114851,114919,0,1 F,0,114919,115195,1,0
Sprite,Foreground,Centre,"sb\rena2btm.png",320,240 M,0,114369,,316,384 F,0,114369,114438,0,1 M,0,114438,,320,382 M,0,114507,,315,384 M,0,114575,,320,387 M,0,114644,,325,381 M,0,114713,,318,386 M,0,114782,,320,382 F,0,114438,114851,1,0 M,0,114851,,320,383 F,0,114851,114919,0,1 F,0,114919,115195,1,0
Sprite,Foreground,Centre,"sb\hanyuu1top.png",320,240 M,0,123175,,317,85 F,0,123175,123244,0,0.83968 M,0,123244,,321,85 M,0,123313,,316,90 M,0,123382,,318,88 M,0,123451,,320,92 M,0,123519,,318,89 M,0,123588,,317,91 F,0,123244,123657,0.83968,0 M,0,123657,,319,91
Sprite,Foreground,Centre,"sb\hanyuu1mid.png",320,240 M,0,123175,,316,250 F,0,123175,123244,0,1 M,0,123244,,313,250 M,0,123313,,309,251 M,0,123382,,311,252 M,0,123451,,314,256 M,0,123519,,314,252 M,0,123588,,311,253 F,0,123244,123657,1,0
Sprite,Foreground,Centre,"sb\hanyuu1btm.png",320,240 M,0,123175,,320,397 F,0,123175,123244,0,1 M,0,123244,,322,393 M,0,123313,,313,399 M,0,123382,,316,397 M,0,123451,,311,397 M,0,123519,,315,397 M,0,123588,,317,399 F,0,123244,123657,1,0
Sprite,Foreground,Centre,"sb\shi2top.png",320,240 M,0,131982,,318,100 F,0,131982,132051,0,1 M,0,132051,,314,105 M,0,132120,,316,103 M,0,132188,,318,101 M,0,132257,,321,103 M,0,132326,,323,101 M,0,132395,,326,102 F,0,132051,132464,1,0 M,0,132464,,324,102 F,0,132464,,0
Sprite,Foreground,Centre,"sb\shi2mid.png",320,240 M,0,131982,,317,256 F,0,131982,132051,0,1 M,0,132051,,311,259 M,0,132120,,314,255 M,0,132188,,318,255 M,0,132257,,320,257 M,0,132326,,315,258 M,0,132395,,316,260 F,0,132051,132464,1,0 M,0,132464,,318,258
Sprite,Foreground,Centre,"sb\shi2btm.png",320,240 M,0,131982,,315,385 F,0,131982,132051,0.11424,1 M,0,132051,,317,385 M,0,132120,,317,383 M,0,132188,,312,380 M,0,132257,,316,380 M,0,132326,,314,383 M,0,132395,,318,384 F,0,132051,132464,1,0 M,0,132464,,321,385
Sprite,Foreground,Centre,"sb\choruspic13.jpg",320,240 F,0,140513,142440,0,1 F,0,142440,142715,1,0
Sprite,Foreground,Centre,"sb\choruspic14.jpg",320,240 F,0,149870,151246,0,1 F,0,151246,154274,1 F,0,154274,155650,1,0
Sprite,Foreground,Centre,"sb\choruspic15.jpg",320,240 M,0,144917,,320,240 F,0,144917,145742,0,1 F,0,145742,146568,1 F,0,146568,146843,1,0 F,0,146843,,0 F,0,148219,148769,0,1 F,0,148769,149320,1,0
Sprite,Foreground,Centre,"sb\choruspic16.jpg",320,240 F,0,146568,147118,0,1 F,0,147118,147393,1,0 F,0,147393,147669,0 F,0,147669,148219,0,1 F,0,148219,148769,1,0
Sprite,Foreground,Centre,"sb\choruspic17.jpg",320,240 F,0,147118,147669,0,1 F,0,147669,147944,1,0 F,0,147944,,0
Sprite,Foreground,Centre,"sb\choruspic18.jpg",320,240 F,0,148769,149320,0,1 F,0,149320,149595,1,0.9709619 F,0,149595,150145,0.9709619,0
Sprite,Foreground,Centre,"sb\choruspic13.jpg",320,240 R,0,142715,,3.15392 F,0,142715,144641,0,1 F,0,144641,144917,1,0.01695991
Sprite,Foreground,Centre,"sb\choruspic19.jpg",320,240 M,0,155925,,320,240 F,0,155925,156200,0,1 F,0,156200,156475,1,0
Sprite,Foreground,Centre,"sb\choruspictwenty.jpg",320,240 F,0,156475,156750,0,1 F,0,156750,157026,1,0
Sprite,Foreground,Centre,"sb\choruspictwenty.jpg",320,240 S,0,157026,,1.3584 F,0,157026,157038,0 F,0,157038,157301,0,1 F,0,157301,157576,1,0
Sprite,Foreground,Centre,"sb\choruspic18.jpg",320,240 F,0,157576,157851,0,1 F,0,157851,158126,1,0 F,0,158126,,0
Sprite,Foreground,Centre,"sb\choruspic21.jpg",320,240 F,0,158126,160053,0,1 F,0,160053,160328,1,0
Sprite,Foreground,Centre,"sb\choruspic22.jpg",320,240 M,0,160328,,320,240 F,0,160328,162254,0,1 F,0,162254,162530,1,0
Sprite,Foreground,Centre,"sb\choruspic23.jpg",320,240 F,0,162530,166383,0,1 F,0,166383,167759,1 F,0,167759,168309,1,0
Sprite,Foreground,Centre,"sb\choruspic23.jpg",320,240 F,0,166383,166658,1,0 S,0,166383,166658,1,1.0512 F,0,166933,167208,1,0 S,0,166933,167208,1,1.0512
Sprite,Foreground,Centre,"sb\photo1.png",320,240 F,0,88498,89049,0,1 S,0,88498,89049,0.6020923,0.5611323 M,0,89049,,226,189 R,0,89049,,-0.1228796 F,0,91250,91388,1,0 F,0,91388,,0
Sprite,Foreground,Centre,"sb\photo2.png",320,240 M,0,89049,,408,200 R,0,89049,,0.2047998 F,0,89049,89599,0,1 S,0,89049,89599,0.6415999,0.5596797 F,0,91388,,0.7495463 F,0,91388,91526,0.7495463,0 F,0,91526,,0.5017599
Sprite,Foreground,Centre,"sb\photo3.png",320,240 M,0,89599,,229,312 F,0,89599,90150,0,1 S,0,89599,90150,0.6723201,0.5699202 R,0,90150,,0.06144043 F,0,91526,91663,1,0 F,0,91526,91663,1,0
Sprite,Foreground,Centre,"sb\photo4.png",320,240 M,0,90307,,427,312 R,0,90307,,-0.2047998 F,0,90150,90700,0,1 S,0,90150,90700,0.6723197,0.5596796 F,0,91663,91801,0.7982938,0
Sprite,Foreground,Centre,"sb\phototen.png",320,240 M,0,90700,,276,208 R,0,90700,,0.1638403 F,0,90700,91250,0.6979201,1 S,0,90700,91250,0.7132805,0.6211205 F,0,91250,,1 F,0,91250,,1 F,0,92351,,1 S,0,92351,,0.5705908,4.646111 F,0,92351,92626,1,0 S,0,92351,92626,0.5705908,4.441311 F,0,92626,92988,0
Sprite,Foreground,Centre,"sb\photo5.png",320,240 F,0,91250,91801,0,1 S,0,91250,91801,0.7542398,0.6620798 R,0,91801,,-0.2662402 F,0,91801,92076,1,0 S,0,91801,92076,0.6620798,4.328
Sprite,Foreground,Centre,"sb\photo6.png",320,240 M,0,92922,,425,315 F,0,92922,93472,0,1 S,0,92922,93472,0.5187199,0.46752 R,0,93472,,-0.1228803 F,0,95674,95812,1,0
Sprite,Foreground,Centre,"sb\photo7.png",320,240 M,0,93472,,248,290 R,0,93472,,-2.703361 F,0,93472,94023,0,1 S,0,93472,94023,0.6006398,0.5084797 F,0,95812,95949,1,0
Sprite,Foreground,Centre,"sb\photo8.png",320,240 F,0,94023,94573,0,1 S,0,94023,94573,0.6518399,0.5392 R,0,94573,,-0.9420807 F,0,95949,96087,1,0
Sprite,Foreground,Centre,"sb\photo9.png",320,240 M,0,94573,,249,205 R,0,94573,,0.3071997 F,0,94573,95124,0,1 S,0,94573,95124,0.6416004,0.5494403 F,0,95124,,1 S,0,95124,,0.5494403 F,0,96225,,0.6658596 S,0,96225,,0.8060602 F,0,96225,96500,0.6658596,0 S,0,96225,96500,0.8060602,1.31744
Sprite,Foreground,Centre,"sb\lyrics\romaji12.png",320,240 M,0,106662,,431,88 S,0,106672,,0.90784 F,0,106672,106947,0,1 F,0,112727,113277,1,0
Sprite,Foreground,Centre,"sb\lyrics\romaji13.png",320,240 M,0,115469,,451,88 S,0,115479,,0.9488 F,0,115479,115754,0,1 F,0,121534,122084,1,0
Sprite,Foreground,Centre,"sb\lyrics\romaji14.png",320,240 M,0,124286,,451,93 S,0,124286,,0.9590399 F,0,124286,124561,0,1 F,0,131167,131717,1,0
Sprite,Foreground,Centre,"sb\lyrics\romaji15.png",320,240 M,0,133369,,376,93 S,0,133369,,0.9488 F,0,133369,133644,0,1 F,0,133644,137222,1 F,0,137222,140249,1,0
Sprite,Foreground,Centre,"sb\lyrics\romaji16.png",320,240 M,0,140525,,444,95 S,0,140525,,0.91808 F,0,140525,140800,0,0.8963225 F,0,140800,144653,0.8963225,1 F,0,144653,144928,1,0
Sprite,Foreground,Centre,"sb\lyrics\romaji17.png",320,240 M,0,144928,,449,94 S,0,144928,,0.9487999 F,0,144928,145204,0,1 F,0,145204,149057,1 F,0,149057,149607,1,0
Sprite,Foreground,Centre,"sb\lyrics\romaji7.png",320,240 M,0,149883,,438,96 S,0,149883,,0.97952 F,0,149883,150158,0,1 F,0,150158,154837,1 F,0,154837,155662,1,0
Sprite,Foreground,Centre,"sb\lyrics\romaji8.png",320,240 M,0,155938,,377,92 F,0,155938,156213,0,1 F,0,156213,157589,1 F,0,157589,158139,1,0
Sprite,Foreground,Centre,"sb\lyrics\romaji18.png",320,240 S,0,158139,,0.9488 F,0,158139,158415,0,1 M,0,158791,,447,93 F,0,160056,160331,1,0 F,0,160331,160606,0,1 F,0,161993,162543,1,0
Sprite,Foreground,Centre,"sb\lyrics\romaji19.png",320,240 M,0,162543,,452,96 S,0,162543,,0.95904 F,0,162543,162818,0,1 F,0,162818,167222,1 F,0,167222,168323,1,0
Sprite,Foreground,Centre,"sb\lyrics\romajitwenty.png",320,240 M,0,168598,,450,94 F,0,168598,168873,0,1 F,0,168873,173817,1 F,0,171503,176570,1,0 F,0,173817,176570,1,0
Sprite,Foreground,Centre,"sb\lyrics\english12.png",320,240 M,0,106673,,474,117 S,0,106673,,0.9488 F,0,106673,106937,0,1 F,0,112717,113267,0.9886364,0
Sprite,Foreground,Centre,"sb\lyrics\english13.png",320,240 M,0,115469,,472,113 S,0,115469,,0.9385599 F,0,115469,115744,0,1 F,0,121524,122074,0.9490909,0
Sprite,Foreground,Centre,"sb\lyrics\english14.png",320,240 M,0,124276,,464,118 S,0,124276,,0.8873601 F,0,124276,124551,0,1 F,0,131157,131707,0.96,0
Sprite,Foreground,Centre,"sb\lyrics\english15.png",320,240 M,0,133359,,470,120 S,0,133359,,0.91808 F,0,133359,133634,0,1 F,0,137487,140239,0.9345455,0
Sprite,Foreground,Centre,"sb\lyrics\english16.png",320,240 M,0,140515,,463,118 S,0,140515,,0.8771201 F,0,140515,140790,0,1 F,0,144643,144918,1,0
Sprite,Foreground,Centre,"sb\lyrics\english17.png",320,240 M,0,144918,,463,118 S,0,144918,,0.8771199 F,0,144918,145194,0,1 F,0,149047,149597,1,0
Sprite,Foreground,Centre,"sb\lyrics\english7.png",320,240 M,0,149872,,438,118 S,0,149872,,0.90784 F,0,149872,150148,0,1 F,0,154827,155652,0.9311594,0
Sprite,Foreground,Centre,"sb\lyrics\english8.png",320,240 M,0,155928,,434,114 S,0,155928,,0.8873601 F,0,155928,156203,0,1 F,0,157579,158129,1,0
Sprite,Foreground,Centre,"sb\lyrics\english18.png",320,240 M,0,158129,,462,115 S,0,158129,,0.87712 F,0,158129,158405,0,1 F,0,160056,160331,0.9311594,0 F,0,160331,160606,0,1 F,0,160606,161983,1,0.9563636 F,0,161983,162533,0.9563636,0
Sprite,Foreground,Centre,"sb\lyrics\english19.png",320,240 M,0,162533,,461,116 S,0,162533,,0.8668802 F,0,162533,162808,0,1 F,0,167212,168313,1,0
Sprite,Foreground,Centre,"sb\lyrics\englishtwenty.png",320,240 S,0,168588,,0.9385599 F,0,168588,168863,0,1 M,0,168965,,469,120 F,0,173817,176570,1,0
Sprite,Foreground,Centre,"sb\flower4.png",320,240 S,0,88518,,0.5903998 F,0,88518,89894,0,1 M,0,89894,,320,157 F,0,89894,90445,1,0.38912 R,0,88518,91821,-10.15808,-13.16864 F,0,90445,91821,0.38912,0
Sprite,Foreground,Centre,"sb\Artist_Title.png",320,240 F,0,88518,89069,0,0.51872 F,0,89069,90170,0.51872,0.53408 M,0,88518,90720,348,117,278,117 F,0,90170,90720,0.53408,0
Sprite,Foreground,Centre,"sb\Song_Title.png",320,240 F,0,89619,90170,0,0.55456 F,0,90170,90720,0.55456,0.68256 M,0,89619,91270,363,168,277,167 F,0,90720,91270,0.68256,0
Sprite,Foreground,Centre,"sb\Beatmapby1.png",320,240 F,0,90720,91270,0,0.5376 F,0,91270,91821,0.5376,0 F,0,91821,,0 M,0,90720,92371,349,218,276,217
Sprite,Foreground,Centre,"sb\Artist_Title.png",320,240 F,0,88518,88793,1 M,0,88518,89746,316,118 F,0,88793,90445,1 F,0,90445,90720,1,0
Sprite,Foreground,Centre,"sb\Song_Title.png",320,240 M,0,89619,,323,173 F,0,89619,89894,0,1 F,0,89894,91271,1 F,0,91271,91821,1,0 F,0,91821,,0
Sprite,Foreground,Centre,"sb\Beatmapby1.png",320,240 M,0,90720,,320,224 F,0,90720,91270,0,1 S,0,91821,92096,1,1.07168 F,0,91821,92371,1,0 S,0,92096,92371,1.07168,1 F,0,92371,,1 S,0,92371,,1
//Storyboard Sound Samples
//Background Colour Transformations
3,100,163,162,255

[TimingPoints]
18050,550.458219429411,4,1,1,40,1,0
21775,-100,4,2,1,41,0,0
22050,-100,4,1,1,40,0,0
23977,-100,4,1,2,30,0,0
24252,-100,4,1,1,60,0,0
26729,-100,4,2,1,40,0,0
27004,-100,4,1,1,40,0,0
40491,-100,4,1,1,0,0,0
40766,-100,4,1,1,40,0,0
44344,-100,4,2,1,39,0,0
44619,-100,4,1,1,40,0,0
52050,-100,4,1,1,0,0,0
52326,-100,4,1,1,51,0,0
53289,-100,4,1,2,65,0,1
56729,-100,4,1,2,60,0,1
57280,-100,4,1,2,100,0,1
60582,-100,4,2,1,70,0,1
60858,-100,4,1,2,100,0,1
61683,-100,4,1,2,69,0,1
88381,-100,4,2,2,100,0,0
97188,-100,4,1,1,100,0,0
97738,-100,4,2,0,80,0,0
98014,-100,4,1,1,100,0,0
98839,-100,4,2,0,80,0,0
99114,-100,4,1,1,100,0,0
102142,-100,4,2,0,80,0,0
102417,-100,4,1,1,100,0,0
103243,-100,4,2,0,80,0,0
103518,-100,4,1,1,100,0,0
106662,550.458219429411,4,1,1,60,1,0
114240,-100,4,1,2,52,0,0
114516,-100,4,1,1,100,0,0
114791,-100,4,2,1,53,0,0
115066,-100,4,1,1,60,0,0
127176,-100,4,1,1,0,0,0
127451,-100,4,1,1,70,0,0
128552,-100,4,1,1,0,0,0
128827,-100,4,1,1,70,0,0
140112,-100,4,1,1,0,0,0
140387,-100,4,1,1,31,0,0
141350,-100,4,1,2,65,0,1
155800,-100,4,2,0,100,0,1
156075,-100,4,1,2,100,0,1
156350,-100,4,2,0,100,0,1
156626,-100,4,1,2,100,0,1
156901,-100,4,2,0,100,0,1
157176,-100,4,1,2,100,0,1
157451,-100,4,2,0,100,0,1
157726,-100,4,1,2,100,0,1
176442,-100,4,1,2,100,0,0
176580,-100,4,2,0,100,0,1
176717,-100,4,1,2,100,0,0

[Colours]
Combo1 : 235,235,235
Combo2 : 213,170,255
Combo3 : 0,0,187
Combo4 : 223,0,112
Combo5 : 221,0,0

[HitObjects]
136,88,18050,1,2
200,112,18325,1,8
256,152,18600,2,0,B|288:168|304:216,1,70,2|4
320,344,19426,1,4
320,344,19701,1,4
296,280,19976,5,8
240,232,20251,1,4
176,208,20527,1,8
112,184,20802,2,0,B|80:168|72:128,1,70,2|4
64,32,21627,5,4
64,32,21903,1,4
64,32,22178,5,2
64,32,22453,2,4,B|88:96|184:120,1,140,4|2
168,48,23279,2,0,B|272:64|312:128,1,140,4|4
296,176,24105,1,2
40,192,26031,5,2
88,240,26306,1,8
152,264,26582,1,2
224,272,26857,1,4
392,192,27407,5,4
336,144,27683,1,4
72,56,28783,6,0,B|24:88|40:136,1,70,2|2
48,184,29334,2,0,B|72:216|120:224,1,70,2|8
176,224,29884,1,4
464,80,31260,6,0,B|496:152|432:208,1,140,4|2
384,152,32086,2,8,B|336:208|360:288,1,140,4|2
408,336,32912,1,4
80,136,34838,5,8
144,112,35114,1,2
216,112,35389,1,8
264,160,35664,1,4
352,264,36215,5,2
400,312,36490,1,4
200,120,37591,5,8
144,80,37866,1,4
72,80,38141,1,8
16,128,38416,1,4
72,80,38692,1,12
352,80,39793,5,2
416,96,40068,2,4,B|520:168|480:256|400:280,1,210
224,264,41719,1,2
104,192,42270,1,4
176,112,42683,1,8
176,112,43095,1,4
432,112,43921,5,2
288,112,44471,1,6
288,112,44747,1,4
80,112,45297,5,8
88,184,45572,1,4
128,240,45848,1,2
192,272,46123,1,4
264,272,46398,1,4
464,96,48049,5,4
400,64,48325,1,4
328,64,48600,1,4
256,192,49150,12,0,52178
96,192,52453,5,2
144,144,52728,1,8
192,192,53004,1,2
240,240,53279,1,6
288,288,53554,1,0
336,240,53829,1,6
288,192,54105,1,0
232,144,54380,1,6
184,96,54655,5,0
136,144,54930,1,6
88,192,55205,1,10
136,240,55481,1,14
184,288,55756,1,0
240,248,56031,1,6
296,208,56306,1,0
352,168,56582,1,10
400,112,56857,6,4,B|376:72|336:56,1,70
280,40,57407,2,0,B|208:24|136:40,1,140,6|2
72,72,58233,2,0,B|24:104|32:160,1,70,8|6
88,256,59059,6,4,B|144:312|248:296,1,140,4|6
352,288,60160,2,4,B|440:272|488:192,1,140,6|6
192,192,61811,5,6
256,64,62361,1,8
256,64,62637,1,8
256,64,62912,1,6
256,320,64013,6,8,B|256:360,2,35,6|0|6
256,248,64563,1,12
256,176,64838,1,6
256,104,65114,1,6
112,104,65664,6,8,B|72:144|72:176,1,70
80,232,66215,2,0,B|80:304|184:344,1,140,6|0
232,352,67040,1,0
296,336,67316,1,6
392,248,67866,6,4,B|440:184|384:104,1,140,6|4
280,32,68967,1,4
208,16,69242,1,6
136,32,69517,1,6
128,168,70068,5,6
184,208,70343,1,8
240,168,70618,2,0,B|312:136|408:176,2,140,4|6|6
112,232,72270,6,0,B|72:256|80:304,1,70,4|0
144,304,72820,2,0,B|217:286|257:190,1,140,2|6
272,72,73921,1,2
128,72,74471,5,0
80,120,74747,1,0
128,168,75022,1,6
256,120,75572,5,6
312,80,75848,1,0
368,120,76123,1,6
312,248,76673,5,6
360,296,76949,1,0
312,344,77224,1,6
264,296,77499,1,6
216,248,77774,1,6
72,256,78325,6,0,B|16:184|80:104,1,140,2|0
112,72,79150,1,6
176,40,79426,1,0
248,40,79701,1,6
440,128,80527,5,0
472,192,80802,1,6
464,264,81077,1,0
408,312,81352,1,6
336,328,81627,1,0
264,336,81903,2,0,B|184:344|120:288,1,140,4|6
80,248,82728,2,0,B|32:192|64:112,1,140,2|2
176,192,83829,5,2
176,192,84104,1,6
336,192,84655,1,8
336,192,84930,1,6
256,88,85481,1,14
256,88,85756,1,6
256,192,85893,12,4,88508
120,96,97315,5,4
256,192,97866,1,8
392,96,98416,1,4
256,192,98967,1,8
120,280,99517,5,8
192,280,99793,1,2
192,280,99930,1,8
264,280,100205,1,2
264,280,100343,1,8
336,280,100618,6,4,B|376:248|320:208,1,70
265,219,101169,2,4,B|233:187|273:155,1,70
336,160,101719,5,4
472,192,102270,1,8
336,224,102820,1,4
472,256,103371,1,8
336,288,103921,6,0,B|280:288|280:232|200:208,1,140
80,216,105022,2,0,B|136:216|136:168|216:136,1,140
320,88,106123,5,4
192,144,106662,1,2
192,144,106937,1,4
464,192,108038,5,2
408,232,108313,1,4
344,256,108588,1,8
280,232,108863,1,4
224,192,109139,1,4
472,72,110239,5,8
416,112,110515,2,4,B|416:168|320:168|312:224,1,140
280,264,111340,2,4,B|280:336|192:336|200:232,1,140
176,200,112166,2,4,B|136:168|144:112|104:64,3,140
224,80,114093,5,4
224,80,114368,1,4
312,200,114918,5,6
256,328,115469,5,2
256,328,115744,1,4
184,328,116019,1,2
184,256,116295,1,4
112,256,116570,1,4
112,184,116845,5,8
112,184,116983,1,4
112,184,117120,1,4
160,128,117395,1,2
200,184,117671,1,8
256,216,117946,1,6
496,80,119047,5,2
440,120,119322,2,4,B|368:168|408:248,1,140
464,208,120148,2,4,B|488:272|440:328|368:312|376:304,1,140
344,352,120973,2,4,B|312:304|344:232|424:240,1,140
256,192,122074,5,4
184,192,122350,1,2
256,192,122625,1,4
328,192,122900,1,4
256,120,123175,1,6
256,264,123726,1,4
136,192,124276,5,2
136,192,124551,1,4
416,192,125652,5,4
360,144,125928,1,4
360,240,126203,1,2
304,192,126478,1,4
232,192,126753,2,4,B|200:248|232:328|232:328|192:248|112:240,1,280,4|2
120,168,128129,6,4,B|144:168|168:192|168:192|168:152|208:104|280:80,1,210
392,248,129781,1,2
392,248,130056,1,4
344,296,130331,1,4
272,224,130744,1,6
200,296,131157,1,4
256,96,131983,5,2
256,232,132533,1,4
256,232,132808,1,4
128,168,133359,5,4
184,128,133634,1,2
192,192,133909,1,4
200,256,134184,1,10
256,216,134460,1,4
144,64,136111,5,4
256,64,136386,1,4
368,64,136661,1,4
256,192,137212,12,0,140239
256,104,140515,5,4
192,128,140790,1,4
144,176,141065,1,4
104,232,141340,1,6
144,288,141616,1,0
192,336,141891,1,6
256,360,142166,1,0
256,288,142441,1,6
256,360,142717,5,0
320,336,142992,1,4
368,288,143267,1,12
408,232,143542,1,14
368,176,143817,1,0
320,128,144093,1,6
256,104,144368,1,0
256,176,144643,1,6
256,176,144918,5,0
256,248,145194,1,6
256,320,145469,1,6
256,320,146019,5,2
256,248,146294,1,4
256,176,146570,2,4,B|280:216|352:216|376:168,1,140,6|6
312,136,147395,1,0
372,99,147671,2,0,B|350:55|278:55|254:95,1,140,6|6
224,152,148496,1,4
176,200,148772,2,0,B|162:220|106:251|58:226|32:176|63:124,1,210,6|6
120,160,149872,6,0,B|152:120|216:112|248:176|240:192,1,140,8|6
256,240,150698,1,0
303,288,150973,2,0,B|304:307|224:339|184:291|168:243|200:195,1,210,6|6
264,192,152074,5,8
264,192,152212,1,6
264,192,152350,1,6
320,232,152625,1,0
376,192,152900,1,6
320,152,153175,1,6
184,192,153726,5,6
136,144,154001,1,8
88,192,154276,1,6
40,240,154551,1,6
40,240,154827,1,4
160,304,155377,1,6
208,176,155928,6,0,B|152:208|120:192,1,70,6|0
112,256,156478,2,0,B|56:216|88:176,1,70,6|0
96,136,157028,2,0,B|136:144|160:112,1,70,6|0
169,52,157579,2,0,B|173:47|205:54|229:78|245:110|217:148|205:158,1,140,6|0
270,186,158405,5,0
208,152,158680,2,0,B|195:168|184:216|221:250|245:258|285:250,1,140,6|0
265,254,159505,1,0
272,184,159781,2,0,B|284:167|296:120|259:86|235:78|195:86,1,140,6|6
208,152,160606,5,0
144,128,160882,2,0,B|133:146|127:195|167:225|192:230|231:218,1,140,6|0
209,222,161707,1,0
208,152,161983,2,0,B|227:144|252:149|292:179|286:228|275:246,1,140,6|6
208,224,162808,5,0
208,296,163083,2,0,B|190:304|165:299|125:269|131:220|141:204,1,140,6|4
140,204,163909,1,0
140,204,164184,1,14
256,72,164735,5,8
320,120,165010,1,6
256,168,165285,1,8
320,216,165561,1,6
256,264,165836,1,6
88,240,166386,2,4,B|24:168|96:96,1,140
160,88,167212,5,2
224,184,167487,1,2
160,272,167762,1,6
232,72,168588,5,10
296,104,168863,1,6
352,152,169139,1,10
416,184,169414,1,6
416,256,169689,1,12
352,288,169964,2,4,B|296:288|272:352|208:344,1,140,6|6
224,272,170790,1,12
224,128,171340,1,6
112,192,171891,5,12
184,192,172166,1,6
256,192,172441,1,12
328,192,172716,1,6
400,192,172992,1,6
256,192,173542,1,6
256,192,173817,1,6
256,192,173955,12,4,176570
