osu file format v6

[General]
AudioFilename: Higurashi_no_Naku_Koro_ni_Kai_-_Naraku_no_Hana.mp3
AudioLeadIn: 0
PreviewTime: 52326
Countdown: 0
SampleSet: Soft
StackLeniency: 0.2
Mode: 0
LetterboxInBreaks: 0
SkinPreference:Default

[Editor]
Bookmarks: 41715,42265,42678,43091,48045,49146,50246,52173,76666,78317,79693,87949
DistanceSpacing: 1
BeatDivisor: 4
GridSize: 8

[Metadata]
Title:Naraku no Hana
Artist:Shimamiya Eiko
Creator:Azure_Kyte
Version:Akai no Hana
Source:Higurashi no Naku Koro ni Kai
Tags:When they Cry Anime Game Flower Hell Cicadas alvisto

[Difficulty]
HPDrainRate:5
CircleSize:4
OverallDifficulty:5
SliderMultiplier:1.2
SliderTickRate:1

[Events]
//Background and Video events
0,0,"rika-y-hanyuu.jpg"
//Break Periods
//Storyboard Layer 0 (Background)
Sprite,Background,Centre,"sb\black.png",320,240 F,0,-2,9286,1 F,0,9286,9355,1,0.9334397 F,0,9355,9424,0.9334397,1 F,0,9424,11763,1 F,0,11763,11832,1,0.9420798 F,0,11832,11901,0.9420798,1 F,0,11901,12245,1 F,0,12245,12314,1,0.9523199 F,0,12314,12382,0.9523199,1 F,0,12382,14516,1 F,0,14516,16167,1,0.9539198 F,0,16167,16236,0.9539198,1 F,0,16236,18093,1 F,0,18093,25800,1,0.4863999 F,0,25800,26075,0.4863999,1 F,0,26075,26901,1,0.9890909 F,0,26901,34607,0.9890909,0.4403201 F,0,34607,34882,0.4403201,1 F,0,34882,36259,1 F,0,36259,43415,1,0.4506752 F,0,43415,43690,0.4506752,1 F,0,43690,45066,1 F,0,45066,50571,1,0 F,0,50571,51953,0,1 F,0,51953,52222,1,0 F,0,52222,52503,0,1 F,0,52503,88483,1 F,0,88483,88552,1,0 F,0,88552,88633,0,1 F,0,88633,88725,1,0
Sprite,Background,Centre,"sb\white.png",320,240 M,0,88518,,320,240 F,0,88518,89344,1,0
//Storyboard Layer 1 (Fail)
//Storyboard Layer 2 (Pass)
//Storyboard Layer 3 (Foreground)
Sprite,Foreground,Centre,"sb\kei1top.png",320,240 M,0,9355,,318,82 F,0,9355,9424,0,1 M,0,9424,,322,86 M,0,9493,,319,86 M,0,9561,,315,85 M,0,9630,,317,82 M,0,9699,,322,86 M,0,9768,,320,86 M,0,9837,,318,87 M,0,9905,,320,84 M,0,9974,,316,87 M,0,10043,,318,84 M,0,10112,,311,86 M,0,10181,,314,82 M,0,10249,,316,84 F,0,9424,10318,1,0 M,0,10318,,312,80 F,0,10318,10387,0,1 M,0,10387,,306,84 F,0,10387,10456,1,0 M,0,10456,,308,82 F,0,10456,15892,0 F,0,15892,15960,0,1 F,0,15960,16029,1,0 F,0,16029,16098,0,0.1337115 M,0,16098,,309,84 F,0,16098,16167,0.1337115,1 M,0,16167,,311,84 F,0,16167,16236,1,0 M,0,16236,,313,86 M,0,16305,,315,84 M,0,16373,,311,86 M,0,16442,,314,89 M,0,16511,,318,86 M,0,16580,,320,91 F,0,16236,16649,0 M,0,16649,,318,91 F,0,16649,16717,0,0.9913786 M,0,16717,,315,92 F,0,16717,16786,0.9913786,0 M,0,16786,,320,90 M,0,16855,,323,93 M,0,16924,,317,89 M,0,16993,,313,91 M,0,17061,,317,91 M,0,17130,,319,89 M,0,17199,,313,91 M,0,17268,,316,86 M,0,17337,,318,92 M,0,17405,,314,90 M,0,17474,,310,93 M,0,17543,,312,89 M,0,17612,,314,91 M,0,17681,,310,93 M,0,17749,,313,89 F,0,16786,17818,0,1 M,0,17818,,315,90 F,0,17818,17887,1,0 M,0,17887,,313,88
Sprite,Foreground,Centre,"sb\kei1mid.png",320,240 M,0,7566,,320,240 F,0,7566,7635,0,1 M,0,7635,,317,237 M,0,7704,,313,240 M,0,7772,,315,237 F,0,7635,7841,1,0 M,0,7841,,317,241 F,0,7841,9355,0 F,0,9286,9355,0,1 M,0,9355,,317,239 F,0,9355,9424,0,1 F,0,9355,9424,0,1 M,0,9424,,315,242 F,0,9424,,1 M,0,9493,,318,240 M,0,9561,,319,244 M,0,9630,,315,245 M,0,9699,,317,243 M,0,9768,,313,246 M,0,9837,,316,244 M,0,9905,,312,246 M,0,9974,,316,245 M,0,10043,,319,249 M,0,10112,,325,246 M,0,10181,,320,248 M,0,10249,,323,246 M,0,10318,,320,247 M,0,10387,,316,247 F,0,9424,10456,1,0 M,0,10456,,320,251 F,0,10456,,0 F,0,9424,10525,0.64672,0 F,0,10525,16029,0 F,0,16029,16098,0,1 M,0,16167,,318,249 M,0,16236,,320,250 F,0,16098,16305,1,0.08352005 M,0,16305,,318,251 M,0,16373,,322,245 M,0,16442,,320,247 M,0,16511,,323,249 M,0,16580,,319,251 M,0,16649,,316,246 M,0,16717,,314,247 M,0,16786,,316,250 M,0,16855,,314,250 M,0,16924,,315,250 M,0,16993,,316,248 F,0,16305,17061,0.08352005,1 M,0,17061,,314,251 M,0,17130,,315,253 M,0,17199,,315,251 F,0,17061,17268,1,0 M,0,17268,,316,248
Sprite,Foreground,Centre,"sb\kei1mid.png",320,240 F,0,16098,16167,0,1 F,0,16167,16236,1,0 F,0,16236,17337,0 M,0,17337,,317,238 F,0,17337,17405,0,1 M,0,17405,,315,238 M,0,17474,,316,238 M,0,17543,,318,238 M,0,17612,,316,238 F,0,17405,17681,1,0 M,0,17681,,318,238 F,0,17681,17749,0,1 M,0,17749,,317,238 M,0,17818,,318,238 M,0,17887,,316,236 F,0,17749,17956,1 M,0,17956,,317,237 M,0,18025,,315,238 F,0,17956,18093,1,0 M,0,18093,,316,238
Sprite,Foreground,Centre,"sb\shi1btm.png",320,240 M,0,26282,,296,399 F,0,26282,26350,0,1 M,0,26350,,317,400 M,0,26419,,329,401 M,0,26488,,292,363 M,0,26488,,324,396 M,0,26488,26557,292,381,302,396 M,0,26557,,314,400 M,0,26557,,317,372 F,0,26350,26626,1,0.0714306 M,0,26626,,314,398 M,0,26769,,314,385 F,0,26626,26832,0.0714306,0 F,0,26832,26907,0,1 F,0,26907,27182,1,0
Sprite,Foreground,Centre,"sb\shi1mid.png",320,240 F,0,26282,26350,0,1 M,0,26282,26419,317,239,324,245 F,0,26350,26557,1,0 M,0,26419,26557,324,245,318,239 F,0,26557,26626,0,0.896 M,0,26557,26694,318,239,316,239 F,0,26626,26694,0.896,0 F,0,26694,26832,0 F,0,26832,26901,0,1 F,0,26901,27182,1,0
Sprite,Foreground,Centre,"sb\kei1btm.png",320,240 M,0,16167,,317,381 F,0,16167,16236,0,1 M,0,16236,,322,386 F,0,16236,16305,1,0 M,0,16305,,320,386 M,0,16373,,323,380 M,0,16442,,322,380 M,0,16511,,324,382 M,0,16580,,328,376 M,0,16649,,322,379 M,0,16717,,325,383 F,0,16305,16786,0 M,0,16786,,321,385 F,0,16786,16855,0,1 M,0,16855,,324,383 F,0,16855,16924,1,0 M,0,16924,,326,385 M,0,16993,,321,388 M,0,17061,,324,388 M,0,17130,,326,386 F,0,16924,17199,0 M,0,17199,,324,390 F,0,17199,17268,0,0.8405797 M,0,17268,,326,388 M,0,17337,,322,390 M,0,17405,,323,391 M,0,17474,,327,391 M,0,17543,,327,393 M,0,17612,,328,390 M,0,17681,,325,391 M,0,17749,,327,389 M,0,17818,,325,391 M,0,17887,,328,389 M,0,17956,,331,391 F,0,17268,18025,0.8405797 M,0,18025,,325,393 F,0,18025,18093,0.8405797,0 M,0,18093,,327,391
Sprite,Foreground,Centre,"sb\shi1top.png",320,240 M,0,26282,,317,80 F,0,26282,26350,0,1 M,0,26350,,317,82 M,0,26419,,321,80 M,0,26488,,314,82 M,0,26557,,316,80 F,0,26350,26626,1,0 M,0,26626,,322,85 F,0,26626,26832,0 F,0,26832,26901,0,1 F,0,26901,27182,1,0
Sprite,Foreground,Centre,"sb\rena1top.png",320,240 M,0,35089,,319,67 F,0,35089,35158,0.1142401,1 M,0,35158,,314,74 M,0,35227,,318,74 M,0,35295,,314,75 M,0,35364,,315,73 M,0,35433,,314,75 F,0,35158,35502,1,0 M,0,35502,,315,76 F,0,35502,35571,0,0.896 M,0,35571,,313,77 M,0,35639,,312,78 F,0,35571,35783,0.896,0.02635297 F,0,35571,35783,0.896,0.7688446 F,0,35783,35989,0.02635297,0.7688446 F,0,35989,36265,0.7688446,0
Sprite,Foreground,Centre,"sb\rena1mid.png",320,240 M,0,35089,,320,240 F,0,35089,35158,0,1 M,0,35158,,314,240 M,0,35227,,314,238 M,0,35295,,316,240 M,0,35364,,313,241 M,0,35433,,315,243 F,0,35158,35502,1,0 M,0,35502,,314,243 F,0,35502,35571,0,1 M,0,35571,,315,243 M,0,35639,,314,243 F,0,35571,35783,1,0 F,0,35783,35989,0,0.9984001 F,0,35989,36265,0.9984001,0
Sprite,Foreground,Centre,"sb\rena1btm.png",320,240 M,0,35089,,320,394 F,0,35089,35158,0,1 M,0,35158,,317,391 M,0,35227,,320,391 M,0,35295,,321,389 M,0,35364,,321,393 M,0,35433,,322,391 F,0,35158,35502,1,0 M,0,35502,,323,391 F,0,35502,35571,0,1 M,0,35571,,321,391 M,0,35639,,316,393 F,0,35571,35783,1,0 F,0,35783,35989,0,1 F,0,35989,36265,1,0
Sprite,Foreground,Centre,"sb\satoko1btm.png",320,240 M,0,43902,,329,349 F,0,43902,43971,0,1 M,0,43971,,321,369 M,0,44040,,318,371 M,0,44109,,321,369 M,0,44177,,321,371 F,0,43971,44246,1,0 M,0,44246,,315,369 M,0,44315,,317,370 M,0,44384,,312,365 F,0,44246,44453,0 M,0,44453,,314,381 F,0,44453,44522,0,1 F,0,44522,44659,1,0 F,0,44659,44797,0,1 F,0,44797,45072,1,0
Sprite,Foreground,Centre,"sb\satoko1mid.png",320,240 M,0,43902,,320,245 F,0,43902,43971,0,1 M,0,43971,,322,245 M,0,44040,,321,246 M,0,44109,,315,244 M,0,44177,,317,245 F,0,43971,44246,1,0 M,0,44246,,317,250 F,0,44246,44453,0 F,0,44453,44522,0,1 F,0,44522,44659,1,0.0323201 F,0,44659,44797,0.0323201,1 F,0,44797,45072,1,0
Sprite,Foreground,Centre,"sb\satoko1top.png",320,240 M,0,43902,,370,78 M,0,43902,,310,115 M,0,43965,,330,90 F,0,43902,43971,0,1 M,0,44033,,326,90 M,0,44102,,334,95 M,0,44102,,334,95 M,0,44102,,334,95 M,0,44177,,321,88 M,0,44240,,319,94 F,0,43971,44246,1,0 F,0,44246,44453,0 F,0,44453,44522,0,1 F,0,44522,44659,1,0 F,0,44659,44793,0,1 F,0,44659,44797,0,0.91136 F,0,44793,44797,1,0 F,0,44797,45072,0.91136,0
Sprite,Foreground,Centre,"sb\choruspic1.jpg",320,240 F,1,52496,54147,0,0.7290727 F,0,54147,54422,0.7290727,0 F,0,59101,59376,0.01188112,1 F,0,59376,59651,1,0
Sprite,Foreground,Centre,"sb\choruspic2.jpg",320,240 F,1,54698,56349,0,1 F,0,56349,56624,1,0 F,0,59651,59927,0,1 F,0,59927,60202,1,0
Sprite,Foreground,Centre,"sb\choruspic3.jpg",320,240 F,1,56899,58551,0,1 F,0,58551,58826,1,0 F,0,60202,60477,0,0.896 F,0,60477,60752,0.896,0
Sprite,Foreground,Centre,"sb\choruspic4.jpg",320,240 F,0,60752,61027,0,1 F,0,61027,61303,1,0
Sprite,Foreground,Centre,"sb\choruspic5.jpg",320,240 F,1,61853,63779,0,1 F,0,63779,66256,1 F,0,66256,67632,1,0
Sprite,Foreground,Centre,"sb\choruspic6.jpg",320,240 F,0,67901,68177,0,1 M,0,68416,,320,240 F,0,68177,68452,1,0 F,0,69002,69277,0,1 F,0,69277,69553,1,0
Sprite,Foreground,Centre,"sb\choruspic7.jpg",320,240 F,0,68452,68727,0,1 F,0,68727,69002,1,0
Sprite,Foreground,Centre,"sb\choruspic8.jpg",320,240 F,0,69553,69828,0,1 F,0,69828,70103,1,0
Sprite,Foreground,Centre,"sb\choruspic9.jpg",320,240 F,1,70103,71988,0,0.999525 F,0,71988,73956,0.999525,0.2953455
Sprite,Foreground,Centre,"sb\choruspic10.jpg",320,240 M,0,74506,,320,240 F,1,74506,76158,0,1 F,0,76158,76433,1 F,0,76433,76708,1,0.84128 F,0,76708,76983,0.84128,1 F,0,76983,77258,1,0.67232 F,0,77258,77534,0.67232,1 F,0,77534,77809,1,0.478873 F,0,77809,78084,0.478873,1 F,0,78084,78359,1,0
Sprite,Foreground,Centre,"sb\choruspic11.jpg",320,240 F,0,78359,78634,0,1 F,0,78634,78910,1,0 F,0,78910,79185,0,1 F,0,79185,79460,1,0 F,0,79460,79735,0,1 F,0,79735,80010,1,0
Sprite,Foreground,Centre,"sb\choruspic12.jpg",320,240 F,0,72263,72813,0,1 F,0,74189,74464,1,0
Sprite,Foreground,Centre,"sb\finalepic.jpg",320,240 F,1,80286,83313,0,1 F,1,83313,86157,1
Sprite,Foreground,Centre,"sb\lyrics\romaji1.png",320,240 F,0,18325,18600,0,1 M,0,18646,,440,83 F,0,24970,25245,1,0
Sprite,Foreground,Centre,"sb\lyrics\romaji2.png",320,240 F,0,27171,27446,0,1 F,0,27446,,1 M,0,28095,,427,84 F,0,33782,34057,1,0
Sprite,Foreground,Centre,"sb\lyrics\romaji3.png",320,240 F,0,35978,36259,0,1 M,0,36259,,453,87 F,0,36259,,1 F,0,43414,43689,1,0
Sprite,Foreground,Centre,"sb\lyrics\romaji4.png",320,240 S,0,45060,,0.97952 F,0,45060,45341,0,1 M,0,45341,,392,88 F,0,45341,,1 F,0,48643,48918,1,0
Sprite,Foreground,Centre,"sb\lyrics\romaji5.png",320,240 M,0,52215,,432,89 F,0,52215,52490,0,1 F,0,52490,56618,1 F,0,56618,56893,1,0
Sprite,Foreground,Centre,"sb\lyrics\romaji6.png",320,240 M,0,56893,,418,87 F,0,56893,57168,0,1 F,0,61572,61847,1,0
Sprite,Foreground,Centre,"sb\lyrics\romaji7.png",320,240 M,0,62086,,440,87 F,0,61847,62122,0,1 F,0,66525,67626,1,0
Sprite,Foreground,Centre,"sb\lyrics\romaji8.png",320,240 S,0,67901,,1 F,0,67901,68177,0,1 M,0,68416,,377,87 F,0,69828,70103,1,0
Sprite,Foreground,Centre,"sb\lyrics\romaji9.png",320,240 M,0,70068,,399,85 F,0,69828,70103,0,1 F,0,70103,,1 F,0,70103,,1 F,0,71994,72270,1,0 F,0,72270,72545,0,1 F,0,72545,74231,1 F,0,74231,,1 F,0,74231,74506,1,0
Sprite,Foreground,Centre,"sb\lyrics\romajiten.png",320,240 F,0,74231,74506,0,1 M,0,74800,,414,84 F,0,79735,80286,1,0
Sprite,Foreground,Centre,"sb\lyrics\romaji11.png",320,240 M,0,80527,,451,83 F,0,80286,80561,0,1 F,0,80561,,1 F,0,85756,88508,1,0
Sprite,Foreground,Centre,"sb\lyrics\english1.png",320,240 S,0,18325,,0.9180801 F,0,18325,18600,0,1 M,0,18600,,436,108 F,0,24930,25205,0.9418182,0
Sprite,Foreground,Centre,"sb\lyrics\english2.png",320,240 S,0,27132,,0.93856 F,0,27132,27407,0,1 M,0,27407,,440,105 F,0,33738,34013,1,0
Sprite,Foreground,Centre,"sb\lyrics\english3.png",320,240 F,0,35939,36215,0,1 M,0,36259,,449,110 F,0,43371,43646,1,0
Sprite,Foreground,Centre,"sb\lyrics\english4.png",320,240 S,0,45022,,0.95904 F,0,45022,45297,0,1 M,0,45341,,443,115 F,0,48600,48875,0.9490909,0
Sprite,Foreground,Centre,"sb\lyrics\english5.png",320,240 F,0,52178,52453,0,1 M,0,53835,,452,113 F,0,56582,56857,0.9963636,0
Sprite,Foreground,Centre,"sb\lyrics\english6.png",320,240 S,0,56857,,0.97952 F,0,56857,57132,0,1 M,0,57545,,448,110 F,0,61536,61811,0.9381818,0
Sprite,Foreground,Centre,"sb\lyrics\english7.png",320,240 F,0,61811,62086,0,1 M,0,62086,,444,110 S,0,62086,,0.95904 F,0,62086,66490,1 F,0,66490,67866,1,0
Sprite,Foreground,Centre,"sb\lyrics\english8.png",320,240 S,0,67866,,0.9692799 F,0,67866,68141,0,1 M,0,68141,,446,113 F,0,68141,69793,1 F,0,69793,70068,1,0
Sprite,Foreground,Centre,"sb\lyrics\english9.png",320,240 M,0,69793,,458,113 S,0,69793,,0.95904 F,0,69793,70068,0,1 F,0,71994,72270,1,0 F,0,72270,72545,0,1 F,0,72545,74196,1 F,0,74196,74471,1,0
Sprite,Foreground,Centre,"sb\lyrics\englishten.png",320,240 M,0,74196,,456,112 S,0,74196,,0.97952 F,0,74196,74471,0,1 F,0,79701,80251,1,0
Sprite,Foreground,Centre,"sb\lyrics\english11.png",320,240 M,0,80251,,473,110 S,0,80251,,0.9488 F,0,80251,80527,0,1 F,0,80527,85756,1 F,0,85756,88508,1,0
Sprite,Foreground,Centre,"sb\Song_Title.png",320,240 F,0,2647,3197,0,0.54272 F,0,3197,4298,0.54272 M,0,2647,4849,358,172,280,172 F,0,4298,4849,0.54272,0
Sprite,Foreground,Centre,"sb\Artist_Title.png",320,240 F,0,1271,1821,0,0.55296 F,0,1821,2371,0.55296,0.5632 M,0,1271,2921,341,116,300,114 M,0,2921,,300,114 F,0,2371,2922,0.5632,0
Sprite,Foreground,Centre,"sb\Beatmapby2.png",320,240 F,0,4298,4849,0,0.45728 F,0,4849,5399,0.45728,0.6006399 M,0,4298,5949,348,220,293,219 F,0,5399,5949,0.6006399,0
Sprite,Foreground,Centre,"sb\flower2.png",320,240 S,0,1271,,0.5904001 F,0,1271,2647,0,0.4198399 M,0,2647,,316,161 F,0,2647,3748,0.4198399 R,0,1271,5399,0,3.42016 F,0,3748,5399,0.4198399,0
Sprite,Foreground,Centre,"sb\Artist_Title.png",320,240 F,0,1271,1546,0,1 M,0,1683,,317,121 F,0,1546,2922,1 F,0,2922,3197,1,0.07328007
Sprite,Foreground,Centre,"sb\Song_Title.png",320,240 M,0,2647,,305,174 F,0,2647,3748,0,1 F,0,3748,4298,1 F,0,4298,5399,1,0
Sprite,Foreground,Centre,"sb\Beatmapby2.png",320,240 M,0,4298,,320,225 F,0,4298,4573,0,1 F,0,5674,5949,1,0
//Storyboard Sound Samples
//Background Colour Transformations
3,100,163,162,255

[TimingPoints]
18050,550.458219429411,4,2,0,49,1,0
19561,-100,4,2,1,51,0,0
19836,-100,4,2,0,50,0,0
21763,-100,4,2,1,52,0,0
22038,-100,4,2,0,52,0,0
22876,-100,4,2,1,52,0,0
23151,-100,4,2,0,52,0,0
23702,-100,4,2,1,52,0,0
23977,-100,4,2,0,52,0,0
25340,-100,4,2,0,38,0,0
25616,-100,4,2,0,27,0,0
25891,-100,4,2,0,15,0,0
26306,-50,4,2,0,0,0,1
26592,-100,4,2,0,0,0,0
26716,-100,4,2,1,51,0,0
27129,-100,4,2,0,51,0,0
28368,-100,4,2,1,51,0,0
28643,-100,4,2,0,50,0,0
30569,-100,4,2,1,52,0,0
30982,-100,4,2,0,51,0,0
33184,-100,4,1,1,36,0,0
35114,-50,4,2,0,0,0,1
35389,-100,4,2,0,0,0,0
35523,-100,4,2,1,49,0,0
35936,-100,4,2,0,51,0,0
37174,-100,4,2,1,51,0,0
37449,-100,4,2,0,51,0,0
39376,-100,4,2,1,52,0,0
39651,-100,4,2,0,51,0,0
43229,-100,4,1,1,38,0,0
43921,-50,4,2,0,0,0,1
44206,-100,4,2,0,0,0,0
44329,-100,4,2,1,51,0,0
44742,-100,4,2,0,51,0,0
45430,-100,4,2,0,42,0,0
45981,-100,4,2,0,32,0,0
46669,-100,4,2,0,25,0,0
47082,-100,4,2,0,15,0,0
47357,-100,4,2,1,21,0,0
47632,-100,4,2,0,15,0,0
48870,-100,4,1,1,49,0,0
50109,-100,4,1,1,43,0,0
51210,-100,4,1,1,34,0,0
51485,-100,4,1,1,26,0,0
51760,-100,4,1,1,23,0,0
52035,-100,4,1,1,19,0,0
52310,-100,4,2,0,29,0,0
52586,-100,4,2,0,39,0,0
52861,-100,4,2,0,50,0,0
53136,-100,4,1,2,100,0,0
53279,-100,4,1,2,71,0,1
63043,-100,4,1,2,65,0,1
63319,-100,4,1,2,60,0,1
63594,-100,4,1,2,41,0,1
63869,-100,4,1,2,71,0,1
66346,-100,4,1,0,51,0,1
67722,-100,4,1,2,70,0,1
85610,-100,4,1,0,100,0,0
88431,-100,4,1,0,50,0,1
88656,-100,4,1,0,100,0,0

[Colours]
Combo1 : 235,235,235
Combo2 : 213,170,255
Combo3 : 0,0,187
Combo4 : 223,0,112
Combo5 : 221,0,0

[HitObjects]
424,72,18050,2,0,B|448:96|424:128,1,60
368,104,18600,1,2
368,160,18875,2,0,B|312:184|336:264|376:248,1,120
366,250,19701,1,0
344,304,19976,5,0
288,336,20251,1,0
288,336,20389,1,0
288,336,20527,1,2
232,304,20802,1,0
176,336,21077,2,0,B|136:328|128:288|136:256|168:240,1,120,2|0
161,243,21903,1,0
192,192,22178,5,0
224,144,22453,1,0
248,168,22591,1,2
256,200,22728,1,2
240,256,23004,1,0
184,280,23279,1,0
200,304,23416,1,2
224,320,23554,1,2
280,344,23829,1,0
336,320,24105,2,0,B|365:319|412:284|409:228|407:188|381:166|348:135|320:144,1,240,2|0
272,160,25481,1,2
272,160,25756,1,2
272,216,26031,1,2
270,282,26306,6,0,C|275:291|274:277|262:278|271:288|259:289|278:289|261:285|261:285|272:280|268:279,1,120,0|0
272,352,26857,5,4
152,352,27407,5,0
96,320,27683,2,0,B|64:304|32:256|56:192,1,120,2|0
49,217,28508,1,0
64,160,28783,5,0
123,171,29059,1,2
120,141,29196,1,0
118,110,29334,1,0
114,80,29472,1,0
110,50,29609,1,2
169,54,29884,2,0,B|217:46|257:78|297:62,1,120
347,57,30710,1,0
424,176,31260,6,0,B|432:208|424:240|384:264|360:256,1,120,0|2
360,192,32086,2,0,B|312:192|280:240|304:296,1,120,0|2
297,275,32912,1,0
192,216,33462,5,4
160,168,33738,1,2
160,168,34013,1,8
192,216,34288,1,4
224,264,34563,1,8
224,264,34838,1,2
288,288,35114,6,0,C|293:297|292:283|280:284|289:294|277:295|296:295|279:291|279:291|290:286|286:285,1,120,0|0
224,328,35664,5,4
456,272,36215,5,0
400,248,36490,2,0,B|368:208|376:184|392:136|352:112,1,120
371,134,37316,1,0
312,128,37591,5,0
259,88,37866,1,2
228,86,38004,1,0
199,94,38141,1,2
181,118,38279,1,0
184,147,38416,1,0
206,202,38692,2,0,B|190:250|222:282|206:338,1,120,2|0
209,321,39517,1,0
260,351,39793,5,0
318,363,40068,2,0,B|374:371|406:323|414:291|406:243|374:219,1,180,0|2
328,224,41169,1,0
368,176,41444,1,2
424,184,41719,2,0,B|472:152|472:104|456:72,1,120
360,112,42683,1,2
360,112,43095,1,0
296,112,43371,5,4
232,112,43646,1,4
264,176,43921,6,0,C|269:185|268:171|256:172|265:182|253:183|272:183|255:179|255:179|266:174|262:173,1,120,0|0
264,240,44472,1,0
152,320,45297,5,2
152,320,45435,1,0
152,320,45572,1,2
216,320,45848,1,0
216,320,45985,1,0
216,320,46123,1,0
216,256,46398,1,0
216,256,46536,1,0
216,256,46673,1,0
152,256,46949,1,2
152,256,47224,1,2
152,256,47499,1,0
144,72,48049,5,0
120,96,48187,1,0
96,120,48325,2,0,B|64:152|80:184,1,60
360,328,49150,5,2
389,310,49288,1,8
418,292,49426,2,0,B|456:269|484:291,1,60,8|4
376,80,50251,5,2
352,56,50389,1,8
328,32,50527,2,0,B|296:0|264:16,1,60,8|4
224,48,51077,1,2
280,72,51352,1,10
232,112,51627,1,2
288,136,51903,1,10
240,176,52178,1,2
256,232,52453,5,0
256,288,52728,1,0
256,344,53004,1,0
256,344,53279,2,0,B|288:368|336:368|376:344,1,120,10|4
369,347,54105,1,0
432,288,54380,1,10
448,200,54655,5,0
400,120,54930,1,10
312,136,55205,1,6
248,72,55481,2,0,B|200:64|160:80|128:112,1,120,10|4
136,103,56306,1,0
64,160,56582,1,10
136,208,56857,5,8
136,208,57132,1,8
136,208,57407,2,0,B|184:208|168:296|248:280,1,120,6|0
280,216,58233,1,2
344,280,58508,1,10
408,216,58783,1,0
464,144,59059,6,0,B|464:96|424:72|376:88|368:128,1,120,10|0
380,103,59884,1,4
312,160,60160,2,0,B|280:184|248:192|216:168|208:128,1,120,10|0
212,143,60985,1,4
160,64,61260,1,2
120,144,61536,1,2
72,64,61811,6,0,B|40:96|32:144|40:192,1,120,10|0
37,175,62637,1,4
64,256,62912,1,8
112,328,63187,1,10
192,368,63462,1,2
280,352,63738,1,2
368,368,64013,5,8
368,368,64150,1,4
368,368,64288,1,8
440,320,64563,1,0
392,240,64838,1,8
392,240,65114,2,0,B|372:251|302:235|311:176,1,120,6|0
392,136,65939,1,8
464,184,66215,1,4
392,240,66490,5,0
272,240,66765,1,0
272,360,67040,1,0
392,360,67316,1,0
392,240,67591,1,0
472,144,67866,5,14
424,64,68141,1,14
360,128,68416,2,0,B|296:128|320:64|240:56,1,120,14|14
192,8,69242,1,14
152,88,69517,1,14
56,240,70068,5,6
56,240,70343,1,8
112,312,70618,1,4
112,312,70893,1,14
168,240,71169,2,0,B|176:192|240:176|272:216,1,120,14|8
464,240,72270,5,6
464,240,72545,1,8
408,312,72820,1,4
408,312,73095,1,14
352,240,73371,2,0,B|344:192|280:176|248:216,1,120,12|8
96,280,74471,5,0
48,200,74747,1,8
136,192,75022,1,6
136,104,75297,1,2
216,136,75572,1,0
248,48,75848,1,8
312,112,76123,1,6
384,64,76398,1,2
400,152,76673,5,8
488,144,76949,1,4
448,224,77224,1,10
504,288,77499,1,14
416,304,77774,1,12
240,336,78325,2,0,B|264:288|240:240|200:192|224:144|272:88|240:40,1,300,14|14
56,64,80527,5,12
144,88,80802,1,4
80,152,81077,1,12
168,176,81352,1,4
104,240,81627,1,12
192,264,81903,2,0,B|208:312|256:320|304:304,1,120,6|12
264,224,82728,2,0,B|312:208|352:232|369:264,1,120,6|12
456,96,83829,5,8
376,136,84104,2,0,B|328:168|280:168|240:152,1,120,14|0
176,136,84930,2,0,B|136:120|80:128|56:144,1,120,14|0
256,192,85756,12,0,88508
