osu file format v14

[General]
AudioFilename: Shikuramen - Buchikome!! hajime no ippo rising ending 1.mp3
AudioLeadIn: 0
PreviewTime: -1
Countdown: 0
SampleSet: Soft
StackLeniency: 0.7
Mode: 3
LetterboxInBreaks: 1
SpecialStyle: 0
WidescreenStoryboard: 0

[Editor]
DistanceSpacing: 1
BeatDivisor: 8
GridSize: 16
TimelineZoom: 1

[Metadata]
Title:Buchikome
TitleUnicode:Buchikome
Artist:Shikuramen
ArtistUnicode:Shikuramen
Creator:trexex55
Version:HD
Source:
Tags:
BeatmapID:704789
BeatmapSetID:316291

[Difficulty]
HPDrainRate:7
CircleSize:4
OverallDifficulty:7
ApproachRate:5
SliderMultiplier:1.4
SliderTickRate:1

[Events]
//Background and Video events
0,0,"1501590.jpg",0,0
//Break Periods
//Storyboard Layer 0 (Background)
//Storyboard Layer 1 (Fail)
//Storyboard Layer 2 (Pass)
//Storyboard Layer 3 (Foreground)
//Storyboard Sound Samples

[TimingPoints]
0,705.882352941176,4,2,0,0,1,0

[HitObjects]
448,192,1307,128,0,2687:0:0:0:0:
320,192,1307,1,0,0:0:0:0:
192,192,1767,1,0,0:0:0:0:
64,192,1951,1,0,0:0:0:0:
192,192,1951,1,0,0:0:0:0:
192,192,2319,1,0,0:0:0:0:
320,192,2595,1,0,0:0:0:0:
192,192,2595,1,0,0:0:0:0:
64,192,2871,128,0,4251:0:0:0:0:
192,192,2871,1,0,0:0:0:0:
320,192,3699,1,0,0:0:0:0:
320,192,3883,1,0,0:0:0:0:
448,192,4067,1,0,0:0:0:0:
192,192,4251,1,0,0:0:0:0:
320,192,4343,128,0,5540:0:0:0:0:
192,192,4896,1,0,0:0:0:0:
64,192,4896,1,0,0:0:0:0:
192,192,5264,1,0,0:0:0:0:
64,192,5264,1,0,0:0:0:0:
64,192,5724,128,0,7288:0:0:0:0:
192,192,5724,1,0,0:0:0:0:
320,192,5724,1,0,0:0:0:0:
192,192,5847,1,0,0:0:0:0:
320,192,5847,1,0,0:0:0:0:
448,192,6215,1,0,0:0:0:0:
320,192,6337,1,0,0:0:0:0:
448,192,6399,1,0,0:0:0:0:
320,192,6583,1,0,0:0:0:0:
320,192,6705,1,0,0:0:0:0:
448,192,6874,1,0,0:0:0:0:
320,192,6966,1,0,0:0:0:0:
448,192,7058,1,0,0:0:0:0:
320,192,7288,1,0,0:0:0:0:
448,192,7288,1,0,0:0:0:0:
448,192,7564,128,0,8393:0:0:0:0:
320,192,7564,1,0,0:0:0:0:
192,192,7564,1,0,0:0:0:0:
192,192,8024,1,0,0:0:0:0:
320,192,8024,1,0,0:0:0:0:
320,192,8393,128,0,9129:0:0:0:0:
192,192,8393,1,0,0:0:0:0:
64,192,8393,1,0,0:0:0:0:
192,192,8761,1,0,0:0:0:0:
64,192,8761,1,0,0:0:0:0:
192,192,9129,128,0,9773:0:0:0:0:
64,192,9129,1,0,0:0:0:0:
320,192,9497,1,0,0:0:0:0:
448,192,9497,1,0,0:0:0:0:
64,192,9773,128,0,11337:0:0:0:0:
320,192,9773,1,0,0:0:0:0:
448,192,9773,1,0,0:0:0:0:
320,192,10141,1,0,0:0:0:0:
448,192,10141,1,0,0:0:0:0:
320,192,10417,1,0,0:0:0:0:
448,192,10417,1,0,0:0:0:0:
320,192,10785,1,0,0:0:0:0:
448,192,10785,1,0,0:0:0:0:
320,192,11153,1,0,0:0:0:0:
192,192,11521,1,0,0:0:0:0:
320,192,11521,1,0,0:0:0:0:
320,192,11889,1,0,0:0:0:0:
448,192,11981,1,0,0:0:0:0:
320,192,12043,1,0,0:0:0:0:
448,192,12104,1,0,0:0:0:0:
320,192,12350,1,0,0:0:0:0:
192,192,12472,1,0,0:0:0:0:
320,192,12472,1,0,0:0:0:0:
448,192,12810,128,0,12902:0:0:0:0:
320,192,12902,1,0,0:0:0:0:
448,192,13224,128,0,13316:0:0:0:0:
320,192,13316,1,0,0:0:0:0:
448,192,13592,128,0,13684:0:0:0:0:
320,192,13684,1,0,0:0:0:0:
320,192,14006,128,0,14098:0:0:0:0:
192,192,14098,1,0,0:0:0:0:
320,192,14374,128,0,14466:0:0:0:0:
192,192,14466,1,0,0:0:0:0:
320,192,14788,128,0,14880:0:0:0:0:
192,192,14880,1,0,0:0:0:0:
64,192,15202,128,0,15294:0:0:0:0:
192,192,15294,1,0,0:0:0:0:
64,192,15616,128,0,15708:0:0:0:0:
192,192,15708,1,0,0:0:0:0:
64,192,16031,128,0,16123:0:0:0:0:
192,192,16123,1,0,0:0:0:0:
192,192,16520,128,0,16621:0:0:0:0:
320,192,16621,1,0,0:0:0:0:
192,192,16925,128,0,17027:0:0:0:0:
320,192,17027,1,0,0:0:0:0:
192,192,17381,128,0,17483:0:0:0:0:
320,192,17483,1,0,0:0:0:0:
192,192,17787,1,0,0:0:0:0:
320,192,17787,1,0,0:0:0:0:
320,192,18192,128,0,18293:0:0:0:0:
192,192,18293,1,0,0:0:0:0:
320,192,18648,128,0,18749:0:0:0:0:
192,192,18749,1,0,0:0:0:0:
320,192,19054,128,0,19155:0:0:0:0:
192,192,19155,1,0,0:0:0:0:
448,192,19459,128,0,19560:0:0:0:0:
320,192,19560,1,0,0:0:0:0:
448,192,19864,128,0,19966:0:0:0:0:
320,192,19966,1,0,0:0:0:0:
448,192,20320,128,0,20422:0:0:0:0:
320,192,20422,1,0,0:0:0:0:
64,192,20624,1,0,0:0:0:0:
192,192,20624,1,0,0:0:0:0:
64,192,20878,128,0,20979:0:0:0:0:
192,192,20979,1,0,0:0:0:0:
64,192,21283,128,0,21385:0:0:0:0:
192,192,21385,1,0,0:0:0:0:
64,192,21739,128,0,21841:0:0:0:0:
192,192,21841,1,0,0:0:0:0:
192,192,22550,1,0,0:0:0:0:
320,192,22550,1,0,0:0:0:0:
192,192,22905,128,0,23006:0:0:0:0:
320,192,23006,1,0,0:0:0:0:
192,192,23260,128,0,23361:0:0:0:0:
320,192,23361,1,0,0:0:0:0:
192,192,23564,128,0,23665:0:0:0:0:
320,192,23665,1,0,0:0:0:0:
192,192,23918,1,0,0:0:0:0:
320,192,23918,1,0,0:0:0:0:
448,192,23918,1,0,0:0:0:0:
64,192,23918,1,0,0:0:0:0:
64,192,24374,1,0,0:0:0:0:
192,192,24425,1,0,0:0:0:0:
448,192,24527,1,0,0:0:0:0:
320,192,24577,1,0,0:0:0:0:
448,192,24831,1,0,0:0:0:0:
192,192,24983,1,0,0:0:0:0:
320,192,25084,1,0,0:0:0:0:
64,192,25185,1,0,0:0:0:0:
320,192,25489,1,0,0:0:0:0:
448,192,25641,1,0,0:0:0:0:
320,192,25793,1,0,0:0:0:0:
64,192,25945,1,0,0:0:0:0:
192,192,25996,1,0,0:0:0:0:
320,192,25996,1,0,0:0:0:0:
448,192,26249,1,0,0:0:0:0:
448,192,26554,1,0,0:0:0:0:
320,192,26554,1,0,0:0:0:0:
64,192,27010,1,0,0:0:0:0:
320,192,27212,1,0,0:0:0:0:
448,192,27364,1,0,0:0:0:0:
192,192,27364,1,0,0:0:0:0:
64,192,27364,1,0,0:0:0:0:
320,192,27466,1,0,0:0:0:0:
64,192,27820,1,0,0:0:0:0:
192,192,28074,1,0,0:0:0:0:
320,192,28226,1,0,0:0:0:0:
192,192,28277,1,0,0:0:0:0:
64,192,28378,1,0,0:0:0:0:
64,192,28479,128,0,28581:0:0:0:0:
64,192,28783,1,0,0:0:0:0:
192,192,28783,128,0,28885:0:0:0:0:
192,192,29138,1,0,0:0:0:0:
192,192,29290,1,0,0:0:0:0:
64,192,29493,1,0,0:0:0:0:
192,192,29527,1,0,0:0:0:0:
448,192,29594,1,0,0:0:0:0:
320,192,29746,1,0,0:0:0:0:
192,192,29797,1,0,0:0:0:0:
64,192,29898,1,0,0:0:0:0:
192,192,29949,1,0,0:0:0:0:
320,192,30152,128,0,30202:0:0:0:0:
192,192,30405,1,0,0:0:0:0:
320,192,30405,1,0,0:0:0:0:
448,192,30405,1,0,0:0:0:0:
64,192,30405,1,0,0:0:0:0:
448,192,30912,1,0,0:0:0:0:
320,192,30912,1,0,0:0:0:0:
192,192,31317,1,0,0:0:0:0:
64,192,31418,1,0,0:0:0:0:
320,192,31520,128,0,31621:0:0:0:0:
64,192,32331,1,0,0:0:0:0:
192,192,32331,1,0,0:0:0:0:
448,192,32331,1,0,0:0:0:0:
320,192,32533,1,0,0:0:0:0:
448,192,32584,1,0,0:0:0:0:
320,192,32635,1,0,0:0:0:0:
448,192,32685,1,0,0:0:0:0:
320,192,33040,1,0,0:0:0:0:
448,192,33040,1,0,0:0:0:0:
448,192,33395,1,0,0:0:0:0:
192,192,33496,1,0,0:0:0:0:
64,192,33597,1,0,0:0:0:0:
192,192,33699,1,0,0:0:0:0:
320,192,33699,1,0,0:0:0:0:
192,192,34054,1,0,0:0:0:0:
64,192,34054,1,0,0:0:0:0:
320,192,34155,1,0,0:0:0:0:
448,192,34206,1,0,0:0:0:0:
448,192,34560,1,0,0:0:0:0:
64,192,34560,1,0,0:0:0:0:
64,192,34814,1,0,0:0:0:0:
448,192,34814,1,0,0:0:0:0:
192,192,34966,1,0,0:0:0:0:
320,192,35067,1,0,0:0:0:0:
448,192,35168,128,0,36587:0:0:0:0:
192,192,35168,1,0,0:0:0:0:
320,192,35270,1,0,0:0:0:0:
320,192,35422,1,0,0:0:0:0:
320,192,35624,1,0,0:0:0:0:
192,192,35624,1,0,0:0:0:0:
64,192,35929,1,0,0:0:0:0:
192,192,36233,1,0,0:0:0:0:
64,192,36233,1,0,0:0:0:0:
320,192,36587,128,0,37601:0:0:0:0:
192,192,36587,1,0,0:0:0:0:
192,192,36841,1,0,0:0:0:0:
64,192,36841,1,0,0:0:0:0:
192,192,37195,1,0,0:0:0:0:
192,192,37601,128,0,39729:0:0:0:0:
64,192,37601,1,0,0:0:0:0:
64,192,38006,1,0,0:0:0:0:
320,192,38310,1,0,0:0:0:0:
448,192,38310,1,0,0:0:0:0:
320,192,38716,1,0,0:0:0:0:
64,192,38969,1,0,0:0:0:0:
320,192,38969,1,0,0:0:0:0:
64,192,39374,1,0,0:0:0:0:
320,192,39729,128,0,40084:0:0:0:0:
64,192,39729,1,0,0:0:0:0:
448,192,40084,128,0,40540:0:0:0:0:
192,192,40084,1,0,0:0:0:0:
192,192,40439,1,0,0:0:0:0:
64,192,40439,1,0,0:0:0:0:
320,192,40540,128,0,40895:0:0:0:0:
64,192,40591,1,0,0:0:0:0:
192,192,40641,1,0,0:0:0:0:
64,192,40692,1,0,0:0:0:0:
192,192,40743,1,0,0:0:0:0:
64,192,40895,128,0,43530:0:0:0:0:
192,192,40895,1,0,0:0:0:0:
192,192,41452,1,0,0:0:0:0:
320,192,41503,1,0,0:0:0:0:
448,192,41908,1,0,0:0:0:0:
320,192,41908,1,0,0:0:0:0:
448,192,42111,1,0,0:0:0:0:
448,192,42567,1,0,0:0:0:0:
192,192,42922,1,0,0:0:0:0:
320,192,42922,1,0,0:0:0:0:
448,192,42922,1,0,0:0:0:0:
192,192,43175,1,0,0:0:0:0:
320,192,43175,1,0,0:0:0:0:
448,192,43175,1,0,0:0:0:0:
192,192,43479,1,0,0:0:0:0:
320,192,43479,1,0,0:0:0:0:
448,192,43479,128,0,44594:0:0:0:0:
64,192,43885,1,0,0:0:0:0:
192,192,43885,1,0,0:0:0:0:
192,192,44037,1,0,0:0:0:0:
64,192,44037,1,0,0:0:0:0:
64,192,44189,1,0,0:0:0:0:
192,192,44189,1,0,0:0:0:0:
320,192,44594,128,0,45304:0:0:0:0:
64,192,44594,1,0,0:0:0:0:
64,192,44746,1,0,0:0:0:0:
192,192,44746,1,0,0:0:0:0:
64,192,44898,1,0,0:0:0:0:
64,192,45101,1,0,0:0:0:0:
192,192,45101,1,0,0:0:0:0:
192,192,45304,128,0,46317:0:0:0:0:
64,192,45304,1,0,0:0:0:0:
320,192,45709,1,0,0:0:0:0:
448,192,45760,1,0,0:0:0:0:
320,192,45810,1,0,0:0:0:0:
448,192,45861,1,0,0:0:0:0:
320,192,45912,1,0,0:0:0:0:
448,192,45962,1,0,0:0:0:0:
320,192,46013,1,0,0:0:0:0:
448,192,46064,1,0,0:0:0:0:
320,192,46114,1,0,0:0:0:0:
448,192,46165,1,0,0:0:0:0:
448,192,46520,1,0,0:0:0:0:
320,192,46520,1,0,0:0:0:0:
192,192,46520,1,0,0:0:0:0:
64,192,46520,1,0,0:0:0:0:
192,192,46824,1,0,0:0:0:0:
192,192,47077,1,0,0:0:0:0:
64,192,47077,1,0,0:0:0:0:
320,192,47533,1,0,0:0:0:0:
320,192,47787,1,0,0:0:0:0:
448,192,47787,1,0,0:0:0:0:
192,192,48243,1,0,0:0:0:0:
192,192,48547,1,0,0:0:0:0:
64,192,48547,1,0,0:0:0:0:
320,192,48952,1,0,0:0:0:0:
320,192,49206,1,0,0:0:0:0:
448,192,49206,1,0,0:0:0:0:
192,192,49676,1,0,0:0:0:0:
192,192,49941,1,0,0:0:0:0:
64,192,49941,1,0,0:0:0:0:
320,192,50294,1,0,0:0:0:0:
320,192,50558,1,0,0:0:0:0:
448,192,50558,1,0,0:0:0:0:
192,192,50911,1,0,0:0:0:0:
192,192,51176,1,0,0:0:0:0:
64,192,51176,1,0,0:0:0:0:
320,192,51529,1,0,0:0:0:0:
320,192,51794,1,0,0:0:0:0:
448,192,51794,1,0,0:0:0:0:
192,192,52147,1,0,0:0:0:0:
192,192,52411,1,0,0:0:0:0:
64,192,52411,1,0,0:0:0:0:
320,192,52764,1,0,0:0:0:0:
320,192,53029,1,0,0:0:0:0:
448,192,53029,1,0,0:0:0:0:
192,192,53470,1,0,0:0:0:0:
192,192,53735,1,0,0:0:0:0:
64,192,53735,1,0,0:0:0:0:
320,192,54264,1,0,0:0:0:0:
320,192,54529,1,0,0:0:0:0:
448,192,54529,1,0,0:0:0:0:
192,192,54970,1,0,0:0:0:0:
192,192,55235,1,0,0:0:0:0:
64,192,55235,1,0,0:0:0:0:
320,192,55764,1,0,0:0:0:0:
320,192,56029,1,0,0:0:0:0:
448,192,56029,1,0,0:0:0:0:
192,192,56558,1,0,0:0:0:0:
448,192,56735,1,0,0:0:0:0:
192,192,56823,1,0,0:0:0:0:
64,192,56823,1,0,0:0:0:0:
192,192,57176,1,0,0:0:0:0:
320,192,57264,1,0,0:0:0:0:
192,192,57352,1,0,0:0:0:0:
320,192,57794,1,0,0:0:0:0:
320,192,58058,1,0,0:0:0:0:
448,192,58058,1,0,0:0:0:0:
192,192,58588,1,0,0:0:0:0:
64,192,58852,1,0,0:0:0:0:
192,192,58852,1,0,0:0:0:0:
320,192,59382,1,0,0:0:0:0:
320,192,59647,1,0,0:0:0:0:
448,192,59647,1,0,0:0:0:0:
192,192,59999,1,0,0:0:0:0:
192,192,60264,1,0,0:0:0:0:
64,192,60264,1,0,0:0:0:0:
320,192,60705,1,0,0:0:0:0:
320,192,60970,1,0,0:0:0:0:
448,192,60970,1,0,0:0:0:0:
192,192,61323,1,0,0:0:0:0:
192,192,61588,1,0,0:0:0:0:
64,192,61588,1,0,0:0:0:0:
320,192,62029,1,0,0:0:0:0:
320,192,62294,1,0,0:0:0:0:
448,192,62294,1,0,0:0:0:0:
192,192,62647,1,0,0:0:0:0:
320,192,62647,1,0,0:0:0:0:
192,192,62911,1,0,0:0:0:0:
320,192,63088,1,0,0:0:0:0:
192,192,63176,1,0,0:0:0:0:
64,192,63264,1,0,0:0:0:0:
320,192,63529,1,0,0:0:0:0:
320,192,63794,1,0,0:0:0:0:
448,192,63794,1,0,0:0:0:0:
192,192,64147,1,0,0:0:0:0:
320,192,64147,1,0,0:0:0:0:
192,192,64411,1,0,0:0:0:0:
192,192,64676,1,0,0:0:0:0:
64,192,64676,1,0,0:0:0:0:
192,192,64941,1,0,0:0:0:0:
320,192,64941,1,0,0:0:0:0:
192,192,65117,1,0,0:0:0:0:
320,192,65117,1,0,0:0:0:0:
64,192,65470,1,0,0:0:0:0:
448,192,65470,1,0,0:0:0:0:
320,192,65823,1,0,0:0:0:0:
192,192,65823,1,0,0:0:0:0:
448,192,66176,1,0,0:0:0:0:
64,192,66176,1,0,0:0:0:0:
192,192,66441,1,0,0:0:0:0:
192,192,66529,1,0,0:0:0:0:
448,192,66705,1,0,0:0:0:0:
320,192,66794,1,0,0:0:0:0:
448,192,66970,1,0,0:0:0:0:
64,192,67058,1,0,0:0:0:0:
192,192,67058,1,0,0:0:0:0:
192,192,67323,1,0,0:0:0:0:
320,192,67323,1,0,0:0:0:0:
192,192,67499,1,0,0:0:0:0:
320,192,67499,1,0,0:0:0:0:
192,192,67676,1,0,0:0:0:0:
320,192,67676,1,0,0:0:0:0:
192,192,67852,1,0,0:0:0:0:
320,192,67852,1,0,0:0:0:0:
448,192,68029,1,0,0:0:0:0:
64,192,68294,1,0,0:0:0:0:
192,192,68382,1,0,0:0:0:0:
64,192,68470,1,0,0:0:0:0:
192,192,68558,1,0,0:0:0:0:
64,192,68647,1,0,0:0:0:0:
192,192,68735,1,0,0:0:0:0:
64,192,68823,1,0,0:0:0:0:
192,192,68911,1,0,0:0:0:0:
320,192,69176,1,0,0:0:0:0:
320,192,69441,1,0,0:0:0:0:
448,192,69441,1,0,0:0:0:0:
192,192,69794,1,0,0:0:0:0:
192,192,70058,1,0,0:0:0:0:
64,192,70058,1,0,0:0:0:0:
320,192,70411,1,0,0:0:0:0:
320,192,70676,1,0,0:0:0:0:
448,192,70676,1,0,0:0:0:0:
192,192,71029,1,0,0:0:0:0:
192,192,71294,1,0,0:0:0:0:
64,192,71294,1,0,0:0:0:0:
320,192,71647,1,0,0:0:0:0:
320,192,71911,1,0,0:0:0:0:
448,192,71911,1,0,0:0:0:0:
192,192,72264,1,0,0:0:0:0:
192,192,72529,1,0,0:0:0:0:
64,192,72529,1,0,0:0:0:0:
320,192,72970,1,0,0:0:0:0:
320,192,73235,1,0,0:0:0:0:
448,192,73235,1,0,0:0:0:0:
192,192,73588,1,0,0:0:0:0:
192,192,73852,1,0,0:0:0:0:
64,192,73852,1,0,0:0:0:0:
320,192,74205,1,0,0:0:0:0:
448,192,74382,1,0,0:0:0:0:
320,192,74470,1,0,0:0:0:0:
192,192,74558,1,0,0:0:0:0:
448,192,74911,128,0,76147:0:0:0:0:
320,192,76147,128,0,77117:0:0:0:0:
192,192,77117,128,0,77647:0:0:0:0:
64,192,77647,128,0,80205:0:0:0:0:
