osu file format v14

[General]
AudioFilename: four season.mp3
AudioLeadIn: 0
PreviewTime: 175399
Countdown: 0
SampleSet: Soft
StackLeniency: 0.3
Mode: 0
LetterboxInBreaks: 0
WidescreenStoryboard: 0

[Editor]
DistanceSpacing: 1.3
BeatDivisor: 2
GridSize: 4
TimelineZoom: 1

[Metadata]
Title:Shiki Tokiuta
TitleUnicode:四季刻歌
Artist:ShikiP
ArtistUnicode:四季P
Creator:kanpakyin
Version:hoLysoup's Normal
Source:
Tags:vocaloid3 綿飴 wataame IA Fycho HoLysoup
BeatmapID:281705
BeatmapSetID:97614

[Difficulty]
HPDrainRate:3
CircleSize:3
OverallDifficulty:3
ApproachRate:4
SliderMultiplier:1.2
SliderTickRate:1

[Events]
//Background and Video events
0,0,"bg.jpg",0,0
Video,-2750,"video.flv"
//Break Periods
2,65524,71673
2,132742,160094
2,190486,203402
//Storyboard Layer 0 (Background)
//Storyboard Layer 1 (Fail)
//Storyboard Layer 2 (Pass)
//Storyboard Layer 3 (Foreground)
//Storyboard Sound Samples

[TimingPoints]
8031,451.127819548872,4,2,1,70,1,0
21564,-100,4,1,1,60,0,0
22692,-100,4,2,2,30,0,0
29685,-100,4,2,1,50,0,0
36903,-100,4,2,1,60,0,0
51339,-100,4,2,1,70,0,0
56978,-100,4,2,1,50,0,0
58218,-100,4,2,1,50,0,0
61715,-100,4,2,1,50,0,0
62053,-100,4,2,1,50,0,0
72993,-100,4,2,1,70,0,0
87429,-100,4,2,2,40,0,0
87457,-100,4,2,2,30,0,0
94647,-100,4,2,1,50,0,0
116301,-100,4,2,1,70,0,0
130737,-100,4,1,1,40,0,0
130963,-100,4,2,1,50,0,0
160963,-100,4,1,1,70,0,0
175850,-100,4,2,1,50,0,0
190286,-100,4,2,0,50,0,0
204722,-100,4,1,1,50,0,0
206527,-100,4,2,1,50,0,0

[Colours]
Combo1 : 202,142,171
Combo2 : 95,79,185
Combo3 : 198,106,104

[HitObjects]
112,96,8030,6,0,P|96:152|112:216,2,120,4|8|2,0:0|0:0|0:0,0:0:0:0:
256,156,9384,1,8,0:0:0:0:
400,96,9835,2,0,P|416:152|400:216,2,120,2|8|2,0:0|0:0|0:0,0:0:0:0:
256,156,11188,1,8,0:0:0:0:
157,277,11640,6,0,P|257:333|361:273,2,240,6|2|2,0:0|0:0|0:0,0:0:0:0:
124,124,13895,1,8,0:0:0:0:
272,172,14346,1,0,0:0:0:0:
420,219,14797,1,0,0:0:0:0:
420,219,15249,6,0,L|428:155,1,60,6|0,0:0|0:0,0:0:0:0:
348,167,15700,2,0,L|324:111,1,60,8|0,0:0|0:0,0:0:0:0:
256,151,16151,2,0,P|192:143|136:159,1,120,2|8,0:0|0:0,0:0:0:0:
202,299,17053,2,0,P|266:307|322:291,1,120,2|8,0:0|0:0,0:0:0:0:
443,198,17955,2,0,P|431:266|439:330,1,120,2|8,0:0|0:0,0:0:0:0:
333,198,18858,2,0,P|345:130|337:66,1,120,6|8,0:0|0:0,0:0:0:0:
184,70,19760,6,0,L|120:59,1,60,2|0,0:0|0:0,0:0:0:0:
64,108,20211,2,0,P|56:140|64:180,1,60,8|0,0:0|0:0,0:0:0:0:
112,224,20662,2,0,B|176:204|240:224|240:224,1,120,2|8,0:0|0:0,0:0:0:0:
382,258,21564,2,0,B|446:278|510:258,1,120,4|0,0:0|0:0,0:0:0:0:
436,118,22467,6,0,P|380:98|320:114,1,120,4|0,0:0|0:0,0:0:0:0:
200,208,23369,2,0,P|142:222|86:202,1,120,2|0,0:0|0:0,0:0:0:0:
152,61,24271,2,0,P|209:46|265:66,1,120
349,196,25173,2,0,P|357:256|337:316,1,120,2|0,0:0|0:0,0:0:0:0:
183,296,26076,6,0,P|175:236|195:176,1,120
288,57,26978,2,0,P|348:49|408:69,1,120,2|0,0:0|0:0,0:0:0:0:
474,205,27880,2,0,P|482:265|462:325,1,120,0|2,0:0|0:0,0:0:0:0:
314,362,28782,2,0,P|254:370|194:350,1,120
97,233,29685,6,0,P|77:169|81:113,2,120,10|0|2,0:0|0:0|0:0,0:0:0:0:
231,312,31038,1,0,0:0:0:0:
376,255,31489,2,0,P|404:231|416:207,1,60,8|0,0:0|0:0,0:0:0:0:
345,175,31940,2,0,P|357:147|361:115,1,60,0|2,0:0|0:0,0:0:0:0:
282,123,32391,2,0,B|226:91|158:99|158:99,1,120,2|0,0:0|0:0,0:0:0:0:
140,256,33294,6,0,B|196:288|264:280|264:280,2,120,10|0|2,0:0|0:0|0:0,0:0:0:0:
64,120,34647,1,0,0:0:0:0:
212,72,35098,2,0,B|296:40|360:96|452:72,2,240,10|2|12,0:0|0:0|0:1,0:0:0:0:
84,160,37354,6,0,P|72:216|76:280,2,120,8|0|8,0:1|0:0|0:1,0:0:0:0:
240,168,38707,2,0,P|252:112|248:48,2,120,0|8|0,0:0|0:1|0:0,0:0:0:0:
234,324,40061,1,8,0:1:0:0:
389,309,40512,6,0,P|409:245|389:193,1,120,8|8,0:1|0:1,0:0:0:0:
409,121,41188,1,0,0:0:0:0:
334,144,41414,2,0,B|314:96|334:52|334:52|322:24,1,120,0|8,0:0|0:1,0:0:0:0:
169,45,42316,2,0,B|159:68|159:68|179:112|159:160,1,120,0|8,0:0|0:1,0:0:0:0:
82,143,42993,1,0,0:0:0:0:
105,217,43218,2,0,P|88:265|108:329,1,120,0|8,0:0|0:1,0:0:0:0:
248,260,44121,6,0,B|265:214|236:200|248:140,1,120,12|8,0:1|0:1,0:0:0:0:
293,78,44797,1,0,0:0:0:0:
371,79,45023,2,0,P|427:67|491:83,1,120,0|8,0:0|0:1,0:0:0:0:
431,226,45925,2,0,B|459:282|447:346|447:346,2,120,0|8|0,0:0|0:1|0:0,0:0:0:0:
277,195,47279,1,8,0:1:0:0:
147,281,47730,6,0,B|91:309|27:297|27:297,1,120,0|8,0:0|0:1,0:0:0:0:
39,141,48632,2,0,B|95:113|159:125|159:125,1,120,0|8,0:0|0:1,0:0:0:0:
256,192,49534,12,12,51339,0:0:0:0:
192,292,52241,6,0,P|216:240|220:172,1,120,2|8,0:0|1:0,0:0:0:0:
364,116,53143,2,0,P|340:168|336:236,1,120,2|8,0:0|1:0,0:0:0:0:
456,328,54046,2,0,P|480:276|484:208,2,120,0|8|12,0:0|1:0|0:0,0:0:0:0:
304,292,55399,6,0,B|240:288|184:308|184:308,1,120,8|2,1:0|0:0,0:0:0:0:
44,244,56301,1,8,1:0:0:0:
144,124,56752,2,0,B|204:124|256:164|256:164|308:124|368:124,2,240,0|4|12,0:0|1:0|0:0,0:0:0:0:
156,280,59008,5,8,1:0:0:0:
256,160,59459,1,2,0:0:0:0:
356,280,59910,1,8,1:0:0:0:
256,160,60361,6,0,P|256:128|245:91,1,60,2|0,0:0|0:0,0:0:0:0:
320,69,60812,2,0,P|349:89|382:101,1,60,8|0,1:0|0:0,0:0:0:0:
402,170,61264,2,0,P|341:188|302:231,1,120,8|4,1:0|1:0,0:0:0:0:
147,218,62166,6,0,B|150:216|90:244|30:216,1,120,12|8,0:0|1:0,0:0:0:0:
58,62,63068,2,0,B|54:63|114:35|174:63,1,120,2|8,0:0|1:0,0:0:0:0:
315,129,63970,2,0,L|332:56,2,60,2|0|8,0:0|0:0|1:0,0:0:0:0:
368,185,64647,1,2,0:0:0:0:
440,214,64873,2,0,P|441:276|401:329,1,120,2|8,0:0|1:0,0:0:0:0:
72,208,72993,6,0,P|40:148|48:92,1,120,12|8,0:0|0:0,0:0:0:0:
192,48,73895,2,0,P|224:108|216:164,1,120,2|8,0:0|0:0,0:0:0:0:
148,296,74797,2,0,P|224:292|280:316,1,120,2|8,0:0|0:0,0:0:0:0:
336,168,75700,2,0,P|260:172|204:148,1,120,2|8,0:0|0:0,0:0:0:0:
68,192,76602,6,0,P|80:260|68:324,2,120,4|8|2,0:0|0:0|0:0,0:0:0:0:
168,72,77955,1,8,0:0:0:0:
312,132,78407,2,0,L|372:120,2,60,2|0|8,0:0|0:0|0:0,0:0:0:0:
252,180,79083,1,2,0:0:0:0:
324,212,79309,2,0,P|336:268|324:348,1,120,2|8,0:0|0:0,0:0:0:0:
176,348,80212,6,0,L|112:356,1,60,8|0,1:0|0:0,0:0:0:0:
124,276,80663,2,0,L|68:252,1,60,8|2,0:0|0:0,0:0:0:0:
108,184,81113,2,0,P|100:120|116:64,1,120,2|8,0:0|0:0,0:0:0:0:
268,76,82015,2,0,P|276:140|260:196,1,120,4|8,1:0|0:0,0:0:0:0:
256,348,82918,6,0,B|316:348|316:324|372:324,1,120,2|8,0:0|0:0,0:0:0:0:
372,168,83820,2,0,B|312:168|312:144|256:144,1,120,6|8,0:0|0:0,0:0:0:0:
104,188,84723,6,0,L|40:180,1,60,2|2,0:0|0:0,0:0:0:0:
52,260,85173,2,0,P|44:292|52:332,1,60,8|0,0:0|0:0,0:0:0:0:
124,300,85625,2,0,B|188:280|252:300|252:300,1,120,2|0,0:0|0:0,0:0:0:0:
296,152,86527,2,0,B|232:172|168:152|168:152,1,120,0|2,0:0|0:0,0:0:0:0:
244,296,87429,6,0,B|372:328|352:256|480:300,1,240,4|2,0:0|0:0,0:0:0:0:
504,144,88782,1,0,0:0:0:0:
348,144,89234,2,0,B|220:112|240:184|112:140,1,240,0|2,0:0|0:0,0:0:0:0:
76,292,90587,1,0,0:0:0:0:
220,352,91038,6,0,P|304:364|368:236,2,240,0|2|0,0:0|0:0|0:0,0:0:0:0:
231,196,93294,1,2,0:0:0:0:
76,188,93745,2,0,P|76:247|96:303,1,120,0|2,0:0|0:0,0:0:0:0:
247,342,94647,6,0,P|315:334|359:302,1,120,2|0,0:0|0:0,0:0:0:0:
413,160,95549,2,0,P|406:104|363:46,1,120,2|0,0:0|0:0,0:0:0:0:
216,25,96452,2,0,P|148:33|104:65,1,120,2|0,0:0|0:0,0:0:0:0:
70,213,97354,2,0,P|78:281|110:325,1,120,2|0,0:0|0:0,0:0:0:0:
251,264,98256,6,0,B|283:148|219:144|255:24,2,240,2|2|2,0:0|0:0|0:0,0:0:0:0:
400,308,100512,2,0,B|432:304|432:304|456:344|520:352,2,120,0|2|8,0:0|0:0|1:0,0:0:0:0:
381,153,101865,6,0,B|361:89|301:77|301:77,1,120,6|8,0:0|1:0,0:0:0:0:
254,10,102542,1,0,0:0:0:0:
215,77,102767,2,0,B|210:77|150:89|130:153,1,120,2|8,0:0|1:0,0:0:0:0:
175,304,103670,2,0,B|211:328|263:316|263:316|295:332,1,120,2|8,0:0|1:0,0:0:0:0:
435,276,104572,2,0,B|399:252|347:264|347:264|315:248,1,120,2|8,0:0|1:0,0:0:0:0:
277,101,105474,6,0,P|221:129|161:137,1,120,2|8,0:0|1:0,0:0:0:0:
87,124,106151,1,0,0:0:0:0:
109,198,106376,2,0,B|117:242|161:258|161:258|173:294,1,120,2|8,0:0|1:0,0:0:0:0:
328,293,107279,2,0,B|348:254|348:254|392:238|400:194,1,120,2|8,0:0|1:0,0:0:0:0:
418,126,107955,1,2,0:0:0:0:
341,141,108181,2,0,P|285:133|229:105,1,120,2|8,0:0|1:0,0:0:0:0:
76,140,109083,6,0,B|60:164|60:164|88:204|76:264,1,120,6|8,0:0|1:0,0:0:0:0:
67,328,109760,1,2,0:0:0:0:
142,309,109985,2,0,P|202:321|258:309,1,120,2|8,0:0|1:0,0:0:0:0:
403,249,110888,2,0,P|423:189|411:129,1,120,2|8,0:0|1:0,0:0:0:0:
258,115,111790,2,0,P|238:175|250:235,2,120,2|8|2,0:0|1:0|0:0,0:0:0:0:
405,166,113143,5,8,1:0:0:0:
357,314,113594,1,2,0:0:0:0:
209,264,114045,1,8,1:0:0:0:
256,192,114497,12,6,116301,0:0:0:0:
400,192,117203,6,0,P|408:252|392:312,1,120,2|8,0:0|1:0,0:0:0:0:
240,336,118106,2,0,L|172:352,1,60,2|0,0:0|0:0,0:0:0:0:
144,280,118557,2,0,L|156:216,1,60,8|2,1:0|0:0,0:0:0:0:
232,240,119008,2,0,B|284:272|352:264|352:264,1,120,2|8,0:0|1:0,0:0:0:0:
316,112,119910,6,0,B|264:80|196:88|196:88,1,120,6|8,0:0|1:0,0:0:0:0:
132,228,120812,2,0,B|100:280|108:348|108:348,1,120,2|8,0:0|1:0,0:0:0:0:
264,320,121715,2,0,B|316:352|384:344|384:344,1,120,2|8,0:0|1:0,0:0:0:0:
448,204,122617,2,0,B|480:152|472:84|472:84,1,120,2|8,0:0|1:0,0:0:0:0:
324,44,123519,6,0,B|292:32|292:32|252:56|192:44,1,120,6|8,0:0|1:0,0:0:0:0:
220,204,124421,2,0,B|252:216|252:216|292:192|352:204,1,120,2|8,0:0|1:0,0:0:0:0:
464,292,125324,2,0,L|476:352,1,60,2|0,0:0|0:0,0:0:0:0:
392,340,125775,2,0,L|328:336,1,60,8|2,1:0|0:0,0:0:0:0:
384,256,126226,2,0,P|404:192|392:136,1,120,2|8,0:0|1:0,0:0:0:0:
240,128,127128,6,0,P|220:192|232:248,1,120,6|8,0:0|1:0,0:0:0:0:
80,288,128030,2,0,P|100:224|88:168,1,120,2|8,0:0|1:0,0:0:0:0:
196,56,128933,2,0,L|264:40,1,60,2|0,0:0|0:0,0:0:0:0:
332,68,129384,2,0,L|324:128,1,60,8|0,1:0|0:0,0:0:0:0:
268,184,129835,2,0,P|208:192|144:168,2,120,2|8|4,0:0|1:0|0:0,0:0:0:0:
256,192,130963,12,0,132542,0:0:0:0:
136,112,161414,6,0,B|76:208|176:244|128:348,1,240,4|0,0:0|0:0,0:0:0:0:
372,348,163218,2,0,B|326:248|426:212|366:116,1,240
128,122,165023,6,0,B|64:138|48:190|48:190,1,120,4|0,0:0|0:0,0:0:0:0:
135,327,165925,2,0,B|199:311|215:259|215:259,1,120
128,122,166827,2,0,B|139:85|139:85|80:20,2,120
376,112,168632,6,0,B|440:128|456:180|459:190,1,120,4|0,0:0|0:0,0:0:0:0:
356,308,169534,2,0,B|292:292|276:240|276:240,1,120,2|0,0:2|0:0,0:0:0:0:
376,112,170437,2,0,B|362:78|362:78|428:26,2,120,2|0|2,0:2|0:0|0:2,0:0:0:0:
256,212,171790,1,2,0:2:0:0:
136,112,172241,6,0,B|72:128|56:180|52:190,1,120,2|2,0:2|0:2,0:0:0:0:
172,292,173143,2,0,B|236:276|252:224|255:213,1,120,2|2,0:2|0:2,0:0:0:0:
256,192,174046,12,4,175850,0:0:0:0:
256,192,176752,6,0,P|272:256|256:312,1,120,2|8,0:0|1:0,0:0:0:0:
104,308,177655,2,0,L|36:312,1,60,2|0,0:0|0:0,0:0:0:0:
8,244,178106,2,0,L|4:176,1,60,8|0,0:1|0:0,0:0:0:0:
64,132,178557,2,0,B|112:112|156:132|156:132|172:128|184:120,1,120,2|8,0:0|1:0,0:0:0:0:
336,124,179459,6,0,B|343:129|359:133|359:133|403:113|451:133,1,120,12|8,0:0|1:0,0:0:0:0:
452,288,180361,2,0,B|404:308|360:288|360:288|344:292|336:297,1,120,2|8,0:0|1:0,0:0:0:0:
184,332,181264,2,0,P|104:268|144:144,2,240,2|2|14,0:0|0:0|0:0,0:0:0:0:
464,192,183970,6,0,P|472:132|452:72,1,120,2|8,0:0|1:0,0:0:0:0:
300,52,184873,2,0,L|224:44,1,60,2|0,0:0|0:0,0:0:0:0:
160,48,185324,2,0,P|164:84|164:116,1,60,8|2,1:0|0:0,0:0:0:0:
212,172,185775,2,0,P|276:180|336:152,1,120,2|8,0:0|1:0,0:0:0:0:
468,224,186677,6,0,P|480:284|464:344,1,120,6|8,0:0|1:0,0:0:0:0:
312,332,187579,2,0,P|300:272|316:212,1,120,2|8,0:0|1:0,0:0:0:0:
257,70,188482,2,0,L|195:58,1,60,2|0,0:0|0:0,0:0:0:0:
130,98,188933,2,0,L|117:175,1,60,8|0,1:0|0:0,0:0:0:0:
156,226,189384,2,0,P|111:246|30:230,2,120,2|8|4,0:0|1:0|0:0,0:0:0:0:
84,188,204722,6,0,P|80:248|92:308,2,120
212,100,206076,2,0,L|284:80,1,60
348,72,206527,6,0,P|384:120|396:188,1,120,14|8,0:0|0:0,0:0:0:0:
256,248,207429,2,0,P|220:200|208:132,1,120,2|8,0:0|0:0,0:0:0:0:
348,72,208331,2,0,P|408:68|472:80,1,120,2|8,0:0|0:0,0:0:0:0:
460,236,209234,2,0,P|400:240|336:228,1,120,2|8,0:0|0:0,0:0:0:0:
192,192,210136,6,0,P|132:188|68:200,1,120,14|8,0:0|0:0,0:0:0:0:
80,356,211038,2,0,P|140:360|204:348,1,120,2|8,0:0|0:0,0:0:0:0:
348,300,211940,2,0,P|400:200|336:96,2,240,2|2|14,0:0|0:0|0:0,0:0:0:0:
192,316,214196,2,0,P|140:288|120:224,2,120,8|2|8,0:0|0:0|0:0,0:0:0:0:
288,192,215549,6,0,P|328:148|344:84,1,120,2|8,0:0|0:0,0:0:0:0:
188,68,216452,2,0,P|144:28|80:12,1,120,2|8,0:0|0:0,0:0:0:0:
68,168,217354,2,0,P|28:212|12:276,1,120,14|8,0:0|0:0,0:0:0:0:
168,292,218256,2,0,P|212:332|276:348,1,120,2|8,0:0|0:0,0:0:0:0:
376,236,219158,6,0,B|420:192|376:128|376:128|308:128|288:60,2,240,2|2|4,0:0|0:0|0:0,0:0:0:0:
