osu file format v6

[General]
AudioFilename: Shiki - Air.mp3
AudioLeadIn: 1004
PreviewTime: 70337
Countdown: 0
SampleSet: Normal
StackLeniency: 0.7
Mode: 0
LetterboxInBreaks: 0

[Editor]
Bookmarks: 91910,145842
DistanceSpacing: 0.800000011920929
BeatDivisor: 4
GridSize: 8

[Metadata]
Title:Air
Artist:Shiki mixed by Djsmalls
Creator:MegaManEXE
Version:Best map ever created
Source:
Tags:Wow Meow Woof Cat Dog Monkey Screech Banana Peel Slip Frog Ribbit Croak Emoticon Bakaru Best Map in the Universe Shitty Bad Awful Troll Lol Streams Proven Mapping Expertise Professional Storyboard 1 2 3 4 5 6 Do It Wa Wa Wa Wasuremono I'm All Out of Ideas for Tags Now

[Difficulty]
HPDrainRate:4
CircleSize:5
OverallDifficulty:7
SliderMultiplier:1.7
SliderTickRate:1

[Events]
//Background and Video events
0,0,"sky bg.jpg"
//Break Periods
2,91773,100448
2,102896,111234
2,113682,122021
//Storyboard Layer 0 (Background)
//Storyboard Layer 1 (Fail)
//Storyboard Layer 2 (Pass)
//Storyboard Layer 3 (Foreground)
//Storyboard Sound Samples
//Background Colour Transformations
3,100,0,0,0

[TimingPoints]
5618,337.078651685393,4,1,0,70,1,0
10842,-100,4,1,0,80,0,0
16362,-100,4,1,0,100,0,0
17668,-100,4,1,1,100,0,0
32500,-100,4,1,2,100,0,0
33511,-100,4,1,1,100,0,0
33848,-100,4,1,2,100,0,0
34859,-100,4,1,1,100,0,0
35196,-100,4,1,2,100,0,0
36207,-100,4,1,1,100,0,0
36544,-100,4,1,2,100,0,0
37893,-100,4,1,1,100,0,0
39578,-100,4,1,2,100,0,0
44129,-100,4,1,1,100,0,0
46825,-100,4,1,2,100,0,0
50196,-100,4,1,0,0,0,0
50365,-100,4,1,1,100,0,0
52640,-100,4,1,2,100,0,0
52977,-100,4,1,1,100,0,0
53314,-100,4,1,2,100,0,0
56264,-100,4,1,1,100,0,0
60983,-100,4,1,0,0,0,0
61151,-100,4,1,2,100,0,0
64353,-100,4,1,1,100,0,0
70084,-100,4,1,0,0,0,0
70252,-100,4,1,1,100,0,0
75646,-100,4,1,2,100,0,0
81039,-100,4,1,1,100,0,0
85084,-100,4,1,2,100,0,0
86432,-100,4,1,1,100,0,0
86769,-100,4,1,2,100,0,0
88117,-100,4,1,1,100,0,0
89466,-100,4,1,2,100,0,0
90730,-100,4,1,1,100,0,0
91067,-100,4,1,2,100,0,0
91404,-100,4,1,1,100,0,0
101179,-100,4,2,0,100,0,0
124185,-100,4,1,2,100,0,0
125533,-100,4,1,1,100,0,0
126882,-100,4,1,2,100,0,0
128230,-100,4,1,1,100,0,0
129578,-100,4,1,2,100,0,0
130926,-100,4,1,1,100,0,0
133623,-100,4,1,0,100,0,0
134887,-100,4,1,2,100,0,0
135983,-100,4,1,1,100,0,0
136320,-100,4,1,2,100,0,0
137331,-100,4,1,1,100,0,0
139016,-100,4,1,2,100,0,0
140365,-100,4,1,1,100,0,0
141713,-100,4,1,2,100,0,0
142724,-100,4,1,1,100,0,0
143735,-100,4,1,2,100,0,0
144410,-100,4,1,1,100,0,0
145084,-100,4,1,2,100,0,0
145758,-100,4,2,0,100,0,0

[Colours]
Combo1 : 255,255,255
Combo2 : 159,179,242
Combo3 : 0,0,223
Combo4 : 128,255,255

[HitObjects]
40,72,5617,2,0,B|169:18|242:124|376:71,1,340
373,72,6629,1,0
480,160,6966,2,0,B|351:106|278:212|144:159,1,340
147,160,7978,1,0
40,240,8314,6,0,B|169:186|242:292|376:239,1,340
373,240,9326,1,0
480,328,9663,2,0,B|351:274|278:380|144:327,1,340
147,328,10675,1,0
24,280,11011,6,0,B|64:256,3,42.5,0|0|0|0
96,248,11349,2,0,B|136:264,3,42.5
168,264,11686,2,0,B|192:216,3,42.5
176,192,12023,2,0,B|136:160,3,42.5
112,168,12360,6,0,B|64:160,3,42.5
64,128,12697,2,0,B|88:72,3,42.5
104,64,13034,2,0,B|152:40,3,42.5
176,48,13371,2,0,B|224:64,3,42.5
248,48,13708,6,0,B|296:32,3,42.5
320,48,14045,2,0,B|376:64,3,42.5
392,56,14382,2,0,L|408:96,3,42.5
424,128,14719,2,0,L|464:160,3,42.5
480,184,15056,6,0,B|456:224,3,42.5
424,232,15393,2,0,B|376:224,3,42.5
352,240,15730,2,0,B|304:264,3,42.5
288,280,16067,2,0,B|272:336,3,42.5
248,344,16404,6,0,B|160:344,1,85,4|0
176,280,16741,2,0,B|88:280,1,85
48,224,17078,1,0
48,224,17162,1,0
88,168,17331,1,0
88,168,17415,1,0
152,152,17584,1,0
128,88,17752,6,0,B|40:88,1,85,2|0
80,32,18089,2,0,B|168:32,1,85,2|0
232,40,18426,1,8
232,40,18511,1,0
288,80,18679,1,0
288,80,18764,1,8
328,136,18932,1,0
392,168,19101,6,0,B|392:80,1,85,2|0
460,83,19438,2,0,B|460:171,1,85,2|0
424,224,19775,1,8
424,224,19859,1,0
384,280,20028,1,0
384,280,20112,1,8
344,336,20280,1,0
272,336,20449,6,0,B|208:272,1,85,2|0
152,248,20786,2,0,B|216:312,1,85,2|0
264,272,21123,1,8
264,272,21207,1,0
216,224,21376,1,0
216,224,21460,1,8
168,176,21629,1,4
144,152,21713,1,4
120,128,21797,5,12
96,64,21966,1,0
32,64,22134,1,8
8,128,22303,1,0
64,168,22471,1,4
64,200,22556,1,4
64,232,22640,1,4
64,264,22724,1,4
64,296,22809,1,4
64,296,22977,1,0
120,336,23146,5,8
184,368,23314,1,0
248,336,23483,1,8
184,304,23651,1,0
184,304,23820,1,4
184,272,23904,1,4
184,240,23988,1,4
184,208,24073,1,4
184,176,24157,1,4
184,176,24325,1,0
264,120,24494,5,8
212,210,24663,1,0
302,262,24831,1,4
354,172,25000,1,0
280,88,25168,5,8
367,192,25337,1,0
263,280,25505,1,4
176,175,25674,1,0
296,56,25842,5,8
161,169,26011,1,0
275,292,26180,1,4
403,184,26348,1,0
256,192,26516,5,2
256,192,26601,1,2
256,192,26685,1,2
256,192,26769,1,2
256,192,26853,1,2
256,192,26938,1,2
256,192,27022,1,2
208,88,27191,6,0,B|144:152,1,85,8|0
24,88,27528,2,0,B|84:148,1,85,8|0
24,272,27865,2,0,B|84:211,1,85,8|0
208,272,28202,2,0,B|147:211,1,85,8|0
256,192,28539,6,0,B|344:192,1,85,4|0
408,296,28876,2,0,B|320:296,1,85,4|0
304,192,29213,2,0,B|392:192,1,85,4|0
360,296,29550,2,0,B|272:296,1,85,4|0
216,328,29887,6,0,B|160:328|136:288,1,85,2|0
24,264,30224,2,0,B|80:264|104:224,1,85,2|0
224,200,30561,2,0,B|168:200|144:160,1,85,2|0
24,144,30898,2,0,B|80:144|104:104,1,85,2|0
215,101,31235,6,0,B|256:75|296:102,1,85,14|0
165,233,31573,2,0,B|139:192|166:152,1,85,14|0
297,283,31910,2,0,B|256:309|216:282,1,85,14|0
347,151,32247,2,0,B|373:192|346:232,1,85,14|0
360,336,32584,5,2
427,336,32752,1,0
393,276,32921,1,4
460,276,33089,1,0
427,216,33258,1,8
427,216,33342,1,0
427,216,33426,1,0
495,216,33595,1,4
460,157,33764,1,0
392,152,33932,5,2
360,96,34101,1,0
296,96,34269,1,4
264,152,34438,1,0
328,152,34606,1,8
328,184,34691,1,0
328,216,34775,1,0
363,273,34943,1,2
294,273,35112,1,0
224,272,35280,5,2
168,232,35449,1,0
128,288,35617,1,4
184,328,35786,1,0
224,272,35955,1,8
224,272,36039,1,0
224,272,36123,1,0
168,232,36292,1,8
128,288,36460,1,0
72,248,36629,5,4
32,192,36797,1,0
72,136,36966,1,4
112,192,37134,1,8
144,184,37219,1,8
176,192,37303,1,8
208,200,37387,1,8
240,192,37471,1,8
272,184,37556,1,8
304,192,37640,1,8
336,200,37724,1,8
368,192,37809,1,8
435,192,37977,6,0,B|419:64|307:-8|101:37|87:274|174:381|436:378|471:268|466:80|324:59|254:117|238:184|279:208|316:194,1,765,4|0
376,200,39662,2,0,B|370:281|276:331,1,170,2|0
306,266,40168,2,0,B|260:334|154:330,1,170,2|0
221,304,40674,2,0,B|147:340|57:284,1,170,2|0
131,292,41179,2,0,B|49:286|0:192,1,170,2|0
72,192,41685,5,4
256,48,42022,1,4
440,192,42359,1,4
256,336,42696,1,4
256,336,42865,2,0,B|293:272|230:227|258:167,1,170,8|0
192,168,43370,6,0,B|160:96|192:32|256:8|320:32|352:96|318:172,1,340,2|0
256,170,44213,2,0,B|230:227|293:272|256:336,1,170,4|0
256,335,44719,1,8
128,288,45056,1,8
56,176,45393,1,8
56,176,45561,2,0,B|145:144|162:52,1,170,2|0
224,32,46067,2,0,B|317:116|224:184|136:240|226:337,1,340,2|0
296,336,46910,6,0,B|398:335|424:242,1,170,2|0
424,176,47415,1,8
352,64,47752,1,8
280,176,48089,1,8
352,176,48258,1,4
360,208,48342,1,4
352,240,48426,1,4
344,272,48511,1,4
352,304,48595,1,4
256,208,48764,12,0,50280
224,160,50449,6,0,B|209:99|118:119|96:47,1,170,2|4
224,224,50955,2,0,B|163:239|183:330|111:352,1,170,2|4
288,224,51460,2,0,B|303:285|394:265|416:337,1,170,2|4
288,160,51966,2,0,B|349:145|329:54|401:32,1,170,2|4
256,192,52472,5,8
40,192,52809,1,4
256,192,53146,1,8
472,192,53483,1,4
472,192,53651,2,0,B|444:259|366:219|328:288,1,170,2|0
288,328,54157,6,0,B|141:307|237:108|93:77,1,340,8|0
72,144,55000,2,0,B|164:144|221:72,1,170,2|0
219,73,55505,1,4
352,48,55842,1,2
456,136,56180,1,8
456,136,56348,2,0,B|364:136|308:206,1,170,4|0
367,239,56853,2,0,B|361:320|303:367|207:367|147:319|143:237,1,340,8|0
177,181,57696,6,0,B|257:234|338:180,1,170,2|0
322,114,58201,1,4
186,114,58538,1,2
322,114,58876,1,4
254,114,59044,1,8
230,89,59128,1,8
241,57,59212,1,8
275,57,59297,1,8
281,90,59381,1,8
256,208,59550,12,0,61067
296,352,61235,6,0,B|328:262|432:256,1,170,8|8
216,352,61741,2,0,B|184:262|80:256,1,170,8|8
296,160,62247,2,0,B|328:70|432:64,1,170,8|8
216,160,62752,2,0,B|184:70|80:64,1,170,8|8
128,192,63258,5,4
384,240,63595,1,2
128,288,63932,1,4
384,336,64269,1,2
384,336,64438,2,0,B|308:347|321:248|236:258,1,170,8|0
196,306,64943,6,0,B|91:287|53:192|92:98|200:77,1,340,2|0
256,112,65786,2,0,B|243:199|351:239,1,170,4|4
416,248,66292,1,4
480,128,66629,1,4
360,72,66966,1,4
360,72,67134,2,0,B|301:187|140:187,1,255,4|4
147,186,67809,1,4
256,208,67893,12,0,70168
32,352,70337,6,0,B|80:352|112:320,1,85,2|0
176,296,70674,1,8
240,320,70842,1,0
304,296,71011,1,4
328,272,71095,1,4
352,296,71179,1,4
416,320,71348,1,8
480,296,71516,1,0
480,224,71685,6,0,B|475:179|441:146,1,85,2|0
392,104,72022,1,8
328,72,72190,1,0
328,144,72359,1,4
296,160,72443,1,4
328,176,72528,1,4
392,208,72696,1,8
328,240,72865,1,0
260,240,73033,6,0,B|207:239|182:207,1,85,2|0
128,168,73370,1,4
72,128,73539,1,0
16,88,73707,1,8
32,56,73792,1,0
64,40,73876,1,8
128,64,74044,1,4
192,40,74213,1,0
256,64,74382,6,0,B|284:96|336:96,1,85,2|0
400,80,74719,1,8
456,120,74887,1,4
440,150,74971,1,4
413,172,75056,1,4
382,186,75140,1,4
350,199,75224,1,4
327,224,75308,1,4
315,256,75393,1,4
315,256,75561,1,0
256,192,75730,6,0,B|249:259|171:264|166:336,1,170,2|8
96,336,76235,1,0
96,264,76404,1,4
24,264,76573,1,0
24,192,76741,1,2
24,192,76825,1,2
24,192,76909,1,2
96,192,77078,6,0,B|103:125|181:120|186:48,1,170,4|8
248,32,77584,1,0
296,80,77752,1,2
248,128,77921,1,0
296,176,78089,1,8
296,208,78173,1,8
296,240,78258,1,8
328,296,78426,6,0,B|394:289|397:210|463:201,1,170,4|2
440,136,78932,1,0
384,168,79101,1,8
352,112,79269,1,0
408,80,79437,1,4
408,80,79522,1,4
408,80,79606,1,4
349,45,79775,6,0,B|293:82|239:26|180:68,1,170,8|8
136,112,80280,1,0
104,176,80449,1,14
120,208,80533,1,14
88,208,80617,1,14
72,176,80702,1,14
88,144,80786,1,14
120,144,80870,1,14
136,176,80954,1,14
184,224,81123,5,4
136,272,81292,1,0
72,288,81460,1,8
136,312,81629,1,0
184,360,81797,1,2
216,352,81882,1,0
216,288,82050,1,0
248,296,82134,1,2
312,312,82303,1,0
376,328,82471,5,8
400,264,82640,1,0
360,208,82809,1,8
400,264,82977,1,0
440,208,83146,1,4
440,208,83230,1,0
400,152,83398,1,0
400,152,83483,1,4
360,208,83651,1,0
288,208,83820,5,2
274,141,83988,1,0
238,82,84157,1,4
182,43,84325,1,0
114,32,84494,1,2
88,56,84578,1,0
40,104,84747,1,0
64,128,84831,1,8
64,128,85000,1,0
32,192,85168,5,2
67,250,85337,1,0
128,280,85505,1,8
192,248,85674,1,4
220,232,85758,1,4
252,221,85842,1,4
285,216,85926,1,4
318,221,86011,1,4
350,232,86095,1,4
378,248,86179,1,4
378,248,86348,1,0
448,248,86516,6,0,B|448:160,1,85,2|0
392,120,86853,1,2
392,48,87022,1,0
334,84,87191,1,12
342,116,87275,1,12
334,148,87359,1,12
326,180,87443,1,12
334,212,87528,1,12
334,279,87696,1,0
288,328,87865,6,0,B|200:328,1,85,2|0
144,296,88202,1,4
200,264,88370,1,0
144,232,88539,1,8
144,200,88623,1,8
176,200,88707,1,8
176,168,88792,1,8
208,168,88876,1,8
208,104,89044,1,0
184,40,89213,6,0,B|96:40,1,85,2|0
40,80,89550,1,8
104,112,89719,1,0
48,152,89887,1,2
32,184,89971,1,2
48,216,90056,1,2
64,248,90140,1,2
48,280,90224,1,2
48,280,90393,1,0
32,352,90561,5,4
480,352,90898,1,8
480,32,91235,1,8
32,32,91573,1,4
256,128,101348,5,2
288,136,101432,1,0
312,160,101516,1,2
320,192,101601,1,0
312,224,101685,1,2
288,248,101769,1,0
256,256,101853,1,2
224,248,101938,1,0
200,224,102022,1,2
192,192,102106,1,0
200,160,102191,1,2
224,136,102275,1,0
256,128,102359,1,2
288,136,102443,1,0
312,160,102528,1,2
256,192,102696,5,4
104,192,112134,5,2
136,208,112218,1,0
168,217,112302,1,2
202,213,112387,1,0
230,194,112471,1,2
238,161,112555,1,0
222,131,112639,1,2
191,115,112724,1,0
160,129,112808,1,2
143,158,112892,1,0
150,191,112977,1,2
172,215,113061,1,0
204,226,113146,1,2
237,225,113230,1,0
269,216,113314,1,2
416,148,113482,5,4
256,96,122921,5,2
248,128,123005,1,0
240,160,123089,1,2
232,192,123174,1,0
200,192,123258,1,2
168,192,123342,1,0
136,192,123426,1,2
256,288,123595,5,2
264,256,123679,1,0
272,224,123763,1,2
280,192,123848,1,0
312,192,123932,1,2
344,192,124016,1,0
376,192,124100,1,2
456,48,124269,5,8
432,72,124353,1,8
408,96,124438,1,8
384,120,124522,1,8
352,120,124606,1,8
384,120,124691,1,8
408,144,124775,1,8
432,168,124859,1,8
456,192,124943,1,8
488,192,125028,1,8
456,192,125112,1,8
432,216,125196,1,8
408,240,125280,1,8
384,264,125365,1,8
352,264,125449,1,8
256,352,125617,5,8
224,336,125702,1,8
192,320,125786,1,8
160,304,125870,1,8
128,288,125955,1,8
96,288,126039,1,8
80,320,126123,1,8
104,344,126207,1,8
136,328,126292,1,8
136,296,126376,1,8
136,264,126460,1,8
136,232,126544,1,8
136,200,126629,1,8
136,168,126713,1,8
136,136,126797,1,8
288,104,126966,5,4
264,80,127050,1,4
232,88,127134,1,4
216,120,127219,1,4
224,152,127303,1,4
248,176,127387,1,4
272,200,127471,1,4
296,224,127556,1,4
320,200,127640,1,4
344,176,127724,1,4
368,152,127808,1,4
376,120,127892,1,4
360,88,127977,1,4
328,80,128061,1,4
304,104,128145,1,4
424,216,128314,5,2
416,248,128398,1,2
392,272,128483,1,2
360,288,128567,1,2
328,288,128651,1,2
296,272,128735,1,2
272,248,128820,1,2
256,216,128904,1,2
240,248,128988,1,2
216,272,129073,1,2
184,288,129157,1,2
152,288,129241,1,2
120,272,129325,1,2
96,248,129410,1,2
88,216,129494,1,2
40,56,129662,5,2
64,80,129747,1,2
88,56,129831,1,2
112,80,129915,1,2
136,56,130000,1,2
160,80,130084,1,2
184,56,130168,1,2
208,80,130252,1,2
232,56,130337,2,0,B|267:81,6,42.5,2|2|2|2|2|2|2
256,192,131011,5,4
272,224,131096,1,4
296,248,131180,1,4
320,224,131264,1,4
336,192,131349,1,4
320,160,131433,1,4
296,136,131517,1,4
272,160,131601,1,4
256,192,131685,2,0,B|208:192,6,42.5,4|4|4|4|4|4|4
152,280,132359,5,8
168,312,132444,1,8
192,336,132528,1,8
224,352,132612,1,8
256,360,132697,1,8
288,352,132781,1,8
320,336,132865,1,8
344,312,132949,1,8
360,280,133034,2,0,B|392:248,6,42.5,8|8|8|8|8|8|8
408,104,133707,6,0,L|312:104|256:53,1,170,4|0
104,280,134382,2,0,L|200:280|256:331,1,170,4|0
24,192,135056,5,8
56,176,135140,1,8
88,192,135224,1,8
120,208,135309,1,8
152,192,135393,1,8
184,176,135477,1,8
216,192,135561,1,8
248,208,135646,1,8
280,192,135730,1,8
312,176,135814,1,8
344,192,135898,1,8
416,192,136067,1,4
480,192,136235,1,4
416,88,136404,5,4
392,64,136488,1,4
368,88,136573,1,4
344,64,136657,1,4
320,88,136741,1,4
288,88,136825,1,4
264,112,136910,1,4
240,88,136994,1,4
216,112,137078,1,4
192,88,137162,1,4
168,112,137247,1,4
104,112,137415,1,4
40,112,137584,1,4
48,280,137752,5,2
64,248,137837,1,2
88,224,137921,1,2
120,208,138005,1,2
152,224,138089,1,2
176,248,138174,1,2
192,280,138258,1,2
216,304,138342,1,2
248,320,138426,1,2
280,304,138511,1,2
304,280,138595,1,2
344,224,138764,1,4
376,160,138932,1,4
344,40,139101,6,0,B|296:24,1,42.5,4|0
272,40,139269,1,8
240,48,139353,2,0,B|192:40,1,42.5,2|0
168,56,139522,1,8
136,56,139606,2,0,B|88:72,1,42.5,4|0
64,72,139775,1,8
40,96,139859,2,0,B|24:136,1,42.5,2|0
40,168,140028,1,8
31,200,140112,2,0,B|55:248,1,42.5,4|0
32,272,140280,1,8
184,336,140449,6,0,B|224:352,1,42.5,2|0
256,344,140617,1,4
288,336,140701,2,0,B|328:320,1,42.5,2|0
360,320,140870,1,8
392,312,140955,2,0,B|424:280,1,42.5,2|0
440,248,141123,1,4
464,224,141207,2,0,B|456:176,1,42.5,2|0
464,152,141376,1,8
456,120,141460,2,0,B|464:72,1,42.5,2|0
448,48,141628,1,4
256,136,141797,6,0,B|256:48,1,85,2|0
200,192,142134,2,0,B|112:192,1,85,4|0
256,248,142471,2,0,B|256:336,1,85,8|0
320,192,142809,2,0,B|408:192,1,85,8|0
120,96,143146,6,0,B|200:136,1,85,2|0
392,96,143483,2,0,B|312:136,1,85,4|0
392,288,143820,2,0,B|312:248,1,85,2|0
120,288,144157,2,0,B|200:248,1,85,4|0
184,88,144494,5,14
200,120,144578,1,14
224,144,144662,1,14
256,160,144747,1,14
288,144,144831,1,14
312,120,144915,1,14
328,88,145000,1,14
328,296,145168,5,14
312,264,145252,1,14
288,240,145336,1,14
256,224,145421,1,14
224,240,145505,1,14
200,264,145589,1,14
184,296,145674,1,14
32,192,145842,5,4
