osu file format v5

[General]
AudioFilename: Kin-iro No Choushou ~uruwashi No Bansan~ .mp3
AudioLeadIn: 0
PreviewTime: -1
Countdown: 1
SampleSet: None
StackLeniency: 0.7
Mode: 0
LetterboxInBreaks: 1

[Editor]
DistanceSpacing: 0.800000011920929
BeatDivisor: 2
GridSize: 32

[Metadata]
Title:Kin-iro No Choushou
Artist:Shikata Akiko
Creator:alice999
Version:Normal
Source:
Tags:V1.0

[Difficulty]
HPDrainRate:5
CircleSize:4
OverallDifficulty:4
SliderMultiplier:2
SliderTickRate:4

[Events]
//Background and Video events
0,0,"5485704.jpg"
//Break Periods
2,104569,105291
2,124535,143584
2,203408,211005
//Storyboard Layer 0 (Background)
//Storyboard Layer 1 (Fail)
//Storyboard Layer 2 (Pass)
//Storyboard Layer 3 (Foreground)
//Storyboard Sound Samples
//Background Colour Transformations
3,100,163,162,255

[TimingPoints]
10018,599.820053983805,4,0,0,100,1,0
65312,638.297872340426,4,0,0,100,1,0
67781,599.820053983805,4,0,0,100,1,0
103780,631.578947368421,4,0,0,100,1,0
106341,599.820053983805,4,0,0,100,1,0
125590,599.820053983805,4,0,0,100,1,0
161550,722.89156626506,4,0,0,100,1,0
164220,599.820053983805,4,0,0,100,1,0

[HitObjects]
64,64,10017,1,0
64,64,10617,1,0
192,64,11217,2,0,B|355:64|353:62|353:62|424:64,1,200
480,64,12416,5,0
480,64,13016,1,2
384,64,13615,2,4,B|160:64|128:64,1,200
448,320,14815,5,0
448,320,15415,1,0
320,320,16015,2,0,B|96:320,1,200
32,320,17214,5,0
32,320,17814,1,2
128,320,18414,2,4,B|352:320,1,200
448,320,19614,5,0
448,64,20213,1,0
64,64,20813,1,0
64,320,21413,1,0
256,192,22013,5,2
256,192,22313,1,2
256,192,22613,1,2
448,64,24412,5,0
64,64,25012,1,0
64,320,25612,1,0
448,320,26212,1,0
256,192,26811,5,2
256,192,27111,1,2
256,192,27411,1,6
256,192,29211,12,0,31010
192,192,31610,5,0
256,192,31910,1,0
320,192,32210,1,0
256,192,34009,12,0,35808
256,256,36409,5,0
256,192,36709,1,0
256,128,37009,1,0
64,64,38808,5,0
64,128,39108,1,0
64,192,39408,1,0
160,192,39708,5,0
160,128,40008,1,0
160,64,40307,1,0
256,64,40607,5,0
256,128,40907,1,0
256,192,41207,1,0
256,256,41508,1,0
256,320,41807,1,4
256,32,43606,5,0
256,96,43906,1,0
256,160,44207,1,0
256,224,44506,5,0
256,288,44806,1,0
256,224,45106,1,0
192,192,45406,5,0
256,192,45706,1,0
320,192,46006,1,0
320,192,46307,1,0
256,192,46606,1,4
256,192,47205,12,0,47805
64,64,48405,5,0
128,64,48705,1,0
192,64,49005,1,0
256,64,49305,1,0
320,64,49605,6,0,B|448:64,1,100
416,128,50204,2,0,B|288:128,1,100
256,128,50804,5,0
192,128,51104,1,0
128,128,51404,2,0,B|0:128,1,100
28,128,52004,1,4
448,320,53204,5,0
384,320,53503,1,0
320,320,53803,1,0
256,320,54103,1,0
192,320,54403,6,0,B|64:320,1,100
96,256,55003,2,0,B|224:256,1,100
256,256,55603,5,2
352,256,56203,1,2
352,256,56503,1,2
352,256,56802,1,6
55,59,58002,5,0
70,136,58302,1,0
142,110,58602,1,0
146,185,58902,1,0
212,151,59202,6,0,B|294:85,1,100
354,124,59802,2,0,B|265:196,1,100
192,256,60401,5,2
192,256,60701,1,2
288,288,61001,1,2
288,288,61301,1,2
384,256,61601,1,6
96,64,62801,5,0
416,64,63400,1,0
416,320,64000,1,0
96,320,64600,1,0
256,192,65183,12,0,67282
64,64,67781,5,2
64,64,68081,1,2
160,64,68381,1,0
160,64,68681,1,2
256,64,68981,5,2
256,64,69281,1,8
352,64,69581,1,2
352,64,69881,1,8
448,64,70180,6,2,B|448:192,1,100
384,160,70780,2,2,B|384:32,1,100
320,64,71380,2,2,B|320:192,1,100
320,160,71979,5,2
288,192,72280,1,4
256,192,72579,1,4
256,192,72879,1,4
256,192,73179,1,4
192,192,73479,5,2
320,192,73778,1,2
192,192,74078,1,2
320,192,74378,1,2
256,128,74678,5,2
256,256,74978,1,2
256,128,75278,1,2
256,256,75578,1,2
320,160,75878,5,2
192,224,76178,1,2
320,224,76478,1,2
192,160,76778,1,2
256,192,77078,1,4
256,192,77678,5,2
288,160,78577,5,0
224,224,78877,1,0
288,160,79177,1,0
224,224,79477,1,0
288,224,79777,6,0,B|384:288,1,100
224,160,80376,2,0,B|128:96,1,100
140,104,80976,5,0
140,104,81275,1,0
352,256,81575,1,0
352,256,81875,1,0
256,192,82176,5,2
256,192,82776,1,2
256,192,83376,1,2
256,192,83976,1,2
256,192,84575,5,2
256,192,84875,1,2
256,192,85175,1,8
224,64,86975,6,0,B|32:0|0:192|32:224,1,300
25,269,88175,1,0
25,269,88700,1,0
93,292,89374,6,0,B|353:234|308:74|293:68,1,300
305,113,90573,1,4
342,42,91773,6,0,B|502:170|406:330,1,300
363,340,92973,2,0,B|144:260|189:117|189:117|184:135,1,300
186,127,94173,1,0
187,58,94772,6,0,B|68:59,2,100
187,58,95972,1,4
259,64,96572,6,0,B|381:64,1,100
433,66,97172,1,2
433,66,97472,1,2
434,131,97772,6,0,B|433:237,1,100
435,296,98371,1,2
435,296,98671,1,2
364,296,98971,2,0,B|245:296,1,100
197,294,99571,2,0,B|84:293,1,100
26,294,100171,5,2
25,222,100471,1,2
26,151,100771,1,2
27,80,101071,1,2
97,79,101370,2,0,B|204:79,3,100
256,192,102870,12,4,104369
154,142,106341,5,4
226,143,106940,1,0
226,143,107240,1,0
297,144,107540,6,0,B|383:74,1,100
432,122,108140,2,0,B|335:199,1,100
291,223,108740,5,0
291,223,109040,1,0
239,274,109340,2,0,B|155:340,1,100
160,335,109939,1,8
64,320,110539,5,0
64,320,110839,1,2
64,192,111139,1,8
224,192,111739,5,2
224,192,112039,1,2
352,192,112339,1,8
352,288,112639,1,8
160,96,112938,5,8
352,96,113238,1,8
160,288,113538,1,8
352,288,113838,5,8
160,96,114138,1,8
352,96,114438,1,8
160,288,114738,1,8
288,224,115038,5,8
224,160,115338,1,8
288,160,115638,1,8
224,224,115938,1,8
288,224,116238,5,8
224,160,116537,1,8
288,160,116837,1,8
224,224,117137,1,8
256,192,117737,5,4
256,192,118337,12,4,119836
128,96,121336,5,0
384,96,121636,1,0
384,288,121936,1,0
128,288,122236,1,0
128,288,122536,5,0
384,288,122836,1,0
384,96,123135,1,0
128,96,123435,1,0
256,192,123735,5,0
256,192,124035,1,0
256,192,124335,1,8
64,64,144784,6,0,B|192:64,1,100
224,64,145384,1,2
288,64,145683,1,2
352,64,145983,6,0,B|480:64,1,100
448,128,146583,1,2
384,128,146883,1,2
320,128,147183,6,0,B|160:128,1,100
160,128,147783,1,2
96,128,148083,1,2
160,128,148383,1,4
448,320,149582,6,0,B|320:320,1,100
288,320,150182,1,2
224,320,150482,1,2
160,320,150782,6,0,B|32:320,1,100
64,256,151382,1,2
128,256,151682,1,2
192,256,151982,6,0,B|320:256,1,100
352,256,152581,1,2
416,256,153181,1,2
352,256,153481,1,8
352,256,153781,1,8
285,256,154381,5,0
325,196,154681,1,0
363,134,154981,1,0
398,73,155281,1,0
330,47,155581,6,0,B|216:232,1,200
152,197,156480,1,2
190,143,156780,2,0,B|247:57,1,100
171,47,157380,5,2
127,107,157680,2,0,B|67:189,1,100
67,187,158580,1,4
256,192,159179,12,4,163718
64,64,164220,5,0
64,64,164519,1,0
128,64,164819,1,8
192,64,165419,5,0
192,64,165719,1,0
256,64,166019,1,8
320,64,166619,6,0,B|448:64,3,100
416,64,167818,1,8
416,64,168118,1,8
416,128,168418,6,0,B|416:256,1,100
354,259,169018,1,8
288,224,169318,6,0,B|288:96,1,100
224,96,169918,1,8
160,128,170218,6,0,B|160:256,1,100
160,228,170818,1,2
160,228,171117,1,2
96,224,171417,6,2,B|96:96,3,100
96,124,172617,1,4
96,124,173817,5,0
96,124,174416,5,0
32,64,174716,1,2
96,124,175016,1,0
128,32,175316,5,2
96,124,175616,1,0
192,96,175916,1,2
96,124,176216,5,0
192,192,176516,1,2
96,124,176816,1,0
96,224,177116,5,2
96,124,177416,1,8
256,192,178015,12,8,179815
376,262,180415,5,0
414,204,180715,1,0
412,128,181014,1,0
414,204,181314,5,0
412,128,181614,1,0
375,61,181914,1,0
256,191,182214,1,4
256,191,182814,5,0
189,190,183114,1,2
192,192,183414,2,0,B|55:192,1,100
96,192,184014,5,2
96,192,184313,1,0
32,64,184613,1,8
32,64,185213,5,2
128,64,185513,1,2
96,192,185813,1,8
96,192,186413,5,2
96,192,186713,1,2
192,128,187013,1,8
192,256,187612,5,2
192,256,187912,1,2
96,192,188212,1,8
96,288,188812,5,2
96,192,189112,1,8
96,192,189412,1,2
256,192,189712,5,8
256,192,190012,1,8
256,192,190312,2,0,B|384:192,1,100
356,192,190911,2,0,B|480:192,1,100
456,192,191511,5,8
414,263,191811,1,8
416,121,192111,1,8
416,121,192411,1,4
64,64,193011,5,0
128,64,193311,1,0
192,64,193611,1,0
256,64,194211,2,0,B|384:64,3,100
416,64,195410,5,2
416,128,195710,1,0
416,192,196010,1,0
352,192,196610,2,0,B|224:192,3,100
188,192,197809,5,2
288,192,198109,1,0
384,192,198409,1,8
384,192,199009,5,2
384,96,199309,1,0
244,126,199609,1,2
139,196,199909,1,2
47,277,200209,1,2
47,277,200509,6,2,B|40:167,1,100
47,277,201108,2,2,B|139:205,1,100
47,277,201708,2,2,B|177:307,1,100
256,192,202308,12,0,203208
256,192,212205,5,2
96,192,212805,5,0
96,128,213105,2,0,B|96:0,1,100
96,32,213705,1,0
256,192,214005,1,2
256,192,214604,5,2
416,192,215204,5,0
416,256,215504,2,0,B|416:384,1,100
416,352,216104,1,0
256,192,216404,1,4
96,256,217004,5,0
416,128,217603,1,0
96,320,218203,1,0
416,64,218803,5,0
320,32,219103,1,0
416,64,219403,1,0
320,128,219703,5,0
416,64,220003,1,0
416,160,220303,1,0
416,64,220603,5,0
320,128,220902,1,0
320,32,221202,1,4
224,64,221802,5,0
160,128,222402,1,0
96,192,222702,1,0
32,256,223002,1,2
288,320,224202,5,0
352,256,224801,1,0
416,192,225101,1,0
480,128,225401,1,4
448,64,226601,5,8
320,64,227201,2,8,B|192:64,1,100
160,64,227800,2,8,B|32:64,1,100
64,128,228400,6,8,B|64:256,1,100
128,224,229000,2,8,B|256:224,1,100
288,224,229600,5,2
352,224,229900,1,2
416,224,230200,1,4
