osu file format v5

[General]
AudioFilename: Umineko no Naku koro ni OP - Katayoku no Tori (TV size).mp3
AudioLeadIn: 971
PreviewTime: -1
Countdown: 1
SampleSet: Normal
StackLeniency: 0.2
Mode: 0
LetterboxInBreaks: 1

[Editor]
Bookmarks: 88965
DistanceSpacing: 1.39999997615814
BeatDivisor: 4
GridSize: 16

[Metadata]
Title:Katayoku no Tori (TV Size)
Artist:Shikata Akiko
Creator:yeahyeahyeahhh
Version:Maria
Source:Umineko no Naku Koro ni
Tags:Umineko, Inozuma

[Difficulty]
HPDrainRate:5
CircleSize:4
OverallDifficulty:5
SliderMultiplier:1.6
SliderTickRate:2

[Events]
//Background and Video events
0,0,"2707095.jpg"
Video,192,"Opening.avi"
//Break Periods
//Storyboard Layer 0 (Background)
//Storyboard Layer 1 (Fail)
//Storyboard Layer 2 (Pass)
//Storyboard Layer 3 (Foreground)
//Storyboard Sound Samples
//Background Colour Transformations
3,100,163,162,255

[TimingPoints]
600,545.454545454545,4,1,0,100,1,0
13554,-100,4,2,0,100,0,0
26236,-100,4,2,0,69,0,0
38099,-100,4,2,0,80,0,0
38918,-100,4,2,0,100,0,0
39736,-100,4,1,0,100,0,0
41099,-100,4,2,0,100,0,0
41372,-100,4,2,0,91,0,0
41645,-100,4,2,0,80,0,0
41918,-100,4,2,0,70,0,0
42190,-100,4,2,0,60,0,0
42463,-100,4,2,0,50,0,0
43009,-100,4,1,0,100,0,0
44372,-100,4,2,0,100,0,0
44645,-100,4,2,0,90,0,0
44918,-100,4,2,0,80,0,0
45190,-100,4,2,0,70,0,0
45463,-100,4,2,0,61,0,0
45736,-100,4,2,0,50,0,0
46430,-100,4,2,0,100,0,0
47452,-100,4,2,0,80,0,0
47656,-100,4,2,0,60,0,0
47861,-100,4,2,0,40,0,0
48679,-100,4,2,0,100,0,0
49088,-100,4,2,0,80,0,0
49292,-100,4,2,0,60,0,0
49497,-100,4,2,0,40,0,0
55836,-100,4,2,0,0,0,0
56654,-100,4,2,0,60,0,0
56927,-100,4,2,0,71,0,0
57200,-100,4,2,0,80,0,0
57472,-100,4,2,0,100,0,0
57745,-100,4,1,0,100,0,1

[Colours]
Combo1 : 102,0,0
Combo2 : 160,160,0

[HitObjects]
448,192,600,2,4,B|400:224|368:224|320:176,1,120
272,144,1418,1,8
64,192,1963,5,0
64,192,2236,2,4,B|96:224|128:224|176:192,1,120
240,144,3054,1,8
368,48,3599,5,0
368,48,3872,2,4,B|416:80|416:112|368:160,1,120
320,208,4690,1,8
128,208,5236,5,0
128,208,5509,2,4,B|96:272|160:304,1,80
192,336,6054,1,0
272,336,6327,1,8
464,336,7145,6,4,B|416:304|416:256|480:224,1,120
432,160,7963,2,0,B|336:160,2,80,8|0|0
464,80,8781,6,4,B|432:48|384:48|336:96,1,120
272,80,9599,2,0,B|272:176,2,80,8|0|0
192,80,10418,6,4,B|144:48|112:48|64:96,1,120
96,160,11236,2,0,B|208:160,2,80,8|0|0
80,240,12054,2,4,B|96:288|144:272,1,80
208,224,12599,1,0
272,272,12872,1,8
448,64,13690,6,0,B|400:96|384:96|336:48|320:48|272:64,1,160
224,96,14509,1,8
48,288,15054,5,0
128,288,15327,2,0,B|176:256|192:256|240:304|256:304|304:288,1,160
352,256,16145,1,8
464,192,16690,5,2
416,128,16963,1,2
240,112,17509,1,0
288,176,17781,1,8
96,192,18327,1,2
48,128,18599,2,0,B|96:96|112:96|160:144|176:144|224:128,1,160
272,96,19418,1,8
448,320,20236,5,0
256,192,20781,1,2
256,192,21054,1,8
64,64,21872,5,0
256,192,22418,1,2
256,192,22690,1,8
128,304,23236,5,0
208,304,23509,2,2,B|256:272|272:272|320:320|336:320|384:304,1,160
432,304,24327,1,8
256,192,24599,12,4,25963
256,192,26509,5,0
256,192,26781,2,0,B|304:160|320:160|368:208|384:208|432:192,1,160
480,160,27599,1,8
256,192,28145,5,0
256,192,28418,2,0,B|208:160|192:160|144:208|128:208|80:192,1,160
32,160,29236,1,8
256,96,29781,5,2
176,144,30054,1,2
208,224,30327,1,2
304,224,30599,1,2
336,144,30872,1,8
256,96,31145,2,0,B|208:64|160:112,1,80
96,96,31690,2,0,B|144:176|144:224|80:336,1,240,0|8
96,96,33327,6,0,B|144:64|160:64|208:112|224:112|272:96,1,160
320,64,34145,1,8
464,304,34963,6,0,B|416:336|400:336|352:288|336:288|288:304,1,160,0|0
240,336,35781,1,8
160,336,36054,1,2
96,288,36327,1,2
48,224,36600,2,0,B|96:192|112:192|160:240|176:240|224:224,1,160
176,143,37418,2,0,B|199:153|215:153|263:105|279:105|327:137,1,160,8|0
256,192,38236,5,6
256,192,39054,1,12
256,96,39872,5,4
160,192,40281,1,4
256,288,40690,1,4
256,288,40963,1,4
256,192,41236,12,0,42872
256,96,43145,5,4
352,192,43554,1,4
256,288,43963,1,4
256,288,44236,1,4
256,192,44509,12,0,46418
80,48,47236,5,2
112,128,47509,1,2
176,176,47781,1,2
256,192,48054,1,2
432,336,48872,5,2
400,256,49145,1,2
336,208,49417,1,2
256,192,49690,2,0,B|256:256|192:304|144:304,1,160
96,256,50509,2,0,B|96:192|160:144|208:144,1,160
194,145,51327,1,4
256,192,52145,12,0,55827
64,320,56781,5,2
136,288,57054,1,2
192,232,57327,1,2
232,160,57600,1,2
256,80,57872,5,4
256,288,58690,1,8
176,192,58963,2,4,B|144:176|96:208|64:176,1,80
97,191,59509,1,0
352,320,60054,1,0
416,256,60327,1,8
352,80,60872,5,0
416,128,61145,1,4
256,192,61690,1,0
176,192,61963,1,8
80,64,62509,1,0
160,64,62781,2,4,B|208:32|240:32|288:96|320:96|400:64,1,240,4|8
64,320,64418,5,0
256,272,64963,1,0
320,320,65236,1,8
448,64,65781,1,0
368,64,66054,2,4,B|320:32|288:32|240:96|208:96|128:64,1,240,4|8
96,304,67418,5,0
176,304,67690,2,0,B|240:272|256:240|256:208|256:160,1,160
255,178,68509,2,0,B|256:64|304:48|352:48|384:64|400:128,1,240,8|0
464,336,69872,5,4
384,336,70145,1,8
304,336,70418,1,4
224,336,70690,1,4
144,336,70963,2,0,B|96:336|64:336|32:288|32:224|32:144,1,240,0|8
32,32,72327,1,0
112,32,72599,2,0,B|176:32|208:48|208:80|208:160,1,160
208,128,73418,1,8
128,240,73963,5,0
176,304,74236,1,4
384,144,74781,1,0
336,80,75054,1,8
80,80,75600,5,4
80,160,75872,2,4,B|80:240|96:272|128:304|240:304,1,240,4|8
432,304,77236,1,4
336,304,77509,2,0,B|288:272|272:272|224:320|208:320|160:288,1,160
112,304,78327,5,8
112,112,78872,1,0
176,64,79145,2,4,B|208:48|256:80|288:48,1,80
336,64,79690,1,0
400,112,79963,1,8
400,272,80509,1,0
336,320,80781,1,4
176,320,81327,1,0
112,272,81599,2,0,B|176:256|192:224|208:192|208:144|176:64,1,240,8|0
400,272,83236,2,0,B|336:256|320:224|304:192|304:144|336:64,1,240,8|0
256,32,84327,5,0
192,85,84599,2,0,B|192:133|176:165|144:181|80:197,1,160
96,192,85418,1,0
96,277,85690,2,0,B|144:277|176:309|176:357,2,120
96,192,86781,1,0
176,192,87054,1,0
256,192,87327,2,4,B|256:304,1,80
336,192,87872,2,4,B|336:80,1,80
416,192,88418,1,4
336,192,88690,1,4
256,192,88963,1,4
