osu file format v7

[General]
AudioFilename: Katakoi.mp3
AudioLeadIn: 0
PreviewTime: 51946
Countdown: 0
SampleSet: Normal
StackLeniency: 0.7
Mode: 0
LetterboxInBreaks: 1

[Editor]
Bookmarks: 20709,42215,51803,80102,124019,144277,165772,175669,194535
DistanceSpacing: 1.60000002384186
BeatDivisor: 4
GridSize: 8

[Metadata]
Title:Katakoi
Artist:Shikata Akiko
Creator:Azure-Wrath
Version:Hard
Source:Umineko no Naku Koro Ni
Tags:Dusty

[Difficulty]
HPDrainRate:7
CircleSize:4
OverallDifficulty:7
SliderMultiplier:1.2
SliderTickRate:0.5

[Events]
//Background and Video events
0,0,"image.jpg"
//Break Periods
2,72867,80427
//Storyboard Layer 0 (Background)
//Storyboard Layer 1 (Fail)
//Storyboard Layer 2 (Pass)
//Storyboard Layer 3 (Foreground)
//Storyboard Sound Samples
//Background Colour Transformations
3,100,0,128,255

[TimingPoints]
18235,618.556701030928,4,2,0,100,1,0
24884,-100,4,1,0,50,0,0
25193,-100,4,2,0,100,0,0
27358,-100,4,1,0,60,0,0
27667,-100,4,2,0,100,0,0
28595,-100,4,1,0,60,0,0
28905,-100,4,2,0,100,0,0
29832,-100,4,1,0,60,0,0
30142,-100,4,2,0,100,0,0
31700,-200,4,1,0,50,0,0
32782,-200,4,2,0,100,0,0
34097,-100,4,2,0,100,0,0
34781,-100,4,1,0,60,0,0
35256,-200,4,2,0,100,0,0
35952,-100,4,2,0,100,0,0
37332,-100,4,1,0,60,0,0
37487,-100,4,2,0,100,0,0
39729,-100,4,1,0,60,0,0
40039,-100,4,2,0,100,0,0
42060,-100,4,2,0,100,0,0
42911,-50,4,1,0,40,0,0
43131,-50,4,2,0,100,0,0
43441,-50,4,1,0,40,0,0
43750,-50,4,2,0,100,0,0
44059,-50,4,1,0,40,0,0
44369,-50,4,2,0,100,0,0
45374,-50,4,1,0,40,0,0
45606,-50,4,2,0,100,0,0
45915,-50,4,1,0,40,0,0
46224,-50,4,2,0,100,0,0
46533,-50,4,1,0,40,0,0
46997,-50,4,2,0,100,0,0
47848,-50,4,1,0,40,0,0
48080,-50,4,2,0,100,0,0
48389,-50,4,1,0,40,0,0
48698,-50,4,2,0,100,0,0
49008,-50,4,1,0,40,0,0
49317,-50,4,2,0,100,0,0
49626,-50,4,1,0,40,0,0
49936,-50,4,2,0,100,0,0
50256,-100,4,1,0,50,0,0
52796,-50,4,1,0,50,0,0
52874,-50,4,1,0,50,0,1
62086,-100,4,1,0,50,0,1
63080,-50,4,1,0,50,0,1
71585,-50,4,1,0,40,0,0
71894,-50,4,2,0,50,0,1
72215,-100,4,2,0,70,0,1
72513,-100,4,2,0,85,0,0
72667,-100,4,2,0,85,0,1
72977,-100,4,2,0,85,0,0
81648,-100,4,1,0,40,0,0
82100,-100,4,2,0,60,0,0
82410,-100,4,2,0,50,0,0
82874,-100,4,1,0,40,0,0
83338,-100,4,2,0,60,0,0
83647,-100,4,2,0,50,0,0
84652,-100,4,1,0,30,0,0
84884,-200,4,2,0,50,0,0
85657,-200,4,1,0,30,0,0
85735,-200,4,2,0,50,0,0
87049,-50,4,1,0,30,0,0
87281,-50,4,2,0,50,0,0
87436,-50,4,1,0,30,0,0
87822,-100,4,1,0,30,0,0
88286,-100,4,2,0,70,0,0
88595,-100,4,2,0,60,0,0
89842,-100,4,2,0,60,0,0
90606,-100,4,1,0,30,0,0
91224,-100,4,2,0,40,0,0
91688,-100,4,2,0,30,0,0
92152,-100,4,1,0,50,0,0
92771,-100,4,2,0,70,0,0
93235,-100,4,2,0,50,0,0
93698,-100,4,2,0,30,0,0
94162,-100,4,1,0,40,0,0
94472,-100,4,1,0,25,0,0
94792,-200,4,1,0,40,0,0
95709,-200,4,2,0,50,0,0
95941,-100,4,2,0,50,0,0
96637,-100,4,1,0,40,0,0
96946,-100,4,1,0,25,0,0
97255,-100,4,1,0,50,0,0
97564,-100,4,1,0,25,0,0
98040,-100,4,2,0,70,0,0
98415,-100,4,1,0,25,0,0
98802,-100,4,2,0,50,0,0
99188,-100,4,1,0,25,0,0
99432,-200,4,1,0,25,0,0
99652,-200,4,1,0,30,0,0
99807,-200,4,1,0,40,0,0
100889,-100,4,1,0,30,0,0
101276,-100,4,2,0,50,0,0
101662,-100,4,1,0,30,0,0
101894,-100,4,1,0,20,0,0
102281,-100,4,1,0,35,0,0
102513,-100,4,1,0,30,0,0
102745,-100,4,1,0,20,0,0
103209,-100,4,1,0,30,0,0
103452,-200,4,1,0,50,0,0
104533,-200,4,1,0,40,0,0
105606,-200,4,2,0,70,0,0
105838,-100,4,2,0,70,0,0
107152,-200,4,1,0,30,0,0
107925,-200,4,1,0,50,0,0
108389,-200,4,1,0,40,0,0
108698,-100,4,1,0,30,0,0
109085,-100,4,1,0,30,0,0
109329,-100,4,2,0,70,0,0
109704,-100,4,1,0,40,0,0
111482,-100,4,1,0,30,0,0
111791,-100,4,2,0,70,0,0
112178,-100,4,1,0,40,0,0
112642,-100,4,1,0,30,0,0
113106,-100,4,1,0,40,0,0
113338,-100,4,1,0,50,0,0
113802,-100,4,1,0,40,0,0
123942,-100,4,2,0,70,0,0
124549,-50,4,1,0,60,0,0
124626,-50,4,1,0,60,0,1
124781,-50,4,1,0,50,0,1
128879,-50,4,1,0,60,0,1
129111,-50,4,1,0,50,0,1
133839,-100,4,1,0,40,0,1
134369,-50,4,1,0,50,0,1
135076,-50,4,1,0,50,0,1
138787,-100,4,1,0,50,0,0
140023,-50,4,1,0,50,0,0
141803,-100,4,1,0,50,0,0
143338,-100,4,2,0,100,0,0
145812,-100,4,2,0,70,0,0
146740,-50,4,1,0,50,0,0
149832,-100,4,2,0,70,0,0
150451,-100,4,1,0,50,0,0
154162,-100,4,2,0,70,0,0
154472,-100,4,1,0,30,0,0
154858,-100,4,2,0,70,0,0
155090,-100,4,1,0,30,0,0
155477,-100,4,2,0,70,0,0
156637,-50,4,1,0,50,0,0
158802,-50,4,1,0,40,0,0
159111,-100,4,2,0,70,0,0
160425,-100,4,1,0,30,0,0
160580,-100,4,2,0,70,0,0
160966,-100,4,1,0,30,0,0
162667,-100,4,1,0,60,0,0
163131,-100,4,2,0,70,0,0
163441,-100,4,1,0,30,0,0
163750,-100,4,2,0,70,0,0
164369,-100,4,2,0,60,0,0
164678,-100,4,1,0,40,0,0
164987,-100,4,2,0,50,0,0
165606,-100,4,2,0,70,0,0
165915,-100,4,1,0,40,0,0
166224,-100,4,2,0,60,0,0
166843,-100,4,2,0,50,0,0
167152,-100,4,1,0,30,0,0
167461,-100,4,2,0,50,0,0
168080,-100,4,2,0,80,0,0
168389,-100,4,1,0,50,0,0
168698,-100,4,2,0,80,0,0
169317,-100,4,2,0,60,0,0
169626,-100,4,1,0,34,0,0
169936,-100,4,2,0,60,0,0
170399,-200,4,2,0,70,0,0
171173,-200,4,1,0,40,0,0
172874,-100,4,2,0,70,0,0
173338,-100,4,1,0,40,0,0
173647,-100,4,2,0,70,0,0
174265,-100,4,2,0,60,0,0
174575,-100,4,1,0,30,0,0
174884,-100,4,2,0,50,0,0
175503,-100,4,2,0,70,0,0
175812,-100,4,1,0,40,0,0
176121,-100,4,2,0,70,0,0
176740,-100,4,2,0,60,0,0
177049,-100,4,1,0,30,0,0
177358,-100,4,2,0,50,0,0
177977,-100,4,2,0,70,0,0
178286,-100,4,1,0,40,0,0
178595,-100,4,2,0,70,0,0
179523,-100,4,1,0,34,0,0
179832,-100,4,2,0,50,0,0
180451,-100,4,2,0,70,0,0
180760,-100,4,1,0,30,0,0
181070,-100,4,1,0,50,0,0
182925,-100,4,1,0,70,0,0
184162,-100,4,2,0,70,0,0
184472,-100,4,1,0,45,0,0
185399,-100,4,2,0,70,0,0
185709,-100,4,1,0,45,0,0
186018,-100,4,2,0,70,0,0
186946,-100,4,1,0,45,0,0
187255,-100,4,2,0,70,0,0
188183,-100,4,1,0,45,0,0
189111,-100,4,2,0,70,0,0
189420,-100,4,1,0,45,0,0
190348,-100,4,2,0,70,0,0
190657,-100,4,1,0,45,0,0
190966,-100,4,2,0,70,0,0
192049,-100,4,1,0,45,0,0
193209,-100,4,1,0,60,0,0
193441,-100,4,1,0,50,0,0
193905,-50,4,1,0,50,0,1
202410,-100,4,1,0,50,0,0
202564,-100,4,1,0,50,0,1
203647,-100,4,2,0,60,0,1
206121,-100,4,2,0,60,0,0
206276,-100,4,2,0,60,0,1
206430,-100,4,2,0,60,0,0

[Colours]
Combo1 : 255,177,140
Combo2 : 119,187,255
Combo3 : 151,151,253
Combo4 : 253,164,164

[HitObjects]
120,288,23183,6,0,B|48:208|128:112,1,180
184,160,24265,2,0,B|232:112|168:64,1,90,0|0
272,312,25039,5,0
416,80,25348,5,0
448,128,25503,1,0
416,176,25657,1,0
296,168,25966,2,0,B|240:216|304:288,1,120
296,272,26894,2,0,B|240:328|168:280,1,120
88,288,27822,5,0
136,304,27977,1,0
184,288,28131,1,0
176,192,28441,1,0
176,192,28750,6,0,B|224:192,2,30
88,120,29369,2,4,B|104:48|192:32,1,120,0|0
432,64,30296,5,0
320,128,30606,2,0,B|352:160|400:160,1,60
432,176,31070,2,0,B|400:208|368:208,1,60
320,224,31533,1,0
432,296,31843,2,2,B|400:328|368:328,1,60,0|2
96,80,33080,6,0,B|56:128|104:168,1,90,4|0
160,168,34162,2,0,B|216:240|152:312,1,150,0|0
368,184,35554,6,0,B|368:136,1,30,0|0
424,112,36018,2,0,B|480:192|416:256,1,150
240,80,37100,5,0
272,80,37255,1,0
240,80,37410,1,0
88,200,37719,6,0,B|88:232,1,30,0|0
88,296,38028,2,0,B|176:360|272:288,1,180,0|0
360,240,39265,5,2
152,144,39575,1,2
256,192,39884,1,0
400,72,40193,6,0,B|400:128,2,30
400,192,40812,2,0,B|384:256|320:288,1,120
328,283,41740,1,2
96,336,42358,5,2
160,208,42667,1,0
192,272,42822,1,0
192,272,42977,2,0,B|64:272,4,120,0|0|0|0|4
336,176,44523,5,2
457,124,44832,1,2
352,72,45142,1,0
390,134,45296,1,0
390,134,45451,2,0,B|390:262,4,120,0|0|0|0|4
128,48,47307,5,2
176,176,47616,1,0
208,112,47771,1,0
208,112,47925,2,0,B|80:112,4,120,0|0|0|0|4
432,192,49472,5,2
256,320,49781,1,0
80,192,50090,1,2
312,80,50399,6,0,B|256:48|192:80,2,120,4|0|4
448,240,52255,6,2,B|416:264|392:240,1,60,0|0
336,160,52719,1,0
336,160,52874,2,0,B|304:128|272:176,2,60
192,72,53492,6,0,B|240:120|192:184,1,120,8|0
80,224,53956,2,0,B|16:128|96:32,1,180
192,272,54729,1,8
296,64,55039,1,2
400,272,55348,2,0,B|352:208|400:160,1,120
464,264,55812,2,0,B|512:200|464:152,1,120
160,64,56430,5,0
64,128,56585,2,0,B|32:176|80:192,2,60
128,280,57204,6,0,B|192:312|256:272,1,120,8|0
224,160,57667,2,0,B|264:136|288:176,3,60
448,192,58441,6,0,B|496:256|432:320,1,120,8|0
352,224,58905,2,0,B|288:136|376:56,1,180
336,304,59678,1,2
128,192,59987,1,2
336,80,60296,2,0,B|392:32|448:24,1,120
336,80,60760,2,0,B|280:32|224:24,1,120
64,112,61379,5,2
176,80,61533,2,0,B|191:110|176:144,2,60
144,256,62152,6,2,B|192:304|264:272,1,120,8|4
448,176,63389,6,0,B|416:248|336:240,1,120,8|0
288,144,63853,2,2,B|328:48|464:64,1,180
328,280,64626,1,8
224,64,64936,1,2
80,256,65245,2,0,B|144:224|208:256,1,120
304,312,65709,2,2,B|256:344|176:312,1,120
400,184,66327,5,2
432,80,66482,2,0,B|400:64|368:80,2,60
240,208,67100,6,0,B|272:256|208:336,1,120,8|0
160,208,67564,2,0,B|96:112|192:48,1,180,0|0
48,248,68338,2,0,B|16:312|64:376,1,120,8|0
120,248,68802,2,0,B|208:168|112:56,1,180,0|0
384,112,69575,1,8
384,112,69884,1,2
368,320,70193,6,0,B|304:288|304:208,1,120,2|2
304,224,70657,1,0
304,224,70812,2,0,B|272:176|240:176,1,60,8|2
262,181,71121,1,0
72,192,71430,5,0
256,336,71740,1,0
448,192,72049,1,4
256,48,72358,2,0,B|256:96,2,30,0|0|4
256,192,81327,5,4
64,96,81946,6,0,B|96:64|144:64,2,60,0|0|4
448,288,83183,2,0,B|416:320|368:320,2,60,0|0|2
445,89,84265,6,2,B|425:60|393:71,1,60
392,72,84729,1,0
80,288,85039,6,0,B|112:320|160:320,2,60,2|0|2
256,320,86585,1,0
256,320,86740,1,2
256,320,86894,1,2
64,224,87204,6,0,B|33:193|80:160,2,60,0|0|4
440,160,88131,2,0,B|472:192|424:224,2,60,0|0|2
256,80,89059,1,2
256,80,89214,1,0
72,160,89523,1,0
72,160,89678,1,2
312,296,89987,6,0,B|256:344|192:288,3,120,2|0|2|2
80,80,92461,5,4
432,80,92925,1,0
80,304,93389,5,0
432,304,93853,1,0
256,192,94317,5,0
256,192,94626,1,0
128,304,94936,6,0,B|72:288|80:208,1,90,0|0
144,224,96018,2,2,B|128:160|64:160,1,90
272,80,96791,5,0
272,80,97100,1,0
448,144,97410,1,0
272,208,97719,1,0
272,208,97874,1,0
448,272,98183,2,0,B|400:256|360:280,1,90,2|0
256,336,98956,5,2
288,320,99111,1,2
320,304,99265,1,0
80,128,99575,5,0
80,96,99729,1,0
80,128,99884,2,0,B|80:192|128:224,1,90,4|0
144,232,100966,1,0
176,248,101121,1,0
192,112,101430,5,2
240,80,101585,1,2
288,64,101740,1,0
432,96,102049,5,0
448,144,102204,1,0
432,192,102358,1,4
304,272,102667,5,0
352,256,102822,1,0
144,240,103131,5,0
96,224,103286,1,0
272,80,103595,6,2,B|246:60|214:76,1,60,0|0
384,256,104832,6,0,B|336:208|384:160,1,90,4|0
432,192,105915,2,0,B|448:112|416:48|296:56,1,210,0|2
224,304,107307,6,0,B|176:312|160:280|160:280,2,60,0|0|0
240,80,108853,5,0
272,80,109008,1,0
240,80,109162,1,8
96,208,109472,6,0,B|96:160,1,30
96,208,109781,2,0,B|144:320|240:320,1,180,4|0
344,320,111018,5,0
432,64,111327,1,0
392,192,111637,1,8
112,104,111946,5,0
160,80,112100,1,0
208,104,112255,1,0
104,288,112564,5,0
152,256,112719,1,0
256,80,113028,5,0
304,104,113183,1,0
432,264,113492,5,0
256,80,114111,5,4
256,304,114420,1,0
256,192,114729,12,4,115966
416,80,116276,5,0
256,304,116585,1,4
96,80,116894,1,0
256,192,117204,12,4,118441
96,304,118750,5,0
256,80,119059,1,4
416,304,119369,1,0
256,192,119678,12,4,120915
64,192,121224,5,2
256,336,121533,1,4
448,192,121843,1,2
200,64,122152,6,8,B|264:24|336:80,2,120,4|2|4
168,96,123544,1,0
128,64,123698,1,0
88,96,123853,1,0
128,192,124008,6,2,B|96:240|144:256,1,60,0|0
224,288,124472,1,0
224,288,124626,2,0,B|256:240|208:224,2,60
320,160,125245,6,0,B|272:80|336:32,1,120,8|0
416,112,125709,2,0,B|472:200|392:288,1,180
96,240,126482,5,8
256,64,126791,1,2
280,288,127100,2,0,B|344:320|408:288,1,120
432,176,127564,2,0,B|368:144|304:176,1,120
88,256,128183,1,2
208,272,128338,2,0,B|232:248|208:216,2,60
144,48,128956,6,0,B|91:110|164:174,1,120,4|0
264,136,129420,2,0,B|288:104|256:72,3,60
320,312,130193,2,0,B|256:352|192:312,1,120,8|0
264,216,130657,2,0,B|344:144|456:216,1,180
80,80,131430,5,8
352,304,131740,1,2
352,304,132049,6,0,B|405:236|358:171,1,120
368,192,132513,2,0,B|339:127|388:78,1,120
144,72,133131,1,2
80,168,133286,2,0,B|112:200|160:184,2,60
368,251,133905,6,0,B|336:272|368:304,2,60
416,224,134678,1,0
368,208,134832,1,0
320,224,134987,1,0
224,160,135142,6,0,B|144:192|96:144,1,120,8|0
208,80,135606,2,0,B|256:160|160:256,1,180
424,192,136379,1,8
208,64,136688,1,2
208,64,136997,6,0,B|128:80|112:160,1,120
304,304,137461,2,0,B|384:288|400:208,1,120
232,104,138080,5,10
192,80,138235,1,2
152,104,138389,1,0
104,80,138544,1,2
64,104,138698,1,2
104,208,138853,6,0,B|87:242|47:218,2,60,8|0|0
144,232,139626,1,0
184,208,139781,1,2
224,232,139936,1,2
384,224,140090,6,0,B|352:144|400:96,1,120,8|0
464,208,140554,2,2,B|400:120|264:112,1,180,0|0
72,80,141327,5,8
72,80,141637,1,2
272,305,141946,2,0,B|296:312|328:288,2,60
224,288,142719,5,0
272,304,142874,1,2
224,288,143029,1,2
272,304,143183,1,0
256,192,143492,12,4,145657
432,120,145966,5,2
256,48,146276,1,10
80,120,146585,1,2
328,328,146894,6,0,B|458:267|440:134|440:134,1,240,0|8
256,192,147822,1,0
71,250,148131,2,0,B|71:249|53:116|184:56,2,240,0|8|8
416,112,149987,5,8
96,272,150296,1,2
96,272,150606,2,0,B|160:320|192:320,2,90,2|0|0
416,112,151843,2,0,B|352:64|320:64,2,90,2|0|0
256,144,153080,6,0,B|256:256,2,90,2|0|0
256,144,154317,1,8
88,88,154626,5,0
120,144,154780,1,0
88,200,154935,1,8
424,88,155245,5,0
392,144,155399,1,0
424,200,155554,1,8
112,320,155863,5,2
256,272,156173,1,10
400,320,156482,1,2
184,56,156791,6,0,B|8:88|72:264|72:264,1,240,0|8
256,192,157719,1,2
448,154,158028,2,0,B|440:120|504:296|328:328,1,240,0|10
256,160,158956,1,0
256,160,159265,6,0,B|256:256,2,90,8|0|0
200,128,160348,1,2
256,96,160503,1,0
312,128,160657,1,0
256,160,160812,1,2
200,272,161121,6,0,B|256:304|320:272,2,120,2|0|2
256,192,162977,1,0
80,64,163286,5,2
80,320,163595,1,0
80,64,163905,1,2
80,192,164059,1,2
384,112,164523,5,0
384,272,164832,1,0
384,112,165142,1,2
384,192,165296,1,2
432,320,165760,5,2
432,64,166070,1,0
432,320,166379,1,2
432,192,166533,1,2
128,272,166997,5,0
128,112,167307,1,0
128,272,167616,1,2
128,192,167771,1,2
384,320,168235,5,2
128,320,168544,1,0
384,320,168853,1,2
256,320,169008,1,2
336,112,169472,5,0
176,112,169781,1,0
336,112,170090,1,2
256,112,170245,1,2
416,320,170709,5,0
256,64,171018,1,2
96,320,171327,1,0
256,64,171637,2,2,B|216:128|272:160,1,90,2|6
152,272,173183,5,2
360,272,173492,1,0
152,272,173802,1,2
256,272,173956,1,2
416,64,174420,5,0
96,64,174729,1,0
416,64,175039,1,2
256,64,175193,1,2
368,112,175657,5,2
144,112,175966,1,0
368,112,176276,1,2
256,112,176430,1,2
96,320,176894,5,0
416,320,177204,1,0
96,320,177513,1,2
256,320,177667,1,2
368,128,178131,5,2
144,256,178441,1,0
368,128,178750,1,2
256,192,178905,1,2
80,96,179369,5,0
432,288,179678,1,0
80,96,179987,1,2
256,192,180142,1,2
416,64,180606,5,0
256,320,180915,1,0
96,64,181224,1,0
256,192,181533,12,4,183080
329,87,183389,6,0,B|384:43|443:92,1,120,0|4
384,192,184317,1,0
436,297,184626,2,0,B|377:339|323:290,1,120
208,280,185554,1,2
96,232,185863,1,0
56,120,186173,1,0
168,72,186482,2,0,B|237:20|296:94,2,120,2|0|2
278,72,188028,1,0
278,74,188338,6,0,B|224:131|296:195,1,120
400,192,189265,1,0
400,192,189575,2,0,B|454:248|382:312,1,120,0|0
288,248,190503,1,0
400,296,190812,1,0
288,248,191121,1,0
344,136,191430,2,0,B|280:88|216:152,2,120,2|0|0
392,176,192822,1,0
440,208,192977,1,2
392,240,193131,1,0
440,272,193286,5,0
256,192,193595,1,2
120,320,193905,1,4
120,56,194214,1,0
64,192,194523,6,0,B|128:240|184:184,1,120,0|0
256,104,194987,2,2,B|352:40|448:120,1,180
424,104,195760,1,8
344,328,196070,1,2
288,96,196379,2,0,B|240:144|291:204,1,120,0|0
408,240,196843,2,0,B|383:259|464:192|400:136,1,120
176,200,197461,2,0,B|152:224|182:258,3,60
64,64,198235,5,8
336,272,198544,1,0
336,272,198853,1,4
448,64,199472,5,8
176,272,199781,1,0
176,272,200090,1,0
400,128,200399,5,0
200,96,200709,1,8
312,280,201018,1,0
104,256,201327,1,0
256,192,201637,5,0
256,192,201791,1,0
256,192,201946,1,8
448,320,202564,5,2
64,64,202874,1,2
448,64,203183,5,8
64,320,203492,1,2
256,192,203802,12,6,206276
