osu file format v14

[General]
AudioFilename: Sweet Sweet Alice.mp3
AudioLeadIn: 0
PreviewTime: 56738
Countdown: 0
SampleSet: Soft
StackLeniency: 0.7
Mode: 0
LetterboxInBreaks: 0
WidescreenStoryboard: 0

[Editor]
Bookmarks: 15109,22693,24547,29940,43255,86738,98199
DistanceSpacing: 1
BeatDivisor: 4
GridSize: 4
TimelineZoom: 1

[Metadata]
Title:Sweet Sweet Arisu
TitleUnicode:Sweet Sweet アリス
Artist:Shiiba Tsumugi
ArtistUnicode:椎葉 紬
Creator:HiverK
Version:Normal
Source:サノバウィッチ
Tags:yuzu soft sothewitch sanoba witch sabbat of the witch character vol3 黒咲そら kurosaki sora
BeatmapID:581169
BeatmapSetID:252477

[Difficulty]
HPDrainRate:4
CircleSize:3
OverallDifficulty:4
ApproachRate:5
SliderMultiplier:1.12
SliderTickRate:1

[Events]
//Background and Video events
0,0,"bg.jpg",0,0
//Break Periods
//Storyboard Layer 0 (Background)
//Storyboard Layer 1 (Fail)
//Storyboard Layer 2 (Pass)
//Storyboard Layer 3 (Foreground)
//Storyboard Sound Samples

[TimingPoints]
3817,337.078651685393,4,2,1,60,1,0
49659,-100,4,2,1,50,0,0
57749,-100,4,2,1,65,0,1
63142,-100,4,2,1,65,0,0
68536,-100,4,2,1,65,0,1
73929,-100,4,2,1,65,0,0
78985,-100,4,2,1,60,0,0
79322,-100,4,2,1,60,0,1
86738,-100,4,2,1,60,0,0
100895,-100,4,2,1,55,0,0
101569,-100,4,2,1,50,0,0
102243,-100,4,2,1,40,0,0
102918,-100,4,2,1,30,0,0
103592,-100,4,2,1,20,0,0
104266,-100,4,2,1,10,0,0
104940,-100,4,2,1,5,0,0

[Colours]
Combo1 : 225,155,255
Combo2 : 255,0,0
Combo3 : 255,175,65
Combo4 : 255,230,65
Combo5 : 0,255,0
Combo6 : 0,255,255

[HitObjects]
144,88,3816,5,10,0:0:0:0:
144,88,4996,2,0,P|136:144|120:200,1,112,10|10,0:0|0:0,0:0:0:0:
140,252,5502,2,0,L|180:292,1,56,2|2,0:0|0:0,0:0:0:0:
228,316,5839,1,2,0:0:0:0:
340,316,6176,1,0,3:0:0:0:
440,268,6513,5,10,0:0:0:0:
440,268,7693,2,0,P|448:212|464:156,1,112,10|10,0:0|0:0,0:0:0:0:
444,104,8199,2,0,L|404:64,1,56,2|2,0:0|0:0,0:0:0:0:
356,40,8536,1,2,0:0:0:0:
244,40,8873,1,0,3:0:0:0:
312,128,9210,6,0,P|274:167|252:218,1,112,10|2,0:0|0:0,0:0:0:0:
232,272,9715,2,0,P|177:272|125:251,1,112,10|10,0:0|0:0,0:0:0:0:
32,188,10390,1,2,0:0:0:0:
280,56,11232,5,2,0:0:0:0:
388,80,11569,1,2,0:0:0:0:
388,80,11906,2,0,B|349:124|351:186|344:244|284:272,1,224,6|0,0:0|0:0,0:0:0:0:
212,356,12918,5,2,0:0:0:0:
156,340,13086,2,0,P|136:288|140:232,1,112,2|10,0:0|0:0,0:0:0:0:
156,180,13592,1,2,0:0:0:0:
200,148,13760,1,0,0:0:0:0:
192,92,13929,2,0,P|172:68|164:40,2,56,2|2|10,0:0|0:0|0:0,0:0:0:0:
304,84,14603,6,0,P|356:108|400:144,1,112,0|8,0:0|0:0,0:0:0:0:
364,248,15277,2,0,P|376:276|396:300,2,56,0|0|8,0:0|0:0|0:0,0:0:0:0:
312,224,15783,2,0,B|220:236|168:300,1,168,2|10,0:0|0:0,0:0:0:0:
172,244,16457,2,0,P|172:184|156:132,1,112,2|2,0:0|0:0,0:0:0:0:
108,112,16963,1,10,0:0:0:0:
65,214,17300,6,0,P|120:221|172:244,1,112,6|10,0:0|0:0,0:0:0:0:
164,300,17805,2,0,P|214:324|269:333,1,112,0|2,0:0|0:0,0:0:0:0:
300,284,18311,1,2,0:0:0:0:
352,308,18479,2,0,B|408:288|404:212|468:188,1,168,2|10,0:0|0:0,0:0:0:0:
492,300,19322,1,2,0:0:0:0:
465,189,19659,1,10,0:0:0:0:
460,76,19996,6,0,B|404:96|364:136,1,112,2|10,0:0|0:0,0:0:0:0:
352,188,20502,2,0,P|384:228|416:288,1,112,0|2,0:0|0:0,0:0:0:0:
356,288,21008,1,2,0:0:0:0:
304,264,21176,2,0,P|200:288|148:324,1,168,10|10,0:0|0:0,0:0:0:0:
168,268,21850,2,0,P|132:164|92:124,1,168,2|10,0:0|0:0,0:0:0:0:
56,232,22693,5,6,0:0:0:0:
484,56,24547,1,2,0:0:0:0:
380,92,24884,2,0,L|332:52,2,56,6|0|10,0:0|0:0|0:0,0:0:0:0:
348,136,25390,6,0,P|336:192|360:240,1,112,2|10,0:0|0:0,0:0:0:0:
468,272,26064,2,0,P|444:324|396:348,1,112,2|10,0:0|0:0,0:0:0:0:
284,348,26738,2,0,L|172:348,2,112,2|10|2,0:0|0:0|0:0,0:0:0:0:
397,347,27749,1,10,0:0:0:0:
472,264,28086,5,6,0:0:0:0:
72,56,29940,1,2,0:0:0:0:
88,168,30277,2,0,L|40:196,2,56,6|2|2,0:0|0:0|0:0,0:0:0:0:
140,144,30783,6,0,P|180:116|244:116,1,112,2|10,0:0|0:0,0:0:0:0:
292,140,31288,1,0,0:0:0:0:
280,196,31457,2,0,P|320:224|384:224,1,112,2|10,0:0|0:0,0:0:0:0:
432,200,31963,1,0,0:0:0:0:
432,144,32131,6,0,P|414:96|361:58,2,112,2|2|10,0:0|0:0|0:0,0:0:0:0:
348,216,33142,1,10,0:0:0:0:
272,136,33479,6,0,L|160:168,1,112,2|2,0:0|0:0,0:0:0:0:
92,252,34154,1,2,0:0:0:0:
92,252,34491,2,0,P|144:280|176:332,1,112,2|2,0:0|0:0,0:0:0:0:
340,316,35333,6,0,P|384:284|440:272,1,112,2|10,0:0|0:0,0:0:0:0:
480,232,35839,2,0,P|436:200|380:188,1,112,2|14,0:0|0:0,0:0:0:0:
468,120,36513,1,2,0:0:0:0:
424,16,36850,2,0,P|376:52|356:104,1,112,2|10,0:0|0:0,0:0:0:0:
360,212,37524,6,0,P|308:228|248:236,1,112,2|10,0:0|0:0,0:0:0:0:
196,136,38199,2,0,P|184:88|144:36,1,112,0|10,0:0|0:0,0:0:0:0:
84,132,38873,6,0,P|32:192|24:228,2,112,6|2|2,0:0|0:0|0:0,0:0:0:0:
104,240,39884,1,10,0:0:0:0:
140,284,40052,2,0,P|188:256|240:236,1,112,6|2,0:0|0:0,0:0:0:0:
284,272,40558,2,0,P|324:308|380:312,2,112,10|2|8,0:0|0:0|0:0,0:0:0:0:
288,216,41401,1,0,0:0:0:0:
332,180,41569,6,0,P|378:147|429:128,1,112,6|10,0:0|0:0,0:0:0:0:
452,76,42075,1,0,0:0:0:0:
400,52,42243,2,0,P|348:28|288:20,1,112,2|8,0:0|0:0,0:0:0:0:
240,36,42749,1,2,0:0:0:0:
140,88,43086,5,2,0:0:0:0:
188,116,43255,2,0,L|236:148,1,56,0|2,0:0|0:0,0:0:0:0:
204,196,43592,2,0,L|172:244,2,56,0|2|0,0:0|0:0|0:0,0:0:0:0:
284,276,44266,6,0,L|376:348,1,112,6|0,0:0|0:0,0:0:0:0:
480,316,44940,2,0,L|384:248,1,112,2|0,0:0|0:0,0:0:0:0:
372,140,45614,6,0,P|404:140|428:124,2,56,2|0|0,0:0|0:0|0:0,0:0:0:0:
316,128,46120,1,2,0:0:0:0:
280,84,46288,2,0,P|240:52|180:40,1,112,10|2,0:0|0:0,0:0:0:0:
144,148,46963,6,0,P|84:152|36:168,1,112,2|0,0:0|0:0,0:0:0:0:
116,248,47637,2,0,P|176:252|228:268,1,112,10|2,0:0|0:0,0:0:0:0:
160,356,48311,1,2,0:0:0:0:
272,340,48648,1,0,0:0:0:0:
364,276,48985,1,10,0:0:0:0:
348,52,49659,6,0,L|408:148,1,112,6|0,0:0|0:0,0:0:0:0:
296,128,50333,2,0,L|236:32,1,112,2|0,0:0|0:0,0:0:0:0:
132,76,51008,6,0,P|112:56|80:48,2,56,2|0|0,0:0|0:0|0:0,0:0:0:0:
164,120,51513,1,2,0:0:0:0:
128,160,51682,2,0,P|96:200|96:260,1,112,2|8,0:0|0:0,0:0:0:0:
204,240,52356,5,6,0:0:0:0:
204,240,52693,2,0,P|244:272|304:296,2,112,2|2|2,0:0|0:0|0:0,0:0:0:0:
128,160,53704,6,0,P|160:112|204:80,1,112,2|2,0:0|0:0,0:0:0:0:
244,116,54210,1,0,0:0:0:0:
248,172,54378,2,0,P|272:228|316:264,1,112,2|10,0:0|0:0,0:0:0:0:
360,160,55052,6,0,P|348:96|336:48,1,112,6|10,0:0|0:0,0:0:0:0:
280,40,55558,1,2,0:0:0:0:
184,100,55895,1,10,0:0:0:0:
116,188,56232,1,10,0:0:0:0:
160,352,56738,5,0,0:0:0:0:
160,352,57075,2,0,P|208:344|256:304,1,112,2|2,0:0|0:0,0:0:0:0:
196,208,57749,6,0,P|232:168|280:136,1,112,6|2,0:0|0:0,0:0:0:0:
328,168,58255,1,0,0:0:0:0:
436,196,58592,1,2,0:0:0:0:
468,88,58929,2,0,B|424:56|348:88|296:48,1,168,2|10,0:0|0:0,0:0:0:0:
192,64,59772,2,0,P|188:120|168:176,1,112,2|2,0:0|0:0,0:0:0:0:
280,168,60446,6,0,P|308:112|344:76,1,112,2|8,0:0|0:0,0:0:0:0:
400,80,60951,1,2,0:0:0:0:
452,180,61288,1,0,0:0:0:0:
364,248,61625,2,0,L|276:316,1,112,2|2,0:0|0:0,0:0:0:0:
220,308,62131,1,10,0:0:0:0:
276,212,62468,1,2,0:0:0:0:
164,208,62805,1,2,0:0:0:0:
164,208,63142,6,0,P|191:160|210:97,1,112,2|10,0:0|0:0,0:0:0:0:
296,172,63816,2,0,P|252:128|204:104,1,112,2|2,0:0|0:0,0:0:0:0:
312,64,64491,1,0,0:0:0:0:
424,56,64828,1,10,0:0:0:0:
380,160,65165,2,0,P|400:208|432:264,1,112,2|10,0:0|0:0,0:0:0:0:
320,228,65839,5,2,0:0:0:0:
368,328,66176,1,2,0:0:0:0:
312,340,66345,2,0,P|264:304|212:284,1,112,0|10,0:0|0:0,0:0:0:0:
116,332,67019,2,0,L|36:180,1,168,2|10,0:0|0:0,0:0:0:0:
72,76,67861,5,2,0:0:0:0:
72,76,68199,1,2,0:0:0:0:
168,132,68536,2,0,P|224:152|276:144,1,112,6|10,0:0|0:0,0:0:0:0:
268,88,69041,2,0,P|308:56|368:56,1,112,0|8,0:0|0:0,0:0:0:0:
352,168,69715,2,0,P|372:228|404:268,1,112,10|2,0:0|0:0,0:0:0:0:
440,308,70221,1,10,0:0:0:0:
440,308,70558,6,0,P|404:336|340:344,1,112,2|2,0:0|0:0,0:0:0:0:
276,252,71232,2,0,P|220:256|172:284,1,112,2|10,0:0|0:0,0:0:0:0:
140,328,71738,2,0,P|104:288|48:272,1,112,0|10,0:0|0:0,0:0:0:0:
136,204,72412,2,0,P|128:148|124:92,1,112,2|10,0:0|0:0,0:0:0:0:
164,52,72918,1,2,0:0:0:0:
164,52,73255,6,0,P|192:100|240:128,1,112,2|2,0:0|0:0,0:0:0:0:
348,104,73929,2,0,P|384:64|440:48,1,112,6|2,0:0|0:0,0:0:0:0:
444,160,74603,2,0,L|464:276,1,112,2|2,0:0|0:0,0:0:0:0:
352,256,75277,6,0,L|236:256,1,112,2|2,0:0|0:0,0:0:0:0:
208,364,75951,2,0,P|160:336|132:288,1,112,2|2,0:0|0:0,0:0:0:0:
240,256,76625,6,0,L|172:164,1,112,2|10,0:0|0:0,0:0:0:0:
116,172,77131,1,0,0:0:0:0:
32,96,77468,2,0,L|68:48,1,56,0|10,0:0|0:0,0:0:0:0:
116,72,77805,2,0,B|172:88|224:88|288:68,1,168,6|10,0:0|0:0,0:0:0:0:
384,20,78648,1,2,0:0:0:0:
464,96,78985,1,2,0:0:0:0:
464,96,79322,6,0,L|464:208,1,112,6|10,0:0|0:0,0:0:0:0:
360,172,79996,2,0,L|360:284,1,112,2|10,0:0|0:0,0:0:0:0:
256,324,80670,2,0,L|256:208,1,112,2|10,0:0|0:0,0:0:0:0:
256,100,81345,1,2,0:0:0:0:
256,100,81682,1,2,0:0:0:0:
256,100,82019,6,0,L|144:100,1,112,6|10,0:0|0:0,0:0:0:0:
188,204,82693,2,0,L|72:204,1,112,2|10,0:0|0:0,0:0:0:0:
24,304,83367,2,0,L|140:304,1,112,2|10,0:0|0:0,0:0:0:0:
248,304,84041,1,2,0:0:0:0:
248,304,84378,1,2,0:0:0:0:
248,304,84715,6,0,L|248:188,1,112,6|2,0:0|0:0,0:0:0:0:
248,136,85221,2,0,P|304:132|360:136,1,112,6|2,0:0|0:0,0:0:0:0:
472,140,85895,2,0,P|448:220|372:248,1,168,6|0,0:0|0:0,0:0:0:0:
276,304,86738,6,0,P|248:256|192:236,1,112,2|10,0:0|0:0,0:0:0:0:
104,300,87412,2,0,P|88:200|176:124,1,224,2|2,0:0|0:0,0:0:0:0:
272,180,88423,1,2,0:0:0:0:
324,156,88592,6,0,P|346:107|348:49,1,112,2|2,0:0|0:0,0:0:0:0:
400,28,89097,1,10,0:0:0:0:
460,124,89434,2,0,P|484:180|468:228,1,112,2|10,0:0|0:0,0:0:0:0:
364,184,90109,6,0,P|276:252|324:332,1,224,2|0,0:0|0:0,0:0:0:0:
380,336,90951,2,0,L|436:332,1,56,2|8,0:0|0:0,0:0:0:0:
476,292,91288,6,0,L|452:176,1,112,2|2,0:0|0:0,0:0:0:0:
440,128,91794,2,0,L|472:76,2,56,10|2|0,0:0|0:0|0:0,0:0:0:0:
372,216,92468,1,2,0:0:0:0:
300,300,92805,6,0,B|180:316|92:228,1,224,6|0,0:0|0:0,0:0:0:0:
80,120,93816,1,2,0:0:0:0:
120,84,93985,2,0,B|164:56|228:60,1,112,2|10,0:0|0:0,0:0:0:0:
228,116,94491,1,2,0:0:0:0:
340,116,94828,1,2,0:0:0:0:
404,208,95165,1,8,0:0:0:0:
404,208,95502,6,0,P|344:248|296:264,1,112,0|8,0:0|0:0,0:0:0:0:
304,316,96008,2,0,P|192:344|128:340,1,168,0|8,0:0|0:0,0:0:0:0:
100,304,96682,2,0,B|128:192|120:136,1,168,2|2,0:0|0:0,0:0:0:0:
88,92,97356,2,0,P|188:48|248:44,1,168,2|10,0:0|0:0,0:0:0:0:
356,48,98199,6,0,L|416:48,1,56,6|6,0:0|0:0,0:0:0:0:
356,144,98704,2,0,L|420:144,1,56,6|6,0:0|0:0,0:0:0:0:
356,240,99210,2,0,L|420:240,1,56,6|6,0:0|0:0,0:0:0:0:
256,192,99715,12,0,104940,0:0:0:0:
