osu file format v14

[General]
AudioFilename: Sweet Sweet Alice.mp3
AudioLeadIn: 0
PreviewTime: 56738
Countdown: 0
SampleSet: Soft
StackLeniency: 0.7
Mode: 0
LetterboxInBreaks: 0
WidescreenStoryboard: 0

[Editor]
Bookmarks: 15109,22693,24547,29940,43255,86738,98199
DistanceSpacing: 1.4
BeatDivisor: 4
GridSize: 4
TimelineZoom: 1.8

[Metadata]
Title:Sweet Sweet Arisu
TitleUnicode:Sweet Sweet アリス
Artist:Shiiba Tsumugi
ArtistUnicode:椎葉 紬
Creator:HiverK
Version:Insane
Source:サノバウィッチ
Tags:yuzu soft sothewitch sanoba witch sabbat of the witch character vol3 黒咲そら kurosaki sora
BeatmapID:579885
BeatmapSetID:252477

[Difficulty]
HPDrainRate:7
CircleSize:4
OverallDifficulty:7
ApproachRate:9
SliderMultiplier:1.6
SliderTickRate:1

[Events]
//Background and Video events
0,0,"bg.jpg",0,0
//Break Periods
//Storyboard Layer 0 (Background)
//Storyboard Layer 1 (Fail)
//Storyboard Layer 2 (Pass)
//Storyboard Layer 3 (Foreground)
//Storyboard Sound Samples

[TimingPoints]
3817,337.078651685393,4,2,1,60,1,0
8957,-133.333333333333,4,2,1,60,0,0
9715,-100,4,2,1,60,0,0
10390,-133.333333333333,4,2,1,60,0,0
11232,-100,4,2,1,60,0,0
11906,-133.333333333333,4,2,1,60,0,0
13086,-100,4,2,1,50,0,0
20586,-133.333333333333,4,2,1,60,0,0
30783,-100,4,2,1,60,0,0
38873,-133.333333333333,4,2,1,60,0,0
40390,-100,4,2,1,60,0,0
41569,-133.333333333333,4,2,1,60,0,0
42243,-100,4,2,1,60,0,0
44266,-200,4,2,1,60,0,0
48311,-200,4,2,1,60,0,0
48648,-160,4,2,1,60,0,0
48985,-133.333333333333,4,2,1,60,0,0
55052,-100,4,2,1,60,0,0
56148,-133.333333333333,4,2,1,50,0,0
57749,-100,4,2,1,60,0,1
63142,-100,4,2,1,60,0,0
68536,-100,4,2,1,60,0,1
73929,-133.333333333333,4,2,1,60,0,0
77131,-100,4,2,1,60,0,0
79069,-133.333333333333,4,2,1,60,0,0
79322,-133.333333333333,4,2,1,60,0,1
82019,-100,4,2,1,60,0,1
84631,-133.333333333333,4,2,1,60,0,1
86738,-133.333333333333,4,2,1,60,0,0
90951,-100,4,2,1,60,0,0
100895,-133.333333333333,4,2,1,55,0,0
101569,-133.333333333333,4,2,1,50,0,0
102243,-133.333333333333,4,2,1,40,0,0
102918,-133.333333333333,4,2,1,30,0,0
103592,-133.333333333333,4,2,1,20,0,0
104266,-133.333333333333,4,2,1,10,0,0
104940,-133.333333333333,4,2,1,5,0,0

[Colours]
Combo1 : 225,155,255
Combo2 : 255,0,0
Combo3 : 255,175,65
Combo4 : 255,230,65
Combo5 : 0,255,0
Combo6 : 0,255,255

[HitObjects]
84,60,3816,5,10,0:0:0:0:
344,256,4996,5,10,0:0:0:0:
120,268,5333,1,2,0:0:0:0:
80,164,5502,1,2,0:0:0:0:
264,56,5670,1,2,0:0:0:0:
216,156,5839,1,2,0:0:0:0:
356,332,6176,1,10,0:0:0:0:
420,240,6345,1,2,0:0:0:0:
420,240,6429,1,2,0:0:0:0:
420,240,6513,5,10,0:0:0:0:
156,160,7693,5,10,0:0:0:0:
364,76,8030,1,2,0:0:0:0:
316,176,8199,1,2,0:0:0:0:
252,84,8367,1,2,0:0:0:0:
224,320,8536,1,2,0:0:0:0:
56,168,8873,1,10,0:0:0:0:
64,128,8957,1,10,0:0:0:0:
88,96,9041,1,10,0:0:0:0:
120,72,9125,1,10,0:0:0:0:
160,60,9210,6,0,L|280:60,1,120.000004577637,10|10,0:0|0:0,0:0:0:0:
388,160,9715,2,0,L|228:160,1,160,2|10,0:0|0:0,0:0:0:0:
216,272,10221,1,2,0:0:0:0:
144,316,10390,2,0,L|40:160,1,180.000006866455,2|0,0:0|0:0,0:0:0:0:
144,316,11232,1,2,0:0:0:0:
236,160,11569,5,6,0:0:0:0:
404,148,11738,1,2,0:0:0:0:
404,148,11822,1,0,0:0:0:0:
404,148,11906,2,0,P|400:220|372:260,1,120.000004577637,2|10,0:0|0:0,0:0:0:0:
208,280,12412,1,0,0:0:0:0:
208,280,12496,1,2,0:0:0:0:
208,280,12581,1,0,0:0:0:0:
72,216,12749,1,2,0:0:0:0:
72,216,12918,1,2,0:0:0:0:
24,84,13086,6,0,P|88:40|168:36,1,160,2|10,0:0|0:0,0:0:0:0:
184,148,13592,1,10,0:0:0:0:
260,228,13760,1,0,0:0:0:0:
260,228,13845,1,2,0:0:0:0:
260,228,13929,2,0,L|324:280,1,80,2|2,0:0|0:0,0:0:0:0:
400,196,14266,5,10,0:0:0:0:
300,60,14434,1,8,0:0:0:0:
168,244,14603,1,2,0:0:0:0:
68,108,14771,1,8,0:0:0:0:
260,228,14940,1,10,0:0:0:0:
180,328,15109,5,8,0:0:0:0:
180,328,15193,1,2,0:0:0:0:
180,328,15277,2,0,P|124:308|96:284,1,80,2|0,0:0|0:0,0:0:0:0:
68,192,15614,1,2,0:0:0:0:
68,192,15783,2,0,P|72:144|92:108,1,80,10|0,0:0|0:0,0:0:0:0:
168,40,16120,5,2,0:0:0:0:
168,40,16288,1,2,0:0:0:0:
200,148,16457,1,10,0:0:0:0:
312,136,16625,2,0,P|336:168|336:208,1,80,8|2,0:0|0:0,0:0:0:0:
457,342,16963,2,0,P|420:331|396:300,1,80,2|0,0:0|0:0,0:0:0:0:
284,300,17300,6,0,P|212:336|136:320,1,160,6|2,0:0|0:0,0:0:0:0:
88,220,17805,1,0,0:0:0:0:
76,164,17890,1,2,0:0:0:0:
100,112,17974,2,0,P|120:80|172:56,1,80,10|2,0:0|0:0,0:0:0:0:
268,40,18311,1,2,0:0:0:0:
248,152,18479,6,0,P|184:196|176:276,1,160,2|2,0:0|0:0,0:0:0:0:
284,252,18985,1,10,0:0:0:0:
380,192,19154,1,0,0:0:0:0:
408,144,19238,1,2,0:0:0:0:
392,92,19322,2,0,P|360:72|308:64,1,80,2|2,0:0|0:0,0:0:0:0:
248,152,19659,2,0,P|196:160|164:184,1,80,10|0,0:0|0:0,0:0:0:0:
220,308,19996,6,0,L|276:252,1,80,2|0,0:0|0:0,0:0:0:0:
340,324,20333,1,2,0:0:0:0:
424,256,20502,1,0,0:0:0:0:
440,216,20586,1,2,0:0:0:0:
428,176,20670,2,0,L|412:112,1,60.0000022888184,2|2,0:0|0:0,0:0:0:0:
356,56,21008,1,2,0:0:0:0:
76,88,21176,6,0,L|120:136,1,60.0000022888184,6|0,0:0|0:0,0:0:0:0:
188,212,21513,1,2,0:0:0:0:
268,184,21682,1,2,0:0:0:0:
348,212,21850,2,0,P|360:272|336:328,1,120.000004577637
268,264,22356,1,10,0:0:0:0:
396,64,22693,5,6,0:0:0:0:
136,128,24547,5,10,0:0:0:0:
368,304,24884,1,2,0:0:0:0:
360,124,25052,1,0,0:0:0:0:
220,228,25221,1,2,0:0:0:0:
192,56,25390,6,0,P|168:44|136:44,1,60.0000022888184,6|0,0:0|0:0,0:0:0:0:
78,136,25727,2,0,P|106:125|136:128,1,60.0000022888184,2|0,0:0|0:0,0:0:0:0:
112,224,26064,2,0,P|90:240|76:269,1,60.0000022888184,2|0,0:0|0:0,0:0:0:0:
148,316,26401,1,2,0:0:0:0:
300,236,26738,6,0,P|352:228|384:196,1,90.0000034332277,2|0,0:0|0:0,0:0:0:0:
396,164,27075,2,0,P|392:120|352:80,1,90.0000034332277,2|0,0:0|0:0,0:0:0:0:
320,80,27412,2,0,L|260:84,1,60.0000022888184,2|2,0:0|0:0,0:0:0:0:
260,83,27749,1,10,0:0:0:0:
100,284,28086,5,6,0:0:0:0:
328,44,29940,5,10,0:0:0:0:
184,316,30277,1,2,0:0:0:0:
152,160,30446,1,0,0:0:0:0:
308,212,30614,1,2,0:0:0:0:
88,68,30783,6,0,P|136:40|240:40,1,160,6|2,0:0|0:0,0:0:0:0:
244,148,31288,1,0,0:0:0:0:
252,260,31457,2,0,P|307:316|383:339,1,160,2|2,0:0|0:0,0:0:0:0:
400,232,31963,5,0,0:0:0:0:
344,148,32131,1,2,0:0:0:0:
456,152,32300,1,0,0:0:0:0:
392,60,32468,2,0,P|308:36|232:40,1,160,10|2,0:0|0:0,0:0:0:0:
140,96,32974,1,2,0:0:0:0:
80,188,33142,1,2,0:0:0:0:
120,292,33311,1,2,0:0:0:0:
344,340,33479,5,2,0:0:0:0:
344,340,33816,1,2,0:0:0:0:
392,60,34154,5,2,0:0:0:0:
392,60,34491,1,2,0:0:0:0:
80,188,34828,5,2,0:0:0:0:
412,244,35333,5,6,0:0:0:0:
296,52,35670,1,2,0:0:0:0:
212,128,35839,1,2,0:0:0:0:
320,160,36008,1,2,0:0:0:0:
320,160,36092,1,2,0:0:0:0:
320,160,36176,6,0,P|384:208|380:296,1,160,10|10,0:0|0:0,0:0:0:0:
164,284,36850,2,0,L|112:352,1,80,2|0,0:0|0:0,0:0:0:0:
24,280,37187,2,0,L|76:212,1,80,10|0,0:0|0:0,0:0:0:0:
148,132,37524,5,2,0:0:0:0:
148,132,37693,1,0,0:0:0:0:
225,51,37861,2,0,P|269:47|301:66,1,80,10|2,0:0|0:0,0:0:0:0:
392,164,38199,1,0,0:0:0:0:
391,164,38367,1,2,0:0:0:0:
339,290,38536,1,2,0:0:0:0:
339,290,38620,1,0,0:0:0:0:
339,290,38704,1,0,0:0:0:0:
220,180,38873,6,0,P|176:220|168:280,1,120.000004577637,6|2,0:0|0:0,0:0:0:0:
320,208,39547,2,0,P|370:177|390:119,1,120.000004577637,10|2,0:0|0:0,0:0:0:0:
332,60,40052,1,6,0:0:0:0:
108,32,40390,2,0,P|68:32|32:48,1,80,2|2,0:0|0:0,0:0:0:0:
44,160,40727,1,0,0:0:0:0:
104,252,40895,2,0,L|152:320,2,80,2|2|2,0:0|0:0|0:0,0:0:0:0:
44,160,41401,1,0,0:0:0:0:
252,120,41569,6,0,P|312:144|332:192,1,120.000004577637,6|2,0:0|0:0,0:0:0:0:
236,216,42075,1,8,0:0:0:0:
152,292,42243,1,2,0:0:0:0:
236,216,42412,1,2,0:0:0:0:
144,152,42581,1,2,0:0:0:0:
252,120,42749,5,6,0:0:0:0:
368,312,43086,1,10,0:0:0:0:
456,244,43255,1,2,0:0:0:0:
252,120,43423,1,2,0:0:0:0:
228,228,43592,1,2,0:0:0:0:
432,104,43760,1,2,0:0:0:0:
332,56,43929,1,2,0:0:0:0:
332,56,44013,1,2,0:0:0:0:
332,56,44097,1,0,0:0:0:0:
216,72,44266,6,0,P|172:80|144:100,1,80,10|0,0:0|0:0,0:0:0:0:
76,224,44772,1,2,0:0:0:0:
200,312,44940,2,0,P|248:336|288:328,1,80,10|2,0:0|0:0,0:0:0:0:
340,244,45614,5,2,0:0:0:0:
408,72,45783,1,0,0:0:0:0:
256,172,45951,1,0,0:0:0:0:
440,184,46120,1,2,0:0:0:0:
296,68,46288,1,2,0:0:0:0:
104,96,46625,1,2,0:0:0:0:
48,196,46963,6,0,P|60:244|88:264,1,80,10|0,0:0|0:0,0:0:0:0:
136,280,47468,1,2,0:0:0:0:
172,236,47637,2,0,P|220:224|256:236,1,80,2|2,0:0|0:0,0:0:0:0:
420,288,48311,2,0,L|456:312,1,40,10|0,0:0|0:0,0:0:0:0:
444,180,48648,2,0,L|496:180,1,50,10|2,0:0|0:0,0:0:0:0:
420,72,48985,2,0,L|488:52,1,60.0000022888184,10|2,0:0|0:0,0:0:0:0:
296,168,49322,1,2,0:0:0:0:
232,48,49491,1,2,0:0:0:0:
192,56,49575,1,2,0:0:0:0:
156,76,49659,6,0,P|112:104|76:164,1,120.000004577637,6|0,0:0|0:0,0:0:0:0:
296,168,50165,1,2,0:0:0:0:
224,212,50333,2,0,P|192:276|212:328,1,120.000004577637,2|2,0:0|0:0,0:0:0:0:
372,340,51008,5,2,0:0:0:0:
372,165,51176,1,0,0:0:0:0:
269,306,51345,1,0,0:0:0:0:
435,252,51513,1,2,0:0:0:0:
269,198,51682,1,2,0:0:0:0:
168,72,51850,1,10,0:0:0:0:
68,178,52019,5,2,0:0:0:0:
69,219,52103,1,2,0:0:0:0:
81,259,52187,1,2,0:0:0:0:
112,288,52272,1,2,0:0:0:0:
152,300,52356,6,0,P|214:314|272:304,1,120.000004577637,6|10,0:0|0:0,0:0:0:0:
268,305,52861,1,0,0:0:0:0:
248,220,53030,2,0,P|260:152|312:132,1,120.000004577637,2|2,0:0|0:0,0:0:0:0:
428,244,53704,6,0,P|468:196|464:140,1,120.000004577637,2|10,0:0|0:0,0:0:0:0:
464,141,54210,1,0,0:0:0:0:
384,168,54378,2,0,P|372:140|352:116,2,60.0000022888184,2|0|2,0:0|0:0|0:0,0:0:0:0:
152,296,55052,6,0,P|192:220|168:140,1,160,6|2,0:0|0:0,0:0:0:0:
244,64,55558,1,6,0:0:0:0:
348,108,55727,1,2,0:0:0:0:
352,220,55895,1,6,0:0:0:0:
240,228,56064,1,2,0:0:0:0:
236,268,56148,1,2,0:0:0:0:
248,308,56232,1,2,0:0:0:0:
280,332,56316,1,2,0:0:0:0:
320,340,56401,1,6,0:0:0:0:
432,260,56738,5,0,0:0:0:0:
296,16,57075,1,2,0:0:0:0:
84,168,57412,1,2,0:0:0:0:
88,208,57496,1,2,0:0:0:0:
112,244,57581,1,2,0:0:0:0:
148,264,57665,1,2,0:0:0:0:
188,268,57749,6,0,P|268:232|356:236,1,160,6|10,0:0|0:0,0:0:0:0:
284,132,58255,2,0,L|400:136,1,80,0|2,0:0|0:0,0:0:0:0:
464,184,58592,1,8,0:0:0:0:
364,136,58760,1,2,0:0:0:0:
412,236,58929,2,0,P|404:304|304:336,1,160,2|0,0:0|0:0,0:0:0:0:
224,300,59434,5,10,0:0:0:0:
180,268,59519,1,0,0:0:0:0:
128,256,59603,1,0,0:0:0:0:
92,120,59772,6,0,P|136:72|196:44,1,120,6|0,0:0|0:0,0:0:0:0:
236,68,60109,2,0,L|224:192,1,120,2|0,0:0|0:0,0:0:0:0:
252,236,60446,2,0,P|312:212|368:128,1,160,6|10,0:0|0:0,0:0:0:0:
472,164,60951,1,8,0:0:0:0:
452,276,61120,5,10,0:0:0:0:
376,356,61288,2,0,P|328:368|276:352,1,80,0|10,0:0|0:0,0:0:0:0:
328,256,61625,2,0,P|280:236|244:236,1,80,2|0,0:0|0:0,0:0:0:0:
156,292,61963,5,10,0:0:0:0:
80,208,62131,1,2,0:0:0:0:
128,108,62300,1,0,0:0:0:0:
240,52,62468,1,10,0:0:0:0:
348,88,62637,1,0,0:0:0:0:
240,52,62805,1,2,0:0:0:0:
348,88,62974,1,0,0:0:0:0:
400,188,63142,6,0,L|300:232,1,80,10|0,0:0|0:0,0:0:0:0:
224,264,63479,2,0,L|280:336,1,80,2|0,0:0|0:0,0:0:0:0:
160,316,63816,2,0,L|108:248,1,80,2|0,0:0|0:0,0:0:0:0:
144,144,64154,1,10,0:0:0:0:
144,144,64322,1,2,0:0:0:0:
188,40,64491,6,0,P|224:24|264:24,1,80,0|2,0:0|0:0,0:0:0:0:
324,104,64828,2,0,P|363:109|396:130,1,80,2|0,0:0|0:0,0:0:0:0:
352,220,65165,2,0,P|378:249|390:287,1,80,10|0,0:0|0:0,0:0:0:0:
296,320,65502,2,0,P|273:352|239:372,1,80,2|0,0:0|0:0,0:0:0:0:
160,316,65839,6,0,L|80:268,1,80,6|0,0:0|0:0,0:0:0:0:
72,164,66176,1,10,0:0:0:0:
228,60,66345,2,0,L|320:52,1,80,0|2,0:0|0:0,0:0:0:0:
276,160,66682,2,0,L|360:196,1,80,0|2,0:0|0:0,0:0:0:0:
280,280,67019,2,0,L|308:360,1,80,2|0,0:0|0:0,0:0:0:0:
136,288,67356,1,10,0:0:0:0:
52,216,67524,5,10,0:0:0:0:
20,168,67609,1,0,0:0:0:0:
48,120,67693,1,10,0:0:0:0:
150,76,67861,6,0,L|230:60,1,80,2|0,0:0|0:0,0:0:0:0:
252,172,68199,1,2,0:0:0:0:
276,136,68283,1,2,0:0:0:0:
316,120,68367,1,2,0:0:0:0:
356,128,68451,1,2,0:0:0:0:
388,152,68536,6,0,P|384:236|324:272,1,160,6|10,0:0|0:0,0:0:0:0:
216,288,69041,2,0,L|112:308,2,80,0|2|0,0:0|0:0|0:0,0:0:0:0:
198,177,69547,1,2,0:0:0:0:
72,148,69715,2,0,P|88:84|172:48,1,160,2|2,0:0|0:0,0:0:0:0:
272,92,70221,1,10,0:0:0:0:
198,177,70390,1,0,0:0:0:0:
216,288,70558,6,0,P|296:312|372:280,1,160,2|2,0:0|0:0,0:0:0:0:
364,64,71232,2,0,P|344:28|296:4,1,80,2|0,0:0|0:0,0:0:0:0:
272,92,71569,1,10,0:0:0:0:
296,184,71738,2,0,P|248:184|208:164,1,80,0|2,0:0|0:0,0:0:0:0:
124,92,72075,2,0,P|84:104|56:128,1,80,0|2,0:0|0:0,0:0:0:0:
140,200,72412,2,0,P|92:264|96:344,1,160,2|2,0:0|0:0,0:0:0:0:
196,296,72918,5,10,0:0:0:0:
196,296,73002,1,0,0:0:0:0:
196,296,73086,1,0,0:0:0:0:
272,212,73255,2,0,B|356:220|408:140,1,160,0|2,0:0|0:0,0:0:0:0:
260,56,73929,6,0,B|192:56|148:100,1,120.000004577637,6|2,0:0|0:0,0:0:0:0:
200,164,74434,1,0,0:0:0:0:
272,212,74603,2,0,B|240:272|296:324,1,120.000004577637,2|2,0:0|0:0,0:0:0:0:
344,252,75109,1,2,0:0:0:0:
352,168,75277,6,0,B|372:144|408:140,1,60.0000022888184,0|2,0:0|0:0,0:0:0:0:
480,180,75614,2,0,P|488:152|488:120,1,60.0000022888184,2|0,0:0|0:0,0:0:0:0:
424,68,75951,2,0,P|408:44|380:28,1,60.0000022888184,2|0,0:0|0:0,0:0:0:0:
308,68,76288,2,0,P|280:68|248:56,1,60.0000022888184,10|0,0:0|0:0,0:0:0:0:
220,136,76625,2,0,P|200:156|164:164,1,60.0000022888184,10|0,0:0|0:0,0:0:0:0:
96,208,76963,1,2,0:0:0:0:
80,320,77131,2,0,P|124:324|160:300,1,80,0|2,0:0|0:0,0:0:0:0:
260,272,77468,2,0,P|296:280|320:316,1,80,0|2,0:0|0:0,0:0:0:0:
316,200,77805,6,0,P|400:160|380:104,1,160,6|2,0:0|0:0,0:0:0:0:
316,200,78311,1,2,0:0:0:0:
388,112,78479,1,2,0:0:0:0:
96,208,78648,1,10,0:0:0:0:
272,92,78816,1,2,0:0:0:0:
216,188,78985,1,2,0:0:0:0:
196,224,79069,1,2,0:0:0:0:
200,268,79154,1,2,0:0:0:0:
216,308,79238,1,2,0:0:0:0:
248,336,79322,6,0,P|272:356|304:360,1,60.0000022888184,6|2,0:0|0:0,0:0:0:0:
384,348,79659,2,0,P|416:332|428:312,1,60.0000022888184,10|2,0:0|0:0,0:0:0:0:
384,232,79996,2,0,P|388:200|404:176,1,60.0000022888184,2|2,0:0|0:0,0:0:0:0:
468,124,80333,1,10,0:0:0:0:
396,80,80502,6,0,P|372:64|340:60,1,60.0000022888184,2|2,0:0|0:0,0:0:0:0:
340,144,80839,1,2,0:0:0:0:
340,144,81008,1,2,0:0:0:0:
228,100,81176,1,2,0:0:0:0:
116,140,81345,2,0,B|80:152|64:192,2,60.0000022888184,2|2|2,0:0|0:0|0:0,0:0:0:0:
228,100,81850,1,0,0:0:0:0:
252,208,82019,6,0,L|280:288,1,80,2|2,0:0|0:0,0:0:0:0:
278,283,82356,1,2,0:0:0:0:
168,304,82524,1,2,0:0:0:0:
168,304,82693,2,0,L|96:264,1,80,2|0,0:0|0:0,0:0:0:0:
92,152,83030,2,0,L|156:200,1,80,2|0,0:0|0:0,0:0:0:0:
196,56,83367,5,2,0:0:0:0:
278,283,83536,1,2,0:0:0:0:
352,56,83704,1,2,0:0:0:0:
156,200,83873,1,2,0:0:0:0:
408,200,84041,1,2,0:0:0:0:
280,284,84210,1,2,0:0:0:0:
168,304,84378,1,2,0:0:0:0:
136,164,84547,1,2,0:0:0:0:
152,124,84631,1,2,0:0:0:0:
136,84,84715,6,0,P|92:64|72:68,1,60.0000022888184,6|0,0:0|0:0,0:0:0:0:
28,132,85052,1,10,0:0:0:0:
16,216,85221,2,0,P|40:244|72:264,1,60.0000022888184,2|0,0:0|0:0,0:0:0:0:
204,252,85558,1,0,0:0:0:0:
316,180,85727,1,2,0:0:0:0:
344,148,85811,1,2,0:0:0:0:
372,116,85895,2,0,P|408:72|452:24,1,120.000004577637,10|0,0:0|0:0,0:0:0:0:
72,212,86738,5,2,0:0:0:0:
68,252,86822,1,2,0:0:0:0:
96,284,86906,1,2,0:0:0:0:
204,252,87075,1,2,0:0:0:0:
236,276,87159,1,2,0:0:0:0:
276,280,87243,1,2,0:0:0:0:
316,268,87328,1,2,0:0:0:0:
344,236,87412,6,0,P|348:200|336:172,1,60.0000022888184,6|0,0:0|0:0,0:0:0:0:
276,124,87749,1,2,0:0:0:0:
336,64,87918,1,8,0:0:0:0:
376,48,88002,1,2,0:0:0:0:
416,64,88086,1,0,0:0:0:0:
468,192,88255,1,10,0:0:0:0:
468,192,88423,1,2,0:0:0:0:
444,272,88592,2,0,P|412:272|388:288,1,60.0000022888184,10|0,0:0|0:0,0:0:0:0:
328,344,88929,5,2,0:0:0:0:
284,272,89097,1,10,0:0:0:0:
180,236,89266,1,0,0:0:0:0:
160,200,89350,1,2,0:0:0:0:
172,160,89434,1,2,0:0:0:0:
224,60,89603,1,10,0:0:0:0:
332,92,89772,1,2,0:0:0:0:
324,204,89940,1,0,0:0:0:0:
316,244,90024,1,0,0:0:0:0:
284,272,90109,6,0,P|276:300|288:336,1,60.0000022888184,2|0,0:0|0:0,0:0:0:0:
476,244,90446,1,2,0:0:0:0:
332,92,90614,1,0,0:0:0:0:
332,92,90699,1,2,0:0:0:0:
332,92,90783,2,0,P|304:76|264:72,1,60.0000022888184,2|2,0:0|0:0,0:0:0:0:
140,164,91120,1,10,0:0:0:0:
140,164,91288,2,0,P|112:204|112:240,1,80,2|0,0:0|0:0,0:0:0:0:
20,164,91625,5,2,0:0:0:0:
20,164,91794,1,2,0:0:0:0:
80,68,91963,2,0,P|116:52|164:56,1,80,2|0,0:0|0:0,0:0:0:0:
140,164,92300,1,10,0:0:0:0:
200,256,92468,2,0,P|224:296|256:316,1,80,2|0,0:0|0:0,0:0:0:0:
432,216,92805,6,0,P|456:172|448:116,1,80,6|0,0:0|0:0,0:0:0:0:
456,143,93142,1,10,0:0:0:0:
380,60,93311,1,0,0:0:0:0:
332,28,93395,1,2,0:0:0:0:
276,16,93479,1,2,0:0:0:0:
172,56,93648,1,2,0:0:0:0:
140,164,93816,1,2,0:0:0:0:
200,256,93985,6,0,L|280:192,1,80,2|0,0:0|0:0,0:0:0:0:
364,256,94322,1,10,0:0:0:0:
360,312,94406,1,0,0:0:0:0:
312,340,94491,2,0,P|272:348|224:340,1,80,2|0,0:0|0:0,0:0:0:0:
204,296,94743,2,0,L|200:236,1,40,2|2,0:0|0:0,0:0:0:0:
140,164,94996,1,2,0:0:0:0:
48,100,95165,2,0,B|68:64|104:40|156:44|188:60,1,160,10|2,0:0|0:0,0:0:0:0:
396,168,95839,5,10,0:0:0:0:
284,184,96008,1,0,0:0:0:0:
284,184,96092,1,10,0:0:0:0:
284,184,96176,1,0,0:0:0:0:
360,264,96345,1,2,0:0:0:0:
360,264,96513,1,10,0:0:0:0:
360,264,96682,6,0,P|380:308|368:344,1,80,0|0,0:0|0:0,0:0:0:0:
104,192,97019,1,2,0:0:0:0:
192,264,97187,1,10,0:0:0:0:
384,108,97356,2,0,P|380:64|348:32,1,80,2|0,0:0|0:0,0:0:0:0:
268,104,97693,2,0,P|228:84|184:88,1,80,2|10,0:0|0:0,0:0:0:0:
120,168,98030,1,2,0:0:0:0:
72,268,98199,5,2,0:0:0:0:
292,328,98367,1,6,0:0:0:0:
292,328,98704,5,2,0:0:0:0:
472,184,98872,1,6,0:0:0:0:
472,184,99210,5,2,0:0:0:0:
120,116,99378,1,6,0:0:0:0:
256,192,99547,12,0,104940,0:0:0:0:
