osu file format v14

[General]
AudioFilename: Sweet Sweet Alice.mp3
AudioLeadIn: 0
PreviewTime: 56738
Countdown: 0
SampleSet: Soft
StackLeniency: 0.7
Mode: 0
LetterboxInBreaks: 0
WidescreenStoryboard: 0

[Editor]
Bookmarks: 15109,22693,24547,29940,43255,86738,98199
DistanceSpacing: 1.2
BeatDivisor: 4
GridSize: 4
TimelineZoom: 1.6

[Metadata]
Title:Sweet Sweet Arisu
TitleUnicode:Sweet Sweet アリス
Artist:Shiiba Tsumugi
ArtistUnicode:椎葉 紬
Creator:HiverK
Version:Hard
Source:サノバウィッチ
Tags:yuzu soft sothewitch sanoba witch sabbat of the witch character vol3 黒咲そら kurosaki sora
BeatmapID:581497
BeatmapSetID:252477

[Difficulty]
HPDrainRate:5
CircleSize:4
OverallDifficulty:6
ApproachRate:8
SliderMultiplier:1.4
SliderTickRate:1

[Events]
//Background and Video events
0,0,"bg.jpg",0,0
//Break Periods
//Storyboard Layer 0 (Background)
//Storyboard Layer 1 (Fail)
//Storyboard Layer 2 (Pass)
//Storyboard Layer 3 (Foreground)
//Storyboard Sound Samples

[TimingPoints]
3817,337.078651685393,4,2,1,60,1,0
8957,-133.333333333333,4,2,1,60,0,0
9715,-100,4,2,1,60,0,0
21176,-133.333333333333,4,2,1,60,0,0
24547,-100,4,2,1,60,0,0
25390,-133.333333333333,4,2,1,60,0,0
29940,-100,4,2,1,50,0,0
35333,-133.333333333333,4,2,1,50,0,0
40558,-100,4,2,1,50,0,0
44266,-133.333333333333,4,2,1,50,0,0
55052,-100,4,2,1,50,0,0
56738,-100,4,2,1,40,0,0
57749,-100,4,2,1,60,0,1
63142,-133.333333333333,4,2,1,60,0,0
68536,-100,4,2,1,60,0,1
73929,-133.333333333333,4,2,1,60,0,0
78311,-100,4,2,1,60,0,0
79322,-100,4,2,1,60,0,1
84715,-133.333333333333,4,2,1,50,0,1
86738,-133.333333333333,4,2,1,60,0,0
100895,-133.333333333333,4,2,1,55,0,0
101569,-133.333333333333,4,2,1,50,0,0
102243,-133.333333333333,4,2,1,40,0,0
102918,-133.333333333333,4,2,1,30,0,0
103592,-133.333333333333,4,2,1,20,0,0
104266,-133.333333333333,4,2,1,10,0,0
104940,-133.333333333333,4,2,1,5,0,0

[Colours]
Combo1 : 225,155,255
Combo2 : 255,0,0
Combo3 : 255,175,65
Combo4 : 255,230,65
Combo5 : 0,255,0
Combo6 : 0,255,255

[HitObjects]
132,92,3816,5,10,0:0:0:0:
132,92,4996,2,0,P|188:52|256:64,1,140,2|2,0:0|0:0,0:0:0:0:
208,136,5502,2,0,P|228:160|284:168,1,70,10|2,0:0|0:0,0:0:0:0:
348,164,5839,1,2,0:0:0:0:
312,328,6176,1,2,0:0:0:0:
236,288,6345,5,2,0:0:0:0:
236,288,6429,1,2,0:0:0:0:
236,288,6513,1,10,0:0:0:0:
112,223,7693,2,0,P|104:148|140:84,1,140,2|2,0:0|0:0,0:0:0:0:
212,120,8199,2,0,P|248:84|284:76,1,70,2|2,0:0|0:0,0:0:0:0:
344,104,8536,1,2,0:0:0:0:
232,228,8873,2,0,L|260:248,3,35,2|2|2|2,0:0|0:0|0:0|0:0,0:0:0:0:
288,264,9210,6,0,P|328:236|388:228,1,105.000004005432,6|8,0:0|0:0,0:0:0:0:
451,176,9715,2,0,P|410:120|344:104,1,140,2|2,0:0|0:0,0:0:0:0:
260,96,10221,1,2,0:0:0:0:
176,100,10390,1,10,0:0:0:0:
72,240,11232,2,0,P|136:244|192:304,1,140,10|10,0:0|0:0,0:0:0:0:
336,216,11906,6,0,P|396:212|452:160,1,140,2|10,0:0|0:0,0:0:0:0:
312,64,12581,1,0,0:0:0:0:
248,120,12749,1,2,0:0:0:0:
164,96,12918,1,2,0:0:0:0:
164,96,13086,2,0,P|104:136|100:204,1,140,2|2,0:0|0:0,0:0:0:0:
132,276,13592,1,10,0:0:0:0:
204,320,13760,1,0,0:0:0:0:
212,312,13845,1,2,0:0:0:0:
220,304,13929,2,0,P|292:264|340:296,2,140,2|10|2,0:0|0:0|0:0,0:0:0:0:
92,196,14940,5,8,0:0:0:0:
136,124,15109,1,0,0:0:0:0:
136,124,15193,1,0,0:0:0:0:
136,124,15277,1,0,0:0:0:0:
212,92,15446,1,2,0:0:0:0:
212,92,15614,1,10,0:0:0:0:
296,80,15783,6,0,L|384:80,2,70,2|0|2,0:0|0:0|0:0,0:0:0:0:
212,92,16288,1,10,0:0:0:0:
212,92,16457,1,2,0:0:0:0:
264,160,16625,2,0,P|336:176|380:224,1,140,0|10,0:0|0:0,0:0:0:0:
379,223,17300,6,0,P|424:167|488:145,1,140,6|10,0:0|0:0,0:0:0:0:
352,48,17974,1,0,0:0:0:0:
184,48,18311,1,2,0:0:0:0:
184,48,18479,2,0,P|144:56|116:80,2,70,2|0|2,0:0|0:0|0:0,0:0:0:0:
180,132,18985,2,0,P|216:128|248:144,1,70,10|0,0:0|0:0,0:0:0:0:
272,160,19238,1,2,0:0:0:0:
284,188,19322,1,2,0:0:0:0:
248,264,19491,5,2,0:0:0:0:
288,336,19659,2,0,P|216:340|168:288,1,140,10|2,0:0|0:0,0:0:0:0:
180,132,20333,2,0,P|200:84|224:80,1,70,10|0,0:0|0:0,0:0:0:0:
244,68,20586,1,2,0:0:0:0:
276,64,20670,1,0,0:0:0:0:
352,100,20839,1,2,0:0:0:0:
400,168,21008,1,10,0:0:0:0:
324,204,21176,6,0,L|348:256,1,52.5000020027161,2|0,0:0|0:0,0:0:0:0:
312,316,21513,1,2,0:0:0:0:
252,272,21682,1,10,0:0:0:0:
184,300,21850,2,0,P|100:288|92:204,1,157.500006008148,2|10,0:0|0:0,0:0:0:0:
116,104,22693,5,6,0:0:0:0:
276,60,24547,5,10,0:0:0:0:
116,104,24884,1,2,0:0:0:0:
184,152,25052,1,8,0:0:0:0:
268,164,25221,1,10,0:0:0:0:
352,156,25390,6,0,P|344:208|304:240,1,105.000004005432,2|8,0:0|0:0,0:0:0:0:
184,268,26064,2,0,P|197:318|240:346,1,105.000004005432,2|8,0:0|0:0,0:0:0:0:
364,340,26738,2,0,L|476:340,2,105.000004005432,2|10|2,0:0|0:0|0:0,0:0:0:0:
272,252,27749,1,10,0:0:0:0:
400,220,28086,5,6,0:0:0:0:
504,52,29940,5,10,0:0:0:0:
392,176,30277,1,2,0:0:0:0:
316,140,30446,1,8,0:0:0:0:
232,148,30614,1,2,0:0:0:0:
192,224,30783,6,0,P|136:192|104:120,1,140,2|10,0:0|0:0,0:0:0:0:
84,44,31288,1,0,0:0:0:0:
32,112,31457,2,0,P|12:184|40:252,1,140,2|8,0:0|0:0,0:0:0:0:
104,292,31963,1,0,0:0:0:0:
180,324,32131,2,0,P|248:304|316:328,2,140,2|10|10,0:0|0:0|0:0,0:0:0:0:
180,324,33142,1,10,0:0:0:0:
104,176,33479,5,6,0:0:0:0:
224,60,33816,1,2,0:0:0:0:
376,132,34154,1,2,0:0:0:0:
336,296,34491,1,2,0:0:0:0:
180,324,34828,1,2,0:0:0:0:
28,210,35333,6,0,P|44:150|96:110,1,105.000004005432,6|10,0:0|0:0,0:0:0:0:
124,84,35839,1,10,0:0:0:0:
184,64,36008,1,10,0:0:0:0:
244,80,36176,6,0,P|292:120|344:120,1,105.000004005432,6|10,0:0|0:0,0:0:0:0:
424,36,36850,2,0,P|452:76|456:132,1,105.000004005432,2|10,0:0|0:0,0:0:0:0:
368,220,37524,2,0,L|292:220,1,52.5000020027161,2|0,0:0|0:0,0:0:0:0:
263,284,37861,2,0,L|316:284,1,52.5000020027161,8|2,0:0|0:0,0:0:0:0:
264,348,38199,2,0,L|204:348,1,52.5000020027161,0|2,0:0|0:0,0:0:0:0:
148,348,38536,1,10,0:0:0:0:
80,240,38873,6,0,P|168:224|196:208,1,105.000004005432,6|8,0:0|0:0,0:0:0:0:
304,192,39547,2,0,P|256:176|208:148,1,105.000004005432,2|8,0:0|0:0,0:0:0:0:
160,108,40052,2,0,P|180:64|228:36,1,105.000004005432,6|2,0:0|0:0,0:0:0:0:
312,28,40558,5,10,0:0:0:0:
396,28,40727,1,0,0:0:0:0:
396,28,40895,2,0,P|436:80|400:144,1,140,2|10,0:0|0:0,0:0:0:0:
324,136,41401,1,0,0:0:0:0:
240,136,41569,6,0,P|228:208|256:268,1,140,6|10,0:0|0:0,0:0:0:0:
332,232,42075,1,0,0:0:0:0:
332,316,42243,2,0,P|276:356|208:344,1,140,2|10,0:0|0:0,0:0:0:0:
140,296,42749,1,10,0:0:0:0:
36,164,43086,5,2,0:0:0:0:
104,112,43255,2,0,L|160:68,1,70,10|2,0:0|0:0,0:0:0:0:
232,28,43592,1,10,0:0:0:0:
304,72,43760,1,2,0:0:0:0:
388,56,43929,2,0,P|424:48|456:64,1,70,2|0,0:0|0:0,0:0:0:0:
496,132,44266,6,0,P|508:184|476:228,1,105.000004005432,6|0,0:0|0:0,0:0:0:0:
420,208,44772,1,2,0:0:0:0:
384,156,44940,2,0,P|324:152|288:188,1,105.000004005432,10|2,0:0|0:0,0:0:0:0:
232,292,45614,6,0,P|212:268|176:256,1,52.5000020027161,2|0,0:0|0:0,0:0:0:0:
132,264,45951,2,0,P|112:240|104:212,1,52.5000020027161,0|2,0:0|0:0,0:0:0:0:
100,156,46288,1,10,0:0:0:0:
176,52,46625,1,2,0:0:0:0:
296,96,46963,6,0,P|356:84|408:96,1,105.000004005432,2|0,0:0|0:0,0:0:0:0:
316,188,47637,2,0,P|260:176|200:192,1,105.000004005432,10|2,0:0|0:0,0:0:0:0:
92,152,48311,2,0,P|80:212|104:260,1,105.000004005432,2|0,0:0|0:0,0:0:0:0:
188,336,48985,1,10,0:0:0:0:
312,332,49322,1,10,0:0:0:0:
388,280,49491,5,2,0:0:0:0:
396,272,49575,1,2,0:0:0:0:
404,264,49660,2,0,P|420:216|408:156,1,105.000004005432,6|0,0:0|0:0,0:0:0:0:
364,52,50333,2,0,P|336:92|324:148,1,105.000004005432,2|2,0:0|0:0,0:0:0:0:
216,81,51008,6,0,L|260:141,1,52.5000020027161,2|0,0:0|0:0,0:0:0:0:
257,185,51345,2,0,L|217:225,1,52.5000020027161,0|2,0:0|0:0,0:0:0:0:
164,248,51682,1,10,0:0:0:0:
108,224,51850,1,2,0:0:0:0:
72,172,52019,1,10,0:0:0:0:
76,108,52187,1,0,0:0:0:0:
118,60,52356,6,0,P|173:58|216:81,1,105.000004005432,6|2,0:0|0:0,0:0:0:0:
260,124,52861,1,0,0:0:0:0:
257,185,53030,2,0,P|305:189|361:173,1,105.000004005432,2|2,0:0|0:0,0:0:0:0:
436,84,53704,2,0,L|488:180,1,105.000004005432,2|2,0:0|0:0,0:0:0:0:
448,228,54210,1,0,0:0:0:0:
400,268,54378,2,0,L|448:368,1,105.000004005432,2|2,0:0|0:0,0:0:0:0:
284,316,55052,5,6,0:0:0:0:
168,196,55390,1,10,0:0:0:0:
168,196,55558,2,0,L|224:152,1,70,2|10,0:0|0:0,0:0:0:0:
304,172,55895,2,0,L|360:128,1,70,2|10,0:0|0:0,0:0:0:0:
440,148,56232,2,0,L|448:220,1,70,0|2,0:0|0:0,0:0:0:0:
300,296,56738,5,0,0:0:0:0:
168,196,57075,1,2,0:0:0:0:
40,84,57412,1,2,0:0:0:0:
204,52,57749,6,0,P|280:40|348:72,1,140,6|2,0:0|0:0,0:0:0:0:
400,120,58255,2,0,L|400:200,1,70,0|2,0:0|0:0,0:0:0:0:
322,156,58592,2,0,L|322:226,1,70,2|10,0:0|0:0,0:0:0:0:
320,312,58929,2,0,P|260:348|192:332,1,140,2|2,0:0|0:0,0:0:0:0:
136,276,59434,1,10,0:0:0:0:
252,156,59772,2,0,L|332:156,2,70,2|0|2,0:0|0:0|0:0,0:0:0:0:
124,48,60446,6,0,P|64:92|60:168,1,140,2|2,0:0|0:0,0:0:0:0:
104,220,60951,2,0,L|180:220,1,70,0|2,0:0|0:0,0:0:0:0:
144,292,61288,2,0,L|214:292,1,70,2|10,0:0|0:0,0:0:0:0:
296,316,61625,2,0,P|368:296|408:236,1,140,2|2,0:0|0:0,0:0:0:0:
396,160,62131,1,10,0:0:0:0:
252,76,62468,2,0,L|182:76,2,70,2|0|2,0:0|0:0|0:0,0:0:0:0:
96,140,63142,6,0,P|72:184|80:236,1,105.000004005432,2|10,0:0|0:0,0:0:0:0:
204,264,63816,2,0,P|228:308|276:332,1,105.000004005432,2|10,0:0|0:0,0:0:0:0:
360,240,64491,2,0,P|408:212|424:164,1,105.000004005432,2|10,0:0|0:0,0:0:0:0:
324,92,65165,2,0,P|280:64|228:56,1,105.000004005432,2|10,0:0|0:0,0:0:0:0:
104,64,65839,5,6,0:0:0:0:
188,156,66176,1,2,0:0:0:0:
140,200,66345,2,0,L|88:252,2,52.5000020027161,0|2|0,0:0|0:0|0:0,0:0:0:0:
188,240,66850,1,2,0:0:0:0:
252,240,67019,2,0,L|372:240,1,105.000004005432,2|2,0:0|0:0,0:0:0:0:
356,176,67524,5,10,0:0:0:0:
400,132,67693,1,10,0:0:0:0:
448,172,67861,2,0,P|456:240|424:288,1,105.000004005432,2|10,0:0|0:0,0:0:0:0:
296,360,68536,6,0,P|300:300|248:236,1,140,6|2,0:0|0:0,0:0:0:0:
176,268,69041,2,0,P|140:260|116:236,1,70,0|10,0:0|0:0,0:0:0:0:
84,160,69378,2,0,P|92:124|116:100,1,70,0|10,0:0|0:0,0:0:0:0:
196,72,69715,2,0,P|272:68|332:104,1,140,2|2,0:0|0:0,0:0:0:0:
356,176,70221,1,10,0:0:0:0:
248,304,70558,6,0,P|324:312|360:256,1,140,2|10,0:0|0:0,0:0:0:0:
192,244,71232,2,0,P|204:172|152:108,1,140,2|10,0:0|0:0,0:0:0:0:
244,80,71738,2,0,P|292:96|316:124,1,70,0|2,0:0|0:0,0:0:0:0:
356,176,72075,2,0,P|340:240|316:252,1,70,0|2,0:0|0:0,0:0:0:0:
276,296,72412,2,0,P|192:324|124:292,1,140,2|2,0:0|0:0,0:0:0:0:
84,252,72918,1,10,0:0:0:0:
80,84,73255,6,0,L|160:84,1,70,2|0,0:0|0:0,0:0:0:0:
132,168,73592,2,0,L|212:168,1,70,2|0,0:0|0:0,0:0:0:0:
192,256,73929,2,0,P|220:292|276:296,1,105.000004005432,6|2,0:0|0:0,0:0:0:0:
388,356,74603,2,0,P|428:332|432:272,1,105.000004005432,2|2,0:0|0:0,0:0:0:0:
480,160,75277,2,0,P|460:116|400:104,1,105.000004005432,2|2,0:0|0:0,0:0:0:0:
304,32,75951,2,0,P|240:40|216:76,1,105.000004005432,2|2,0:0|0:0,0:0:0:0:
140,172,76625,5,2,0:0:0:0:
140,300,76963,2,0,L|140:360,2,52.5000020027161,2|0|2,0:0|0:0|0:0,0:0:0:0:
200,288,77468,2,0,P|220:264|248:260,1,52.5000020027161,0|2,0:0|0:0,0:0:0:0:
292,292,77805,2,0,P|344:280|364:228,1,105.000004005432,6|2,0:0|0:0,0:0:0:0:
376,152,78311,1,2,0:0:0:0:
324,84,78479,1,2,0:0:0:0:
260,136,78648,1,2,0:0:0:0:
200,80,78816,1,2,0:0:0:0:
120,56,78985,2,0,L|120:96,3,35,2|2|2|2,0:0|0:0|0:0|0:0,0:0:0:0:
132,132,79322,6,0,L|132:276,1,140,6|10,0:0|0:0,0:0:0:0:
200,224,79828,1,2,0:0:0:0:
268,272,79996,2,0,L|268:132,1,140,2|10,0:0|0:0,0:0:0:0:
328,72,80502,2,0,P|368:68|396:80,1,70,0|2,0:0|0:0,0:0:0:0:
460,132,80839,5,2,0:0:0:0:
400,192,81008,1,10,0:0:0:0:
468,244,81176,1,2,0:0:0:0:
388,280,81345,2,0,P|350:269|324:237,1,70,10|2,0:0|0:0,0:0:0:0:
264,156,81682,2,0,P|225:144|187:157,1,70,10|2,0:0|0:0,0:0:0:0:
132,204,82019,6,0,L|132:344,1,140,2|10,0:0|0:0,0:0:0:0:
200,296,82524,1,2,0:0:0:0:
268,344,82693,2,0,L|268:204,1,140,2|10,0:0|0:0,0:0:0:0:
352,224,83199,1,2,0:0:0:0:
408,288,83367,5,10,0:0:0:0:
440,208,83536,1,2,0:0:0:0:
420,128,83704,1,10,0:0:0:0:
352,80,83873,1,2,0:0:0:0:
268,64,84041,2,0,P|233:62|205:82,1,70,10|0,0:0|0:0,0:0:0:0:
258,146,84378,2,0,P|230:166|196:164,1,70,2|10,0:0|0:0,0:0:0:0:
136,224,84715,6,0,P|160:272|200:304,1,105.000004005432,6|10,0:0|0:0,0:0:0:0:
260,320,85221,1,2,0:0:0:0:
380,284,85558,1,2,0:0:0:0:
392,160,85895,1,2,0:0:0:0:
112,24,86738,5,2,0:0:0:0:
36,124,87075,1,2,0:0:0:0:
56,248,87412,2,0,P|104:292|148:296,1,105.000004005432,2|8,0:0|0:0,0:0:0:0:
268,304,88086,1,0,0:0:0:0:
392,304,88423,1,2,0:0:0:0:
392,304,88592,2,0,L|392:196,1,105.000004005432,2|0,0:0|0:0,0:0:0:0:
392,136,89097,1,8,0:0:0:0:
300,48,89434,6,0,L|240:76,1,52.5000020027161,2|2,0:0|0:0,0:0:0:0:
256,132,89772,2,0,L|196:164,1,52.5000020027161,10|0,0:0|0:0,0:0:0:0:
208,220,90109,1,2,0:0:0:0:
84,212,90446,2,0,L|152:304,1,105.000004005432,10|0,0:0|0:0,0:0:0:0:
200,328,90951,2,0,L|268:336,1,52.5000020027161,2|10,0:0|0:0,0:0:0:0:
316,340,91288,6,0,P|376:336|416:284,1,105.000004005432,2|2,0:0|0:0,0:0:0:0:
436,248,91794,1,10,0:0:0:0:
436,248,91963,1,2,0:0:0:0:
408,192,92131,2,0,L|360:140,1,52.5000020027161,0|2,0:0|0:0,0:0:0:0:
352,92,92468,2,0,L|300:108,1,52.5000020027161,10|0,0:0|0:0,0:0:0:0:
264,156,92805,6,0,P|296:208|276:256,1,105.000004005432,6|10,0:0|0:0,0:0:0:0:
164,288,93479,1,0,0:0:0:0:
40,292,93816,1,10,0:0:0:0:
40,292,93985,2,0,L|40:184,1,105.000004005432,2|2,0:0|0:0,0:0:0:0:
40,124,94490,1,10,0:0:0:0:
152,60,94827,6,0,L|212:88,1,52.5000020027161,2|2,0:0|0:0,0:0:0:0:
196,144,95165,2,0,L|256:176,1,52.5000020027161,10|0,0:0|0:0,0:0:0:0:
244,232,95502,2,0,L|344:284,1,105.000004005432,2|10,0:0|0:0,0:0:0:0:
400,212,96092,1,10,0:0:0:0:
400,212,96176,2,0,L|400:136,1,52.5000020027161,2|2,0:0|0:0,0:0:0:0:
376,100,96513,1,10,0:0:0:0:
312,88,96682,6,0,L|184:64,1,105.000004005432,2|2,0:0|0:0,0:0:0:0:
188,128,97187,1,10,0:0:0:0:
180,192,97356,2,0,L|80:244,1,105.000004005432,2|2,0:0|0:0,0:0:0:0:
80,304,97861,1,10,0:0:0:0:
204,328,98199,5,6,0:0:0:0:
268,328,98367,1,6,0:0:0:0:
384,276,98704,5,6,0:0:0:0:
388,212,98873,1,6,0:0:0:0:
328,100,99210,5,6,0:0:0:0:
280,60,99378,1,6,0:0:0:0:
256,192,99715,12,0,104940,0:0:0:0:
