osu file format v14

[General]
AudioFilename: Sweet Sweet Alice.mp3
AudioLeadIn: 0
PreviewTime: 56738
Countdown: 0
SampleSet: Soft
StackLeniency: 0.7
Mode: 0
LetterboxInBreaks: 0
WidescreenStoryboard: 0

[Editor]
Bookmarks: 15109,22693,24547,29940,43255,86738,98199
DistanceSpacing: 1
BeatDivisor: 4
GridSize: 4
TimelineZoom: 1

[Metadata]
Title:Sweet Sweet Arisu
TitleUnicode:Sweet Sweet アリス
Artist:Shiiba Tsumugi
ArtistUnicode:椎葉 紬
Creator:HiverK
Version:Easy
Source:サノバウィッチ
Tags:yuzu soft sothewitch sanoba witch sabbat of the witch character vol3 黒咲そら kurosaki sora
BeatmapID:579953
BeatmapSetID:252477

[Difficulty]
HPDrainRate:3
CircleSize:3
OverallDifficulty:3
ApproachRate:3
SliderMultiplier:0.9
SliderTickRate:1

[Events]
//Background and Video events
0,0,"bg.jpg",0,0
//Break Periods
//Storyboard Layer 0 (Background)
//Storyboard Layer 1 (Fail)
//Storyboard Layer 2 (Pass)
//Storyboard Layer 3 (Foreground)
//Storyboard Sound Samples

[TimingPoints]
3817,337.078651685393,4,2,1,60,1,0
57749,-100,4,2,1,65,0,1
63142,-100,4,2,1,65,0,0
68536,-100,4,2,1,65,0,1
73929,-100,4,2,1,65,0,0
78985,-100,4,2,1,60,0,0
79322,-100,4,2,1,60,0,1
86738,-100,4,2,1,60,0,0
100895,-100,4,2,1,55,0,0
101569,-100,4,2,1,50,0,0
102243,-100,4,2,1,40,0,0
102918,-100,4,2,1,30,0,0
103592,-100,4,2,1,20,0,0
104266,-100,4,2,1,10,0,0
104940,-100,4,2,1,5,0,0

[Colours]
Combo1 : 225,155,255
Combo2 : 255,0,0
Combo3 : 255,175,65
Combo4 : 255,230,65
Combo5 : 0,255,0
Combo6 : 0,255,255

[HitObjects]
356,320,3816,5,10,0:0:0:0:
64,200,4996,2,0,P|100:80|188:60,1,225,10|2,0:0|0:0,0:0:0:0:
368,72,6513,5,10,0:0:0:0:
212,344,7693,2,0,P|92:308|72:220,1,225,10|2,0:0|0:0,0:0:0:0:
240,164,9210,6,0,B|288:124|304:56|304:56|392:100,1,225,10|2,0:0|0:0,0:0:0:0:
468,144,10390,1,10,0:0:0:0:
240,164,11232,2,0,B|256:204|300:228,1,90,10|2,0:0|0:0,0:0:0:0:
392,220,11906,6,0,P|460:268|452:360,1,180,10|0,0:0|0:0,0:0:0:0:
380,308,12918,2,0,P|356:312|328:312,1,45,2|2,0:0|0:0,0:0:0:0:
250,280,13592,2,0,P|276:244|276:196,2,90,10|2|10,0:0|0:0|0:0,0:0:0:0:
188,216,14603,2,0,P|143:217|112:256,1,90,2|10,0:0|0:0,0:0:0:0:
96,336,15277,1,2,0:0:0:0:
20,224,15783,6,0,B|20:112|132:40,1,225,2|0,0:0|0:0,0:0:0:0:
220,32,16963,1,10,0:0:0:0:
184,116,17300,6,0,B|192:224|308:216,1,180,6|2,0:0|0:0,0:0:0:0:
384,176,18311,6,0,P|464:224|468:304,1,180,10|10,0:0|0:0,0:0:0:0:
384,268,19322,2,0,P|344:288|312:324,1,90,2|10,0:0|0:0,0:0:0:0:
224,340,19996,6,0,B|120:328|100:220,1,180,2|2,0:0|0:0,0:0:0:0:
236,204,21176,2,0,B|216:101|107:88,1,180,2|2,0:0|0:0,0:0:0:0:
101,227,22356,1,10,0:0:0:0:
32,284,22693,5,6,0:0:0:0:
456,32,24547,2,0,P|492:132|416:212,1,225,6|2,0:0|0:0,0:0:0:0:
328,200,25727,5,10,0:0:0:0:
252,152,26064,2,0,P|216:176|204:224,1,90,2|10,0:0|0:0,0:0:0:0:
144,284,26738,5,2,0:0:0:0:
80,220,27075,2,0,P|67:177|31:152,1,90,10|2,0:0|0:0,0:0:0:0:
100,92,27749,1,10,0:0:0:0:
24,44,28086,5,6,0:0:0:0:
424,340,29940,2,0,P|460:240|392:148,1,225,6|10,0:0|0:0,0:0:0:0:
320,196,31120,5,2,0:0:0:0:
318,103,31457,2,0,P|275:112|244:144,1,90,10|2,0:0|0:0,0:0:0:0:
188,216,32131,5,2,0:0:0:0:
144,136,32468,1,2,0:0:0:0:
60,104,32805,2,0,L|60:196,1,90,10|10,0:0|0:0,0:0:0:0:
116,264,33479,6,0,P|148:294|192:300,1,90,2|2,0:0|0:0,0:0:0:0:
268,248,34154,2,0,P|312:246|347:219,1,90,2|2,0:0|0:0,0:0:0:0:
368,132,34828,1,2,0:0:0:0:
496,172,35333,2,0,P|476:256|444:296,1,135,6|2,0:0|0:0,0:0:0:0:
368,336,36176,6,0,P|324:348|280:336,1,90,6|10,0:0|0:0,0:0:0:0:
324,260,36850,2,0,P|281:243|252:208,1,90,2|10,0:0|0:0,0:0:0:0:
336,176,37524,2,0,P|310:137|308:92,1,90,2|10,0:0|0:0,0:0:0:0:
396,112,38199,1,0,0:0:0:0:
452,284,38873,6,0,P|364:264|276:276,1,180,6|2,0:0|0:0,0:0:0:0:
160,348,40052,2,0,P|80:312|56:272,1,135,6|2,0:0|0:0,0:0:0:0:
128,220,40895,2,0,P|140:172|128:132,1,90,2|8,0:0|0:0,0:0:0:0:
76,64,41569,6,0,P|160:32|248:56,1,180,6|2,0:0|0:0,0:0:0:0:
272,140,42581,2,0,P|261:162|252:188,1,45,2|10,0:0|0:0,0:0:0:0:
348,88,43255,2,0,P|392:92|428:124,2,90,2|2|2,0:0|0:0|0:0,0:0:0:0:
352,180,44266,6,0,L|320:268,1,90,2|0,0:0|0:0,0:0:0:0:
244,220,44940,2,0,L|216:308,1,90,2|0,0:0|0:0,0:0:0:0:
140,356,45614,2,0,P|120:272|44:220,1,180,2|10,0:0|0:0,0:0:0:0:
112,160,46625,1,2,0:0:0:0:
180,100,46963,6,0,L|252:32,1,90,2|0,0:0|0:0,0:0:0:0:
308,100,47637,2,0,L|380:28,1,90,2|2,0:0|0:0,0:0:0:0:
436,100,48311,2,0,L|504:28,2,90,2|0|2,0:0|0:0|0:0,0:0:0:0:
372,160,49322,1,10,0:0:0:0:
308,220,49659,6,0,L|276:132,1,90,6|0,0:0|0:0,0:0:0:0:
208,192,50333,2,0,L|176:104,1,90,2|0,0:0|0:0,0:0:0:0:
100,60,51008,2,0,P|80:144|4:196,1,180,2|10,0:0|0:0,0:0:0:0:
72,256,52019,1,10,0:0:0:0:
148,304,52356,6,0,L|220:372,1,90,6|2,0:0|0:0,0:0:0:0:
280,304,53030,2,0,L|344:368,1,90,2|2,0:0|0:0,0:0:0:0:
408,304,53704,2,0,L|472:372,2,90,2|2|2,0:0|0:0|0:0,0:0:0:0:
352,236,54715,1,10,0:0:0:0:
264,212,55052,6,0,B|272:164|320:136|364:144,1,135,6|2,0:0|0:0,0:0:0:0:
452,160,55895,1,10,0:0:0:0:
448,248,56232,1,10,0:0:0:0:
365,144,56738,2,0,P|380:104|420:76,2,90,0|2|10,0:0|0:0|0:0,0:0:0:0:
308,72,57749,6,0,P|244:52|180:72,1,135,6|2,0:0|0:0,0:0:0:0:
244,136,58592,1,8,0:0:0:0:
308,200,58929,2,0,P|244:220|176:196,1,135,2|10,0:0|0:0,0:0:0:0:
96,224,59772,2,0,P|84:272|96:312,1,90,2|10,0:0|0:0,0:0:0:0:
181,328,60446,6,0,P|245:348|313:324,1,135,2|2,0:0|0:0,0:0:0:0:
245,264,61288,1,10,0:0:0:0:
180,200,61625,2,0,P|244:180|308:200,1,135,2|10,0:0|0:0,0:0:0:0:
372,264,62468,1,0,0:0:0:0:
416,184,62805,1,8,0:0:0:0:
416,184,63142,6,0,L|416:92,1,90,2|2,0:0|0:0,0:0:0:0:
328,84,63816,2,0,L|252:136,1,90,2|2,0:0|0:0,0:0:0:0:
184,80,64491,2,0,L|260:28,2,90,2|2|2,0:0|0:0|0:0,0:0:0:0:
112,132,65502,1,10,0:0:0:0:
192,176,65839,6,0,P|164:208|120:224,1,90,2|10,0:0|0:0,0:0:0:0:
36,252,66513,2,0,P|96:312|148:308,1,135,2|8,0:0|0:0,0:0:0:0:
268,268,67524,1,10,0:0:0:0:
356,268,67861,2,0,L|448:268,1,90,2|2,0:0|0:0,0:0:0:0:
448,176,68536,5,6,0:0:0:0:
448,88,68873,2,0,P|428:52|384:32,1,90,2|10,0:0|0:0,0:0:0:0:
364,120,69547,2,0,P|288:160|208:120,1,180,2|10,0:0|0:0,0:0:0:0:
144,60,70558,2,0,L|48:60,1,90,2|2,0:0|0:0,0:0:0:0:
52,148,71232,5,2,0:0:0:0:
52,236,71569,2,0,P|72:272|116:292,1,90,2|2,0:0|0:0,0:0:0:0:
140,204,72243,2,0,P|216:164|296:204,1,180,2|10,0:0|0:0,0:0:0:0:
352,272,73255,2,0,L|444:272,1,90,2|2,0:0|0:0,0:0:0:0:
476,188,73929,6,0,L|386:188,1,90,6|10,0:0|0:0,0:0:0:0:
420,104,74603,2,0,L|328:104,1,90,2|10,0:0|0:0,0:0:0:0:
264,164,75277,2,0,L|264:256,1,90,2|10,0:0|0:0,0:0:0:0:
180,216,75951,2,0,L|180:112,1,90,2|10,0:0|0:0,0:0:0:0:
104,76,76625,6,0,B|52:72|28:116,1,90,6|10,0:0|0:0,0:0:0:0:
100,164,77300,2,0,P|80:232|112:288,1,135,0|12,0:0|0:0,0:0:0:0:
244,300,78311,2,0,L|324:252,1,90
396,204,78985,1,2,0:0:0:0:
400,116,79322,6,0,P|376:80|332:68,1,90,6|10,0:0|0:0,0:0:0:0:
316,156,79996,2,0,L|220:156,1,90,2|10,0:0|0:0,0:0:0:0:
240,68,80670,2,0,L|144:68,1,90,2|10,0:0|0:0,0:0:0:0:
72,112,81345,2,0,L|72:204,1,90,2|10,0:0|0:0,0:0:0:0:
72,292,82019,6,0,P|100:328|144:336,1,90,2|10,0:0|0:0,0:0:0:0:
152,248,82693,2,0,L|248:248,1,90,2|10,0:0|0:0,0:0:0:0:
240,336,83367,2,0,L|336:336,1,90,2|10,0:0|0:0,0:0:0:0:
408,292,84042,2,0,L|408:200,1,90,2|6,0:0|0:0,0:0:0:0:
408,112,84715,6,0,B|380:72|332:68|332:68|304:108|304:108|304:200,1,225,2|10,0:0|0:0,0:0:0:0:
304,284,85895,1,2,0:0:0:0:
100,192,86738,6,0,L|100:100,1,90,6|2,0:0|0:0,0:0:0:0:
256,192,87243,12,8,90109,0:0:0:0:
416,108,91288,6,0,P|356:80|292:100,1,135,2|10,0:0|0:0,0:0:0:0:
348,172,92131,1,0,0:0:0:0:
288,236,92468,1,10,0:0:0:0:
280,324,92805,6,0,P|192:348|108:328,1,180,14|2,0:0|0:0,0:0:0:0:
112,236,93816,2,0,L|208:84,1,180,2|10,0:0|0:0,0:0:0:0:
300,84,94828,2,0,L|324:172,1,90,2|10,0:0|0:0,0:0:0:0:
240,208,95502,6,0,B|264:296,1,90,2|10,0:0|0:0,0:0:0:0:
196,352,96176,2,0,L|102:248,1,135,2|10,0:0|0:0,0:0:0:0:
60,172,97019,6,0,P|44:188|28:208,2,45,2|2|10,0:0|0:0|0:0,0:0:0:0:
132,116,97693,2,0,P|150:101|172:88,1,45,2|8,0:0|0:0,0:0:0:0:
256,68,98199,5,6,0:0:0:0:
256,204,98704,1,6,0:0:0:0:
256,340,99210,1,6,0:0:0:0:
256,192,99547,12,0,104940,0:0:0:0:
