osu file format v9

[General]
AudioFilename: 07 - Magic Girl !!.mp3
AudioLeadIn: 2000
PreviewTime: 129270
Countdown: 0
SampleSet: Soft
StackLeniency: 0.7
Mode: 0
LetterboxInBreaks: 0

[Editor]
DistanceSpacing: 1
BeatDivisor: 4
GridSize: 4

[Metadata]
Title:Magic Girl !!
Artist:Shihori
Creator:Frostmourne
Version:Lunatic
Source:Touhou
Tags:Nico A-One eurobeat patchouli knowledge The Embodiment of Scarlet Centennial Festival for Magical girls DJ Command

[Difficulty]
HPDrainRate:7
CircleSize:4
OverallDifficulty:7
ApproachRate:9
SliderMultiplier:1.8
SliderTickRate:2

[Events]
//Background and Video events
0,0,"magic girl.jpg"
//Break Periods
2,31009,42516
2,92546,104055
2,167451,168670
2,170528,171747
2,173604,174824
2,184855,189440
//Storyboard Layer 0 (Background)
//Storyboard Layer 1 (Fail)
//Storyboard Layer 2 (Pass)
//Storyboard Layer 3 (Foreground)
//Storyboard Sound Samples
//Background Colour Transformations
3,100,163,162,255

[TimingPoints]
40,384.615384615385,4,2,1,54,1,0
10809,-100,4,1,1,54,0,0
30809,-100,4,1,1,67,0,0
43116,-100,4,1,1,39,0,0
49270,-100,4,1,1,67,0,0
67732,-83.3333333333333,4,1,1,80,0,1
92348,-100,4,1,1,80,0,0
104655,-100,4,1,1,39,0,0
110809,-100,4,1,1,67,0,0
129271,-83.3333333333333,4,1,1,80,0,1
153886,-83.3333333333333,4,1,1,80,0,0
153934,-83.3333333333333,4,1,1,67,0,0
158501,-83.3333333333333,4,2,1,54,0,0
159655,-83.3333333333333,4,1,1,67,0,0
166193,-83.3333333333333,4,1,1,50,0,0
196963,-71.4285714285714,4,1,1,80,0,1
209270,-83.3333333333333,4,1,1,80,0,0

[Colours]
Combo1 : 128,128,255
Combo2 : 255,0,128
Combo3 : 255,0,255
Combo4 : 255,255,0
Combo5 : 255,128,64
Combo6 : 128,255,128
Combo7 : 255,0,0

[HitObjects]
332,244,40,1,2
280,316,232,2,0,B|236:296|240:240,1,90
280,316,616,2,0,B|234:332|197:290,1,90
124,344,1001,1,0
80,268,1193,1,0
36,348,1386,5,0
156,220,1578,2,0,B|188:184|176:132,1,90
156,220,1963,2,0,B|153:171|107:143,1,90
32,104,2347,1,0
100,44,2540,1,2
32,104,2732,2,0,B|8:164,1,45,0|2
360,64,3116,5,2
452,64,3309,2,0,B|452:116|404:140,1,90
324,140,3693,2,0,B|324:192|372:216,1,90
324,140,4078,5,0
448,248,4270,1,0
324,140,4463,1,0
292,300,4655,6,0,B|316:344|380:336,1,90
292,300,5040,1,0
204,320,5232,1,0
124,284,5424,5,0
344,232,5616,2,0,B|392:224|428:264,2,90,2|0|0
124,284,6193,6,0,B|64:204,1,90,2|0
140,156,6578,2,0,B|200:236,1,90
56,344,6963,2,0,B|-4:264,1,90,0|0
208,104,7347,2,0,B|268:184,1,90
320,244,7732,5,0
404,276,7924,1,0
332,332,8116,5,0
248,296,8309,1,0
392,196,8501,5,0
476,228,8693,1,2
460,140,8886,2,0,B|460:88,1,45,0|2
460,95,9270,6,0,B|440:36|356:36|356:36|284:36,1,180,2|0
52,289,10040,2,0,B|72:348|156:348|156:348|228:348,1,180,2|0
460,140,10809,5,0
324,344,11193,1,0
252,100,11578,6,0,B|236:44,1,60,4|0
176,132,11834,2,0,B|112:100,1,60
159,30,12091,2,0,B|85:28,1,60,4|0
100,29,12347,6,0,B|14:88,1,90,4|0
76,156,12732,1,2
44,244,12924,2,0,B|92:260|140:224,1,90
208,188,13309,1,0
268,120,13501,1,2
208,188,13693,1,0
196,276,13886,1,0
280,240,14078,6,0,B|380:240,1,90,0|2
196,276,14463,2,0,B|100:276,1,90
268,328,14847,5,0
208,188,15040,1,2
192,360,15232,1,0
284,156,15424,1,0
208,188,15616,6,0,B|116:188,1,90,0|2
160,108,16001,2,0,B|68:108,1,90
112,32,16386,2,0,B|20:32,1,90,0|2
112,32,16770,5,0
160,108,16963,1,0
208,188,17155,2,0,B|304:188,1,90,0|2
384,164,17540,1,0
348,80,17732,1,0
348,80,17924,6,0,B|340:72|340:72|332:80|332:80|324:72|324:72|316:80|316:80|308:72|308:72|300:80|300:80|292:72|292:72|284:80|284:80|276:72|276:72|268:80|268:80|260:72|260:72|252:80|252:80|244:72|244:72|236:80|236:80|228:72|228:72|220:80|220:80|168:100|128:68,1,270,2|4
64,20,18693,6,0,B|36:64|60:116,1,90,0|2
112,244,19078,2,0,B|140:200|116:148,1,90,0|0
224,80,19463,2,0,B|196:124|220:176,1,90,0|2
272,304,19848,2,0,B|300:260|276:208,1,90,0|0
184,332,20232,6,0,B|76:332,2,90,0|2|0
272,304,20809,2,0,B|368:304,2,90,0|0|2
204,244,21386,1,0
244,164,21578,5,0
312,224,21770,2,0,B|368:152,1,90,0|2
408,232,22155,2,0,B|492:176,1,90
500,272,22540,2,0,B|416:328,2,90,0|2|0
488,104,23116,6,0,B|456:72|400:84,1,90
340,16,23501,1,2
404,83,23693,2,0,B|368:116|304:104,1,90,0|4
236,72,24078,1,0
156,28,24270,1,2
149,49,24366,1,0
147,71,24463,1,0
151,92,24559,1,0
159,112,24655,6,0,B|179:157|235:159,1,90,4|0
316,128,25040,1,2
400,164,25232,2,0,B|452:164,2,45
324,216,25616,1,0
400,264,25809,2,0,B|452:264,2,45,2|0|0
356,340,26193,5,0
268,368,26386,2,0,B|156:376|108:276,2,180,0|0|0
296,284,27347,2,0,B|332:192|296:108,1,180,2|0
36,192,28116,5,2
256,36,28501,1,0
476,192,28886,1,4
256,348,29270,6,0,B|256:164,1,180,4|2
256,192,30040,12,4,30809
252,252,43116,5,4
168,224,43309,2,0,B|124:132|168:48,2,180
300,168,44270,1,0
320,312,44463,2,0,B|400:368|512:320,1,180
480,240,45040,5,0
480,240,45232,1,0
392,256,45424,2,0,B|324:188|360:84,1,180
156,336,46193,5,0
76,296,46386,2,0,B|8:228|40:124,2,180
192,212,47347,1,0
240,348,47540,2,0,B|324:384|428:348,1,180
432,168,48116,2,0,B|348:132|244:168,1,180
236,176,48597,1,0
228,264,48790,5,0
248,272,48886,1,0
269,278,48982,1,0
291,279,49078,1,0
313,277,49174,1,0
334,270,49270,6,0,B|388:252|424:292,1,90,4|0
356,376,49655,2,0,B|302:394|266:354,1,90,8|0
184,368,50040,2,0,B|132:276,1,90
72,348,50424,1,8
140,290,50616,5,0
284,196,50809,1,0
196,200,51001,5,0
296,360,51193,1,8
392,196,51386,1,0
196,200,51578,1,0
196,200,51963,6,0,B|92:172,1,90,8|0
280,272,52347,2,0,B|384:300,1,90
456,316,52732,2,0,B|504:260|484:180,1,135,8|0
476,168,53116,1,0
428,92,53309,1,0
428,92,53405,1,0
428,92,53501,2,0,B|364:20,1,90,8|0
304,88,53886,6,0,B|284:0,1,90
352,268,54270,2,0,B|372:356,1,90,8|0
364,172,54655,5,2
304,88,54847,1,2
200,72,55040,1,10
104,104,55232,1,2
104,104,55328,1,2
104,104,55424,6,0,B|84:52|116:16,1,90
172,152,55809,2,0,B|192:204|160:240,1,90,8|0
112,308,56193,2,0,B|152:368|240:352,2,135
72,224,56963,5,0
288,168,57155,1,0
288,168,57347,1,8
232,280,57540,5,0
200,72,57732,1,0
200,72,58116,6,0,B|112:72,2,90,8|0|0
288,88,58693,2,0,B|392:88,1,90,0|8
336,176,59078,2,0,B|428:176,1,90
264,232,59463,1,0
264,232,59559,2,0,B|200:264|132:236,1,135
72,152,60040,5,0
196,160,60232,1,0
24,232,60424,1,8
160,76,60616,1,0
40,320,60809,5,8
40,320,60905,1,0
40,320,61001,1,0
120,356,61193,1,8
141,363,61290,1,0
163,366,61386,1,0
185,365,61482,1,0
208,360,61578,2,0,B|288:316|392:352,1,180,4|8
468,376,62155,5,0
440,292,62347,2,0,B|408:260|356:260,1,90
336,256,62636,1,0
312,256,62732,1,8
224,272,62924,1,0
136,284,63116,6,0,B|56:232|52:128,1,180,0|8
228,28,63693,2,0,B|308:80|312:184,1,180,0|0
50,307,64270,2,0,B|6:221|55:129,1,180,8|0
314,7,65040,5,8
314,7,65232,2,0,B|358:93|309:185,1,180,0|0
256,248,65809,1,8
256,192,66001,12,4,66963
328,168,67347,5,8
176,268,67540,1,8
176,268,67636,1,8
176,268,67732,2,0,B|124:244|120:176,1,108.000002574921,4|2
228,176,68116,1,8
176,268,68309,2,0,B|64:312,1,108.000002574921,2|0
176,268,68693,5,2
284,260,68886,1,8
228,176,69078,1,2
116,344,69270,5,0
284,260,69463,1,2
116,344,69655,1,8
228,176,69847,1,2
116,344,70040,2,0,B|64:232|124:132,1,216.000005149841,0|8
456,320,70809,5,0
348,332,71001,2,0,B|280:344|252:276,1,108.000002574921,2|8
360,184,71386,2,0,B|428:172|456:240,1,108.000002574921,2|0
348,332,71770,1,2
348,332,71866,1,0
348,332,71963,2,0,B|236:372|112:320,1,216.000005149841,8|0
44,276,72540,5,2
136,330,72732,1,8
68,248,72924,1,2
104,348,73116,1,0
48,256,73309,1,2
48,256,73405,1,0
48,256,73501,2,0,B|12:200|44:144,1,108.000002574921,8|10
228,328,73886,6,0,B|272:368|340:332,1,108.000002574921,4|2
412,136,74270,2,0,B|368:96|300:132,1,108.000002574921,8|2
356,224,74655,1,0
416,312,74847,5,2
256,228,75040,1,8
412,136,75232,1,2
324,304,75424,5,0
316,144,75616,1,2
444,228,75809,1,8
256,228,76001,1,2
412,136,76193,1,0
324,304,76386,1,2
324,304,76482,1,0
324,304,76578,2,0,B|228:360|112:320,1,216.000005149841,8|0
208,176,77155,5,2
324,304,77347,2,0,B|380:328|428:296,1,108.000002574921,8|2
324,304,77732,5,0
252,88,77924,2,0,B|196:64|148:96,1,108.000002574921,2|8
96,188,78309,5,2
356,56,78501,1,0
208,176,78693,5,10
208,176,78790,1,0
208,176,78886,1,0
324,304,79078,1,10
324,304,79175,1,0
324,304,79271,1,0
156,344,79463,1,10
129,337,79559,1,2
106,322,79655,1,10
85,304,79751,1,2
69,281,79847,1,10
60,256,79943,1,0
60,228,80040,6,0,B|60:112,1,108.000002574921,4|2
280,36,80424,2,0,B|280:152,1,108.000002574921,8|2
280,144,80809,1,0
184,192,81001,5,2
284,248,81193,1,8
188,296,81386,5,2
280,144,81578,1,0
364,304,81770,5,2
200,92,81963,1,8
392,224,82155,1,2
134,148,82347,2,0,B|96:188|112:256,1,108.000002574921,0|2
261,348,82732,2,0,B|299:308|283:240,1,108.000002574921,8|2
40,308,83116,5,0
40,308,83213,1,0
40,308,83309,2,0,B|76:352|148:340,2,108.000002574921,2|8|2
12,204,83886,2,0,B|76:100|192:100,1,216.000005149841,0|8
511,218,84655,5,0
415,269,84847,1,2
424,160,85040,1,8
492,344,85232,2,0,B|452:388|384:372,1,108.000002574921,2|0
415,269,85616,1,2
512,218,85809,5,8
312,316,86001,1,10
348,96,86193,1,4
348,96,86290,1,0
348,96,86386,1,2
324,200,86578,5,8
208,32,86770,1,2
136,112,86963,1,0
136,112,87155,2,0,B|92:72|104:12,2,108.000002574921,2|8|2
232,160,87732,5,0
260,320,87924,1,2
284,84,88117,1,8
188,376,88309,1,2
384,352,88501,2,0,B|456:272|428:148,1,216.000005149841,0|8
88,84,89270,5,0
40,180,89463,2,0,B|88:304,1,108.000002574921,2|8
232,160,89847,2,0,B|184:36,1,108.000002574921,2|0
152,212,90232,5,2
169,232,90328,1,0
192,245,90424,1,0
217,252,90520,1,0
243,253,90616,1,2
270,250,90713,1,0
293,236,90809,1,4
308,36,91193,5,4
204,348,91578,1,4
312,352,91770,6,0,B|323:351|323:351|322:340|322:340|334:339|334:339|333:328|333:328|345:328|345:328|344:316|344:316|356:316|356:316|355:305|355:305|366:304|366:304|366:293|366:293|377:293|377:293|377:281|377:281|388:281|388:281|388:270|388:270|399:269|399:269|399:258|399:258|410:257|410:257|410:246|410:246|421:246|421:246|480:224|488:160,1,324.000007724762,2|4
260,256,104655,5,4
316,328,104847,2,0,B|408:364|492:296,2,180
208,176,106001,2,0,B|116:140|32:208,1,180
260,256,106578,2,0,B|352:292|436:224,1,180
24,116,107347,1,0
448,160,107732,5,0
448,160,107924,2,0,B|496:248|440:336,1,180
64,224,108693,2,0,B|16:136|72:48,1,180
448,160,109463,1,0
448,160,109655,1,0
180,240,110040,6,0,B|232:272,1,45
272,368,110328,2,0,B|320:368,5,45
188,336,111001,6,0,B|152:364|96:352,1,90,0|8
56,280,111386,1,0
56,280,111578,2,0,B|16:196,1,90
104,172,111963,1,8
160,240,112155,5,0
336,332,112347,2,0,B|376:304|368:252,1,90
160,240,112732,1,8
336,332,112924,2,0,B|376:356|424:332,1,90
176,52,113501,5,8
88,28,113693,2,0,B|76:76|108:116,1,90
32,164,114078,2,0,B|57:206|108:212,1,90,0|8
96,300,114463,1,0
96,300,114655,2,0,B|143:312|183:280,1,90
196,268,114943,2,0,B|256:232|336:256,1,135
268,340,115424,5,0
96,300,115616,1,0
268,340,115809,2,0,B|376:340,1,90,8|0
444,360,116193,5,2
453,339,116290,1,2
458,317,116386,1,2
461,294,116482,1,2
459,271,116578,1,10
454,248,116674,1,2
444,227,116770,1,2
431,208,116866,1,2
413,194,116963,6,0,B|380:160|316:168,1,90,0|0
248,204,117347,2,0,B|148:216|84:140,1,180,8|0
48,64,117924,1,0
48,64,118020,2,0,B|-12:108|8:188,1,135
72,244,118501,5,0
128,76,118693,1,0
248,204,118886,1,8
72,244,119078,1,0
128,76,119270,1,0
248,204,119463,5,0
248,204,119559,1,0
248,204,119655,1,8
188,368,119847,1,0
72,244,120040,1,0
188,368,120232,5,0
248,204,120424,1,8
188,368,120616,1,0
72,244,120809,1,0
188,368,121001,6,0,B|272:408|384:368,1,180,0|0
432,316,121578,2,0,B|468:224,1,90
376,220,121963,2,0,B|348:120,1,90,8|0
432,316,122347,5,0
376,220,122540,1,0
320,316,122732,1,8
300,304,122828,1,0
283,288,122924,1,0
272,268,123020,1,0
268,244,123116,2,0,B|268:64,1,180,4|8
148,24,123693,5,0
148,24,123790,1,0
148,24,123886,2,0,B|92:88|128:184,1,135
128,172,124270,1,8
176,248,124463,5,0
364,360,124655,2,0,B|416:280|384:184,1,180,0|8
148,24,125232,2,0,B|96:104|128:200,1,180,0|0
180,272,125809,5,8
288,160,126001,1,0
108,328,126193,2,0,B|180:392|280:348,1,180,0|8
404,56,126770,2,0,B|332:-8|232:36,1,180,0|0
332,160,127347,5,8
160,84,127540,1,8
160,84,127636,1,8
160,84,127732,1,0
180,272,127924,1,8
180,272,128020,1,8
180,272,128116,1,0
72,76,128309,1,8
72,76,128405,1,8
72,76,128501,2,0,B|12:96|12:180|12:180|12:244,1,180,4|0
88,280,129078,5,8
88,280,129174,1,8
88,280,129270,2,0,B|88:176,2,90,4|2|8
176,344,129847,2,0,B|268:396|388:356,1,216.000005149841,2|2
468,288,130424,1,8
385,356,130616,6,0,B|334:253,1,108.000002574921,2|0
280,52,131001,2,0,B|220:56|188:100,1,108.000002574921,2|8
337,260,131386,2,0,B|397:256|429:212,1,108.000002574921,2|0
280,52,131770,5,2
336,260,131963,1,8
368,64,132155,1,2
248,240,132347,1,0
460,32,132540,6,0,B|476:92|435:133,1,107.999996704102,2|8
336,172,132924,1,2
248,240,133116,2,0,B|132:224|48:312,1,216.000005149841,0|8
152,344,133693,5,2
28,204,133886,2,0,B|72:160|124:152,1,108.000002574921,0|2
280,124,134270,2,0,B|236:80|184:72,1,108.000002574921,8|2
80,68,134655,5,0
280,124,134847,1,2
124,272,135040,1,8
80,68,135232,1,10
248,240,135424,5,4
271,252,135520,1,0
297,258,135616,1,2
324,257,135713,1,0
349,249,135809,2,0,B|400:216|456:236,1,108.000002574921,8|2
412,336,136193,1,0
304,356,136386,2,0,B|243:363|202:320,1,108.000002574921,2|8
148,232,136770,5,2
312,152,136963,1,0
100,328,137155,5,2
204,128,137347,1,8
148,232,137540,5,2
288,44,137732,1,0
312,152,137924,5,2
312,152,138020,1,0
312,152,138116,1,8
148,232,138309,1,2
164,48,138501,1,0
252,232,138693,5,2
408,132,138886,1,8
404,312,139078,1,2
408,132,139270,5,0
252,232,139463,1,2
456,208,139655,1,8
204,160,139847,1,2
488,296,140040,1,0
296,316,140232,5,10
296,316,140328,1,8
296,316,140424,1,0
408,132,140616,1,10
408,132,140712,1,8
408,132,140808,1,0
172,240,141001,1,10
149,225,141097,1,2
131,204,141193,1,10
120,179,141289,1,2
118,152,141385,1,10
125,125,141482,1,0
138,101,141578,6,0,B|160:44|216:32,1,108.000002574921,4|2
374,283,141963,2,0,B|352:340|296:352,1,108.000002574921,8|2
272,248,142347,1,0
374,283,142540,5,2
204,160,142732,1,8
272,248,142924,5,2
236,56,143116,1,0
372,112,143309,6,0,B|372:52|316:20,1,108.000002574921,2|8
140,272,143693,2,0,B|140:332|196:364,1,108.000002574921,2|0
372,112,144078,5,2
204,160,144270,1,8
332,280,144463,1,2
372,112,144655,6,0,B|372:52|316:20,1,108.000002574921,0|2
372,112,145040,1,8
308,196,145232,1,2
204,160,145424,2,0,B|89:135|58:15,2,216.000005149841,0|8|0
308,196,146386,5,2
184,52,146578,1,8
120,232,146770,1,2
308,196,146963,2,0,B|428:176|464:56,1,216.000005149841,0|8
308,196,147540,6,0,B|292:256|348:304,1,108.000002574921,10|4
357,311,147828,1,0
380,323,147924,1,2
406,321,148020,1,0
430,310,148116,2,0,B|488:216,2,108.000002574921,8|2|0
284,376,148693,2,0,B|220:384|180:332,1,108.000002574921,2|8
188,232,149078,5,2
68,376,149270,1,0
264,284,149463,5,2
204,112,149655,1,8
264,284,149847,1,2
204,112,150040,2,0,B|88:104|16:200,1,216.000005149841,0|8
424,300,150809,5,0
472,204,151002,2,0,B|424:80,1,108.000002574921,2|8
280,224,151386,2,0,B|328:348,1,108.000002574921,2|0
360,172,151771,5,2
343,152,151867,1,0
320,139,151963,1,0
295,132,152059,1,0
269,131,152155,1,2
242,134,152252,1,0
219,148,152348,1,4
204,348,152732,5,4
308,36,153117,1,4
200,32,153309,6,0,B|189:33|189:33|190:44|190:44|178:45|178:45|179:56|179:56|167:56|167:56|168:68|168:68|156:68|156:68|157:79|157:79|146:80|146:80|146:91|146:91|135:91|135:91|135:103|135:103|124:103|124:103|124:114|124:114|113:115|113:115|113:126|113:126|102:127|102:127|102:138|102:138|91:138|91:138|32:160|24:224,1,324.000007724762,2|4
16,244,153982,5,0
12,272,154078,1,0
20,300,154174,1,0
36,324,154270,2,0,B|76:372|148:356,2,108.000002574921,8|0|0
232,344,154847,2,0,B|256:292,1,54.0000012874604
348,300,155136,2,0,B|372:248,1,54.0000012874604
472,272,155424,5,0
479,246,155520,1,0
484,219,155616,1,0
485,191,155713,1,0
484,164,155809,2,0,B|484:56,1,108.000002574921,8|0
380,88,156193,2,0,B|288:164|172:108,1,216.000005149841,0|8
92,48,156770,1,0
28,136,156963,5,0
33,162,157059,1,0
45,185,157155,1,0
62,205,157251,1,0
85,217,157347,1,8
192,224,157540,1,0
292,260,157732,2,0,B|347:270|396:213,2,108.000002574921,0|0|8
192,224,158309,1,0
267,115,158501,5,0
121,141,158693,1,0
146,287,158886,1,0
292,260,159078,1,0
88,356,159270,6,0,B|48:320,1,54.0000012874604,0|2
200,360,159559,1,2
224,348,159655,1,12
250,342,159751,1,0
276,343,159847,1,0
301,352,159943,1,0
324,364,160040,5,4
349,370,160136,1,0
376,376,160232,1,0
402,373,160328,1,0
428,364,160424,2,0,B|472:328|464:268,1,108.000002574921,8|0
332,164,160809,2,0,B|321:219|366:260,1,108.000002574921,0|0
440,176,161193,1,8
332,164,161386,5,0
332,164,161482,1,0
332,164,161578,2,0,B|200:152,1,108.000002574921
116,144,161963,5,8
332,164,162155,1,0
200,344,162347,2,0,B|80:336|24:224,1,216.000005149841,0|8
200,344,162924,1,0
300,376,163116,5,0
327,374,163213,1,0
352,366,163309,1,0
375,353,163405,1,0
395,335,163501,1,8
456,244,163693,2,0,B|484:192|460:140,1,108.000002574921
364,192,164078,1,0
364,192,164174,1,0
364,192,164270,1,8
288,268,164463,5,8
261,267,164559,1,8
234,262,164655,2,0,B|172:264|140:208,1,108.000002574921,4|0
296,32,165040,2,0,B|358:30|390:86,1,108.000002574921,4|0
220,348,165424,5,4
220,348,165616,1,0
112,328,165809,1,8
89,312,165905,1,0
74,289,166001,1,0
63,264,166097,1,0
60,236,166193,1,4
168,240,166386,6,0,B|176:180|128:144,1,108.000002574921,0|8
424,344,166963,2,0,B|484:277|464:185,1,162.000003862381
344,144,169270,6,0,B|396:168|452:144,2,108.000002574921,0|0|8
88,40,170040,2,0,B|28:107|48:199,1,162.000003862381
304,280,172347,6,0,B|252:304|200:280,2,108.000002574921,0|0|8
432,64,173116,2,0,B|368:8|273:24,1,162.000003862381
208,104,175424,6,0,B|268:100|304:144,2,108.000002574921,0|0|8
80,320,176193,2,0,B|144:376|239:360,2,162.000003862381
80,320,176963,5,0
40,224,177155,2,0,B|28:112,1,108.000002574921,0|8
80,320,177540,2,0,B|192:360|296:288,1,216.000005149841
384,336,178116,1,8
395,311,178213,1,0
401,284,178309,1,0
396,257,178405,1,0
384,232,178501,1,4
284,200,178693,6,0,B|296:136|356:120,2,108.000002574921,0|8|0
268,223,179174,1,0
249,242,179270,2,0,B|184:312|85:274,2,162.000003862381
276,348,180040,2,0,B|380:384|492:348,1,216.000005149841,0|8
324,248,180616,2,0,B|220:212|108:248,1,216.000005149841,0|0
112,356,181193,2,0,B|112:132,1,216.000005149841,8|0
136,36,181770,6,0,B|188:12|240:36,1,108.000002574921,0|8
268,140,182155,2,0,B|344:224|472:192,1,216.000005149841
452,52,182732,2,0,B|411:15|351:19,1,108.000002574921,8|0
256,192,183116,12,4,184655
108,160,190040,6,0,B|80:109,1,54.0000012874604,0|2
172,280,190328,2,0,B|200:331,1,54.0000012874604,0|2
304,352,190616,5,0
330,359,190713,1,0
356,359,190809,2,0,B|392:376|456:344|456:344|484:292|480:220,1,216.000005149841,4|2
372,248,191386,2,0,B|252:288|168:188,1,216.000005149841
220,96,191963,5,2
304,28,192155,2,0,B|336:76|316:132,1,108.000002574921
424,120,192540,2,0,B|412:176|358:202,1,108.000002574921,0|2
424,120,192924,5,0
220,96,193116,2,0,B|100:72|24:168,1,216.000005149841,0|2
320,348,193886,6,0,B|420:284,1,108.000002574921
316,236,194270,2,0,B|352:124,1,108.000002574921,2|0
240,140,194655,2,0,B|192:28,2,108.000002574921,0|0|2
168,220,195232,1,0
256,192,195424,12,4,196386
80,304,196963,5,4
80,304,197059,1,0
80,304,197155,2,0,B|44:240|80:176,1,125.999996995926,2|8
176,264,197540,2,0,B|276:328|428:280,1,251.999993991852,2|2
440,160,198116,1,8
419,282,198309,5,2
344,68,198501,1,0
440,160,198693,5,2
220,44,198886,1,8
344,68,199078,5,2
108,108,199270,1,0
220,44,199463,5,2
220,44,199559,1,0
220,44,199655,2,0,B|256:104|220:164,1,125.999996995926,8|2
144,264,200040,1,0
144,264,200136,1,0
144,264,200232,1,2
108,108,200424,5,8
36,212,200616,1,2
144,264,200809,2,0,B|268:320|386:248,1,251.999993991852,0|8
452,144,201386,5,2
256,192,201578,1,0
256,192,201674,1,0
256,192,201770,1,2
452,144,201963,2,0,B|492:204|464:268,1,125.999996995926,8|2
256,192,202347,2,0,B|216:132|244:68,1,125.999996995926,0|2
452,144,202732,5,8
320,20,202924,1,10
348,144,203116,5,0
352,176,203213,1,0
350,207,203309,1,2
341,237,203405,1,0
324,263,203501,2,0,B|264:304|196:272,1,125.999996995926,8|2
96,212,203886,1,0
204,276,204078,5,2
96,212,204270,1,8
204,276,204463,1,2
104,116,204655,1,0
96,212,204847,5,2
324,264,205040,1,8
252,40,205232,1,2
204,276,205424,2,0,B|228:348|336:384|424:348,1,251.999993991852,0|8
472,232,206001,5,2
472,232,206193,2,0,B|492:104,1,125.999996995926,0|2
252,40,206578,2,0,B|232:168,1,125.999996995926,8|2
492,108,206963,1,0
364,220,207155,5,2
338,235,207251,1,0
310,249,207347,1,0
279,258,207443,1,0
247,261,207540,1,2
216,264,207636,1,0
184,261,207732,1,4
376,56,208116,5,4
136,328,208501,1,4
102,208,208693,5,2
96,176,208790,1,2
96,144,208886,1,2
101,113,208982,1,2
114,84,209078,1,2
133,59,209174,1,0
154,42,209270,6,0,B|224:32,2,54.0000012874604,4|0|0
224,124,209655,1,8
328,152,209847,1,0
404,72,210040,2,0,B|471:114|482:209,2,162.000003862381
328,152,210809,5,0
301,144,210905,1,0
280,126,211001,1,0
260,106,211097,1,0
246,82,211193,2,0,B|212:40|144:40,1,108.000002574921,8|0
44,176,211578,2,0,B|116:256|244:248,1,216.000005149841,0|8
344,220,212155,1,0
432,156,212347,5,0
442,180,212443,1,0
447,206,212540,1,0
445,232,212636,1,0
438,258,212732,1,8
368,340,212924,2,0,B|255:340,1,108.000002574921
228,236,213309,1,0
144,304,213501,1,8
368,340,213693,6,0,B|404:292|376:232,1,108.000002574921
144,44,214078,2,0,B|108:92|136:152,1,108.000002574921,0|8
232,104,214463,5,0
96,228,214655,1,0
328,100,214847,5,0
280,304,215040,1,8
476,244,215232,1,8
280,304,215424,5,4
252,308,215520,1,0
225,308,215616,1,0
197,304,215713,1,0
172,293,215809,1,8
84,352,216001,6,0,B|48:300|80:228,1,108.000002574921
104,144,216386,2,0,B|124:92,1,54.0000012874604
232,104,216674,2,0,B|252:52,1,54.0000012874604
360,56,216963,6,0,B|424:44,4,54.0000012874604,0|0|0|0|8
400,156,217540,1,0
320,228,217732,2,0,B|196:248|116:172,1,216.000005149841,0|8
72,76,218309,1,0
18,169,218501,5,0
12,195,218597,1,0
9,221,218693,1,0
15,247,218790,1,0
28,270,218886,2,0,B|56:328|128:336,1,108.000002574921,8|0
144,232,219270,1,0
252,224,219463,1,0
252,224,219559,1,0
252,224,219655,1,8
278,123,219847,5,8
278,123,219943,1,8
278,122,220040,2,0,B|340:120|372:176,1,108.000002574921,4|0
216,352,220425,2,0,B|154:354|122:298,1,108.000002574921,4|0
292,36,220809,5,4
292,36,221001,1,0
252,224,221194,1,8
224,222,221290,1,0
199,211,221386,1,0
176,195,221482,1,0
156,176,221578,5,4
142,152,221674,1,0
133,126,221770,1,0
133,99,221866,1,0
137,72,221963,1,8
240,112,222155,5,0
256,324,222347,2,0,B|336:360|416:328,2,162.000003862381
328,244,223116,5,0
347,224,223213,1,0
367,204,223309,1,0
387,184,223405,1,0
407,164,223501,2,0,B|483:87,2,108.000002574921,8|0|0
80,56,224270,2,0,B|36:96|52:168,1,108.000002574921,8|0
84,256,224655,5,0
108,267,224751,1,0
134,272,224847,1,0
160,270,224943,1,0
186,266,225040,1,8
144,164,225232,1,0
144,164,225424,2,0,B|256:136|360:192,1,216.000005149841,0|8
292,280,226001,5,0
344,76,226193,1,0
444,36,226386,6,0,B|468:96|424:144,1,108.000002574921,0|8
292,280,226770,2,0,B|268:220|312:172,1,108.000002574921
396,240,227155,5,0
344,76,227347,2,0,B|232:40|120:96,1,216.000005149841,8|4
112,104,227828,6,0,B|64:128,3,54.0000012874604,0|0|0|8
44,236,228309,1,0
116,316,228501,2,0,B|192:348|276:316,2,162.000003862381
192,184,229270,6,0,B|224:136,4,54.0000012874604,0|0|0|0|8
288,236,229847,1,0
396,248,230040,2,0,B|460:152|424:40,1,216.000005149841,0|8
288,236,230616,1,0
192,184,230809,6,0,B|147:147,4,54.0000012874604,0|0|0|0|8
288,236,231386,2,0,B|316:184|288:132,1,108.000002574921
216,56,231770,2,0,B|156:56,1,54.0000012874604
76,120,232059,2,0,B|32:80,1,54.0000012874604
40,208,232347,1,4
128,268,232540,6,0,B|156:320|224:320,1,108.000002574921,0|4
383,115,232924,2,0,B|355:63|287:63,1,108.000002574921,0|4
204,236,233309,5,0
344,296,233501,2,0,B|400:304,4,54.0000012874604,0|0|0|4|0
