osu file format v9

[General]
AudioFilename: 07 - Magic Girl !!.mp3
AudioLeadIn: 2000
PreviewTime: 129270
Countdown: 0
SampleSet: Soft
StackLeniency: 0.7
Mode: 0
LetterboxInBreaks: 0

[Editor]
DistanceSpacing: 1
BeatDivisor: 4
GridSize: 4

[Metadata]
Title:Magic Girl !!
Artist:Shihori
Creator:Frostmourne
Version:Hard
Source:Touhou
Tags:Nico A-One eurobeat patchouli knowledge The Embodiment of Scarlet Centennial Festival for Magical girls DJ Command

[Difficulty]
HPDrainRate:6
CircleSize:4
OverallDifficulty:5
ApproachRate:7
SliderMultiplier:1.4
SliderTickRate:2

[Events]
//Background and Video events
0,0,"magic girl.jpg"
//Break Periods
2,31009,42216
2,92547,103755
2,184855,189140
//Storyboard Layer 0 (Background)
//Storyboard Layer 1 (Fail)
//Storyboard Layer 2 (Pass)
//Storyboard Layer 3 (Foreground)
//Storyboard Sound Samples
//Background Colour Transformations
3,100,163,162,255

[TimingPoints]
40,384.615384615385,4,2,1,54,1,0
10809,-100,4,1,1,54,0,0
30809,-100,4,1,1,67,0,0
43116,-100,4,1,1,39,0,0
49270,-100,4,1,1,67,0,0
67732,-100,4,1,1,80,0,1
92348,-100,4,1,1,80,0,0
104655,-100,4,1,1,39,0,0
110809,-100,4,1,1,67,0,0
129271,-100,4,1,1,80,0,1
153886,-100,4,1,1,80,0,0
153934,-100,4,1,1,67,0,0
158501,-100,4,2,1,54,0,0
159655,-100,4,1,1,67,0,0
166193,-100,4,1,1,50,0,0
167732,-100,4,1,1,72,0,0
176770,-100,4,1,1,50,0,0
196963,-100,4,1,1,80,0,1
209270,-100,4,1,1,80,0,0

[Colours]
Combo1 : 128,128,255
Combo2 : 255,0,128
Combo3 : 255,0,255
Combo4 : 255,255,0
Combo5 : 255,128,64
Combo6 : 128,255,128
Combo7 : 255,0,0

[HitObjects]
252,320,40,2,0,B|176:344|120:288,1,140,2|0
260,64,809,2,0,B|336:40|392:96,1,140,2|0
192,92,1578,6,0,B|120:48,1,70,2|0
108,124,1963,2,0,B|12:124,1,70,2|0
40,196,2347,2,0,B|136:196,1,70,2|2
180,196,2732,2,0,B|224:196,1,35,0|2
284,304,3116,6,0,B|308:336|368:332,1,70,2|0
400,284,3501,2,0,B|376:252|316:256,1,70,2|0
272,232,3886,2,0,B|172:232,2,70,2|0|2
328,188,4463,1,0
356,124,4655,6,0,B|432:100|488:156,1,140,2|0
368,332,5424,1,0
368,332,5616,2,0,B|292:356|236:300,1,140,2|0
180,340,6193,6,0,B|112:280,2,70,2|0|2
196,172,6963,2,0,B|180:104,2,70,2|0|2
356,224,7732,6,0,B|436:248|508:192,2,140,2|0|2
288,244,8693,1,2
236,292,8886,2,0,B|184:284,1,35,0|2
72,324,9270,6,0,B|32:260|64:184,1,140,2|0
188,44,10040,2,0,B|228:108|196:184,1,140,2|0
72,324,10809,5,0
280,352,11193,1,0
428,204,11578,2,0,B|476:224,2,46.6666666666667,4|0|0
436,128,11963,2,0,B|487:112,2,46.6666666666667,4|0|0
376,84,12347,5,4
316,48,12540,2,0,B|248:20|176:40,1,140,2|2
100,156,13309,2,0,B|168:184|240:164,1,140,2|2
304,148,13886,5,0
352,200,14078,2,0,B|440:200,2,70,0|2|0
316,260,14655,2,0,B|228:260,2,70,0|0|2
356,320,15232,1,0
292,348,15424,6,0,B|200:368,1,70
156,344,15809,1,2
88,372,16001,2,0,B|72:340|92:300,1,70
132,248,16386,2,0,B|204:248,2,70,0|2|0
64,240,16963,5,0
192,92,17347,1,2
260,276,17732,1,0
136,136,18116,5,2
192,92,18309,1,2
252,128,18501,2,0,B|300:180|392:160,1,140,4|2
444,132,19078,1,0
388,92,19270,1,0
384,276,19655,6,0,B|384:344,2,70,2|0|0
208,328,20424,2,0,B|140:328,2,70,2|0|0
264,372,21001,2,0,B|288:344|276:296,1,70,0|2
228,256,21386,1,0
160,252,21578,6,0,B|104:192,1,70
52,240,21963,2,0,B|108:300,1,70,2|0
228,256,22347,1,0
272,200,22540,1,0
204,188,22732,1,2
24,320,23116,6,0,B|68:376|156:364,1,140,0|2
212,332,23693,1,0
280,352,23886,1,4
436,260,24270,2,0,B|480:260,2,35,8|0|0
436,260,24655,1,4
368,240,24847,6,0,B|292:224|280:136,2,140
212,332,26001,1,0
212,332,26193,1,0
212,332,26386,2,0,B|64:332,2,140
148,160,27540,5,0
84,188,27732,1,0
140,232,27924,2,0,B|200:280|288:248,2,140
148,160,28886,2,0,B|304:160,1,140,4|4
420,112,29655,1,2
160,292,30040,5,4
352,292,30424,1,4
256,128,30809,1,4
368,152,43116,5,0
368,152,43309,2,0,B|308:112|228:136,2,140
412,208,44270,1,0
384,272,44463,2,0,B|228:272,1,140
220,336,45040,2,0,B|144:300,1,70
100,348,45424,2,0,B|76:316|92:276,2,70
112,144,46193,5,0
112,144,46386,2,0,B|112:52,1,70
181,100,46770,2,0,B|181:8,1,70
251,24,47155,2,0,B|251:188,1,140
372,92,47924,1,0
372,92,48116,1,0
480,180,48501,2,0,B|500:256|444:316,1,140
316,292,49270,6,0,B|240:292,1,70,4|0
200,348,49655,1,8
144,304,49847,1,0
80,336,50040,2,0,B|16:300|20:208,1,140,0|8
32,148,50616,1,0
32,148,50809,1,0
100,180,51001,6,0,B|196:184,2,70,0|8|0
104,108,51578,2,0,B|264:116,1,140,0|8
296,160,52155,5,0
324,224,52347,2,0,B|396:200,1,70
424,264,52732,2,0,B|352:288,1,70,8|0
292,308,53116,1,0
292,308,53309,2,0,B|208:308,1,70,0|8
152,324,53693,1,0
88,356,53886,6,0,B|48:264,1,70
124,260,54270,2,0,B|132:184,1,70,8|0
216,28,54847,2,0,B|252:12|288:28,1,70,0|8
252,92,55232,1,8
200,144,55424,6,0,B|152:200|60:184,1,140,0|8
216,28,56193,2,0,B|328:28,2,105
148,44,56963,5,0
98,95,57155,2,0,B|70:67|78:31,2,70,0|8|0
168,112,57732,1,0
364,32,58116,2,0,B|392:56|384:96,1,70,8|0
372,164,58501,6,0,B|372:256,1,70
304,224,58886,2,0,B|304:316,1,70,8|0
288,360,59270,2,0,B|160:360,2,105
356,348,60040,6,0,B|448:348,2,70,0|0|8
288,360,60616,2,0,B|72:360,1,210,0|8
16,112,61578,6,0,B|72:60|152:80,1,140,4|8
200,124,62155,1,0
244,180,62347,2,0,B|300:200|348:164,2,105
176,196,63116,2,0,B|32:224,1,140,0|8
52,292,63693,2,0,B|196:264,1,140,0|0
240,312,64270,2,0,B|300:352|380:324,1,140,8|0
444,112,65040,5,8
392,64,65232,2,0,B|288:24|184:64,1,210,0|8
256,192,66193,12,4,67732
292,264,68116,5,8
292,264,68309,2,0,B|336:324|444:316,1,140,2|2
464,264,68886,1,8
500,204,69078,6,0,B|516:172|500:132,1,70,2|0
436,172,69463,2,0,B|368:172,1,70,2|8
300,204,69847,2,0,B|284:172|300:132,1,70,2|0
244,332,70424,5,8
196,284,70616,1,2
176,352,70809,2,0,B|84:328,1,70,0|2
124,268,71193,2,0,B|84:208,1,70,8|2
48,152,71578,5,0
256,44,71963,1,8
464,152,72347,1,0
484,220,72540,6,0,B|444:232|416:204,1,70,2|8
388,268,72924,2,0,B|351:248|351:208,1,70,2|0
404,40,73501,1,8
464,80,73693,1,10
464,152,73886,6,0,B|320:152,1,140,4|8
253,152,74463,1,2
276,356,74847,2,0,B|348:356,1,70,2|8
376,292,75232,1,2
328,240,75424,1,0
264,268,75616,6,0,B|176:268,1,70,2|8
156,328,76001,2,0,B|64:328,1,70,2|0
168,120,76578,1,8
392,152,76963,6,0,B|468:152,2,70,0|2|8
328,184,77540,2,0,B|312:148|332:112,1,70,2|0
388,224,77924,2,0,B|404:260|384:296,1,70,2|8
332,336,78309,1,2
332,336,78501,2,0,B|240:380|124:340|80:256,2,280,0|0|4
436,244,80424,5,8
296,68,80809,1,0
236,104,81001,2,0,B|216:72|232:36,1,70,2|8
296,68,81386,2,0,B|372:68,1,70,2|0
424,104,81770,5,2
424,104,81963,1,8
460,164,82155,1,2
460,164,82347,2,0,B|488:240|440:312,1,140,0|8
212,328,83116,6,0,B|116:328,1,70,0|2
80,360,83501,2,0,B|60:328|80:288,1,70,8|2
136,256,83886,2,0,B|304:256,1,140,0|8
412,108,84655,6,0,B|316:108,1,70,0|2
280,140,85040,2,0,B|260:108|280:68,1,70,8|2
336,36,85425,2,0,B|504:36,1,140,0|8
488,104,86001,1,2
460,168,86193,6,0,B|460:312,1,140,4|8
396,340,86770,2,0,B|328:372|260:340,1,140,2|2
200,376,87347,2,0,B|180:340|200:300,1,70,8|2
256,272,87732,6,0,B|332:272,1,70,0|2
396,256,88116,2,0,B|412:220|396:188,1,70,8|2
360,128,88501,2,0,B|292:96|224:128,1,140,0|8
80,320,89270,6,0,B|36:248,1,70,0|2
112,240,89655,2,0,B|96:164,2,70,8|2|0
172,275,90232,2,0,B|204:255,2,35,0|0|0
172,344,90616,1,0
172,344,90809,6,0,B|240:372|312:344,1,140,4|4
432,280,91578,2,0,B|456:136,1,140,4|0
360,40,92347,1,4
132,112,104655,5,4
132,112,104847,2,0,B|104:180|144:280,1,140
328,336,105616,2,0,B|356:268|316:168,1,140
264,168,106193,6,0,B|284:124|344:128,2,70
244,236,106770,1,0
224,304,106963,2,0,B|156:340|84:304,1,140
156,92,107732,5,0
156,92,107924,2,0,B|216:56|296:80,1,140
360,290,108693,2,0,B|300:326|220:302,1,140
56,192,109463,5,0
56,192,109655,2,0,B|140:192,1,70
196,176,110040,2,0,B|236:176,1,35
276,232,110328,2,0,B|320:232,5,35,0|0|0|0|0|4
112,324,111193,5,8
172,364,111386,1,0
236,340,111578,2,0,B|296:336|344:380,2,105
184,296,112347,6,0,B|184:220,1,70
116,236,112732,2,0,B|116:156,1,70,8|0
116,96,113116,1,0
348,44,113501,1,8
413,71,113693,6,0,B|399:111|352:116,1,70
292,116,114078,1,0
320,180,114270,2,0,B|392:204|452:148,1,140,8|0
488,92,114847,2,0,B|488:48,1,35
488,212,115232,6,0,B|488:296,1,70
440,332,115616,2,0,B|408:348|368:332,1,70,0|8
404,268,116001,1,0
200,344,116386,5,0
132,324,116578,1,8
100,260,116770,1,0
100,260,116866,1,0
100,260,116963,2,0,B|88:224|100:192,1,70,0|0
120,124,117347,1,8
248,64,117732,6,0,B|368:64,2,105
196,112,118501,1,0
212,180,118693,2,0,B|228:220|280:224,1,70,0|8
328,192,119078,2,0,B|312:152|260:148,1,70,0|0
148,320,119655,5,8
212,352,119847,1,0
280,360,120040,2,0,B|352:376|424:328,2,140,0|8|0
184,316,121097,1,0
84,344,121386,6,0,B|60:264,1,70
132,256,121770,2,0,B|140:184,1,70,0|8
208,200,122155,2,0,B|264:144|352:160,1,140
400,200,122732,2,0,B|344:256|256:240,1,140,8|4
56,152,123501,5,8
99,96,123693,1,0
99,96,123790,1,0
99,96,123886,2,0,B|140:56|204:68,2,105
128,160,124655,2,0,B|272:160,1,140,0|8
268,232,125232,2,0,B|116:232,1,140
128,232,125809,1,8
240,328,126193,6,0,B|292:376|376:352,1,140,0|8
432,316,126770,2,0,B|476:216|432:112,1,210,0|8
364,236,127732,2,0,B|324:320|192:360|104:316,2,280,0|4|4
220,120,129655,5,8
220,120,129848,2,0,B|176:60|68:68,1,140,2|2
48,120,130425,1,8
12,180,130617,6,0,B|-4:212|12:252,1,70,2|0
76,212,131002,2,0,B|144:212,1,70,2|8
212,180,131386,2,0,B|228:212|212:252,1,70,2|0
268,52,131963,5,8
316,100,132155,1,2
336,32,132348,2,0,B|428:56,1,70,0|2
388,116,132732,2,0,B|428:176,1,70,8|2
464,232,133117,5,0
256,340,133502,1,8
48,232,133886,1,0
28,164,134079,6,0,B|68:152|96:180,1,70,2|8
124,116,134463,2,0,B|161:136|161:176,1,70,2|0
108,344,135040,1,8
48,304,135232,1,10
48,232,135425,6,0,B|192:232,1,140,4|8
259,232,136002,1,2
236,28,136386,2,0,B|164:28,1,70,2|8
136,92,136771,1,2
184,144,136963,1,0
248,116,137155,6,0,B|336:116,1,70,2|8
384,44,137540,2,0,B|314:44,1,70,2|0
344,264,138117,1,8
120,232,138502,6,0,B|44:232,2,70,0|2|8
184,200,139079,2,0,B|200:236|180:272,1,70,2|0
124,160,139463,2,0,B|108:124|128:88,1,70,2|8
180,48,139848,1,2
180,48,140040,2,0,B|272:4|388:44|432:128,2,280,0|0|4
148,240,141963,6,0,B|220:240,1,70,8|0
276,280,142347,1,0
276,280,142540,2,0,B|296:312|280:348,1,70,2|8
216,316,142925,2,0,B|140:316,1,70,2|0
88,280,143309,5,2
88,280,143502,1,8
52,220,143694,1,2
52,220,143886,2,0,B|24:144|72:72,1,140,0|8
300,56,144655,6,0,B|396:56,1,70,0|2
432,24,145040,2,0,B|452:56|432:96,1,70,8|2
376,128,145425,2,0,B|208:128,1,140,0|8
100,276,146194,6,0,B|196:276,1,70,0|2
232,244,146579,2,0,B|252:276|232:316,1,70,8|2
176,348,146964,2,0,B|8:348,1,140,0|8
24,280,147540,1,2
52,216,147732,6,0,B|52:72,1,140,4|8
116,44,148309,2,0,B|184:12|252:44,1,140,2|2
312,8,148886,2,0,B|332:44|312:84,1,70,8|2
256,112,149271,6,0,B|180:112,1,70,0|2
116,128,149655,2,0,B|100:164|116:196,1,70,8|2
152,256,150040,2,0,B|220:288|288:256,1,140,0|8
432,64,150809,6,0,B|476:136,1,70,0|2
400,144,151194,2,0,B|416:220,2,70,8|2|0
340,112,151771,2,0,B|296:112,6,35,2|0|0|0|2|4|0
92,148,152732,5,4
256,340,153116,1,4
188,356,153309,1,2
120,336,153501,2,0,B|72:316,4,35,0|0|0|0|4
92,148,154270,5,8
252,252,154655,2,0,B|356:252,2,105,0|0|0
180,240,155424,1,0
180,240,155520,1,0
180,240,155616,2,0,B|108:240,1,70,0|8
48,208,156001,1,0
28,140,156193,2,0,B|48:56|136:52,1,140,0|8
264,76,156963,6,0,B|352:76,2,70,0|0|8
364,244,157732,2,0,B|412:300,2,70,0|0|8
308,200,158309,1,0
292,268,158501,5,2
228,296,158693,1,0
164,324,158886,1,2
100,352,159078,1,0
44,312,159270,2,0,B|20:228,1,70,2|2
32,176,159655,2,0,B|32:128,4,35,0|0|0|0|4
184,32,160424,6,0,B|256:16|320:56,1,140,8|0
372,144,161097,2,0,B|372:260,1,105
340,312,161578,6,0,B|256:312,1,70
208,344,161963,2,0,B|192:308|212:272,1,70,8|0
272,244,162347,2,0,B|296:176|272:104,1,140,0|8
204,108,162924,5,0
273,107,163116,2,0,B|369:107,1,70
404,72,163501,2,0,B|420:108|404:140,1,70,8|0
472,160,163886,2,0,B|457:196|423:208,2,70,0|0|8
480,92,164463,5,0
480,92,164559,1,0
480,92,164655,1,4
312,168,165040,1,4
464,272,165424,1,4
252,224,165809,6,0,B|216:224,4,35,0|0|0|0|4
144,272,167732,6,0,B|112:184,2,70,0|0|8
188,328,168309,1,0
252,360,168501,2,0,B|320:384|388:356,1,140,0|8
444,312,169078,1,0
368,112,170809,6,0,B|400:200,2,70,0|0|8
324,56,171386,1,0
164,200,171770,2,0,B|176:240|224:248,1,70,0|8
232,176,172155,1,8
300,240,173693,5,0
300,240,173790,1,0
300,240,173886,2,0,B|396:240,1,70
424,288,174270,2,0,B|448:260|440:220,2,70,8|0|0
356,312,174847,1,0
284,312,175040,2,0,B|208:312,1,70,8|0
128,256,176770,6,0,B|104:224|112:184,1,70
144,128,177155,1,0
144,128,177347,1,8
144,128,177540,2,0,B|304:128,1,140,0|0
352,128,178116,2,0,B|396:128,4,35,0|0|0|0|4
244,328,178886,6,0,B|175:367|103:343,2,140,8|0|8
304,296,179847,1,0
360,340,180040,2,0,B|424:304|424:220,1,140,0|8
492,244,180616,2,0,B|511:173|452:113,1,140,0|0
392,88,181193,1,8
340,136,181386,1,0
280,100,181578,6,0,B|204:100,1,70
148,132,181963,1,8
80,112,182155,2,0,B|48:168|60:276|104:316,1,210,0|8
256,192,183116,12,4,184655
76,192,190040,5,2
256,292,190424,1,2
436,192,190809,1,4
324,360,191193,6,0,B|256:388|188:360,2,140,2|0|2
384,320,192155,1,0
452,340,192347,2,0,B|480:272,1,70
416,244,192732,2,0,B|392:176,1,70,2|0
332,212,193116,2,0,B|184:176,1,140,0|2
344,28,193886,6,0,B|382:26|408:60,1,70
408,128,194270,2,0,B|370:130|344:96,1,70,2|0
284,72,194655,1,0
224,108,194847,2,0,B|128:108,2,70,0|2|0
256,192,195424,12,4,196963
368,212,197347,5,8
368,212,197540,2,0,B|324:272|236:252,1,140,2|2
196,204,198116,1,8
242,253,198309,6,0,B|268:288|240:336,1,70,2|0
180,296,198693,2,0,B|173:338|119:352,1,70,2|8
112,280,199078,1,2
112,280,199270,2,0,B|112:116,1,140,0|8
296,232,200040,6,0,B|328:252|384:236,1,70,0|2
424,204,200424,1,8
364,168,200616,1,2
364,240,200809,2,0,B|363:322|440:352,1,140,0|8
216,152,201578,6,0,B|184:132|128:148,1,70,0|2
88,180,201962,1,8
148,216,202154,1,2
148,144,202347,2,0,B|148:61|72:32,1,140,0|8
32,88,202924,5,2
32,88,203116,2,0,B|0:152|32:224,1,140,4|8
60,288,203693,2,0,B|212:288,1,140,2|2
264,320,204270,2,0,B|284:288|264:252,1,70,8|2
240,188,204655,6,0,B|240:116,2,70,0|2|8
312,188,205232,1,2
312,188,205424,2,0,B|468:188,1,140,0|8
264,320,206193,5,0
200,352,206386,2,0,B|132:324,1,70,2|8
76,364,206770,2,0,B|56:328|72:292,1,70,2|0
128,256,207155,2,0,B|168:256,2,35
120,188,207540,1,0
64,228,207732,5,4
256,160,208116,1,4
448,228,208501,1,4
408,284,208693,6,0,B|308:324|200:284,1,210,2|4
156,232,209463,1,0
188,168,209655,2,0,B|160:120,2,35,8|0|0
256,160,210040,2,0,B|388:160,2,105
224,96,210809,5,0
224,96,210905,1,0
224,96,211001,2,0,B|132:96,1,70,0|8
92,128,211386,1,0
104,196,211578,2,0,B|164:248|244:228,1,140,0|8
304,220,212155,1,0
368,192,212347,6,0,B|424:192,2,35
304,220,212732,1,8
304,220,212924,1,0
264,164,213116,2,0,B|216:32,1,140,0|8
148,40,213693,1,0
88,76,213886,6,0,B|112:148,1,70,0|0
40,148,214270,2,0,B|16:220,1,70,8|0
88,224,214655,2,0,B|116:264,2,35
152,192,215040,2,0,B|192:192,4,35,8|0|0|0|4
296,316,215809,5,8
296,316,216001,1,0
296,316,216193,2,0,B|356:360|448:332,1,140,0|8
464,276,216770,1,0
464,204,216963,6,0,B|464:156,2,35
400,232,217347,1,8
400,232,217540,1,0
400,232,217732,2,0,B|324:236|272:172,1,140,0|8
224,224,218309,1,0
212,156,218501,6,0,B|160:156,2,35
260,108,218886,1,8
260,108,219078,1,0
260,108,219270,2,0,B|384:108,2,105
200,72,220040,6,0,B|104:88,1,70,4|0
72,44,220424,2,0,B|52:76|68:116,1,70,4|0
32,172,220809,2,0,B|44:240|108:292|176:316|260:292,1,280,4|4
320,272,221770,6,0,B|360:272,2,35,0|0|8
268,224,222155,1,0
200,228,222347,2,0,B|172:176|200:128,2,105
268,224,223116,6,0,B|328:152,1,70
384,172,223501,2,0,B|444:100,1,70,8|0
392,60,223886,2,0,B|332:24|256:44,1,140,0|8
188,56,224463,1,0
120,76,224655,6,0,B|72:76,2,35
168,128,225040,1,8
168,128,225232,2,0,B|240:152,2,70
156,200,225809,2,0,B|168:268,2,70,8|0|0
100,156,226386,5,0
100,156,226578,1,8
44,108,226770,2,0,B|16:140|31:180,2,70
84,52,227347,1,8
152,28,227540,1,0
220,48,227732,6,0,B|292:72|376:40,1,140,4|8
424,20,228309,1,0
476,68,228501,2,0,B|504:120|472:168,2,105
408,88,229270,6,0,B|364:172,1,70
316,188,229655,2,0,B|332:224|387:222,2,70,8|0|0
120,212,230424,2,0,B|48:184,1,70,8|0
12,128,230809,6,0,B|40:104|84:120,2,70,0|0|8
55,186,231386,1,0
120,212,231578,2,0,B|168:240|224:216,1,105
340,260,232155,2,0,B|376:192,1,70,0|4
404,136,232540,5,0
340,108,232732,2,0,B|256:108,1,70,4|0
208,140,233116,2,0,B|40:140,1,140,4|0
36,76,233693,2,0,B|12:32,2,35,0|0|4
