osu file format v9

[General]
AudioFilename: SOUND HOLIC - Heisei Kappa Lords.mp3
AudioLeadIn: 0
PreviewTime: 82079
Countdown: 0
SampleSet: Normal
StackLeniency: 0.7
Mode: 0
LetterboxInBreaks: 1

[Editor]
DistanceSpacing: 0.8
BeatDivisor: 4
GridSize: 16

[Metadata]
Title:Heisei Kappa Lords
Artist:Shihori
Creator:goodbye
Version:Insane
Source:Touhou
Tags:Sound Holic Kawashiro nitori candid friend kaze akutagawa ryuunosuke kappa TW-KUMA01 eveless Crazy Jay

[Difficulty]
HPDrainRate:7
CircleSize:4
OverallDifficulty:7
ApproachRate:8
SliderMultiplier:1.7
SliderTickRate:1

[Events]
//Background and Video events
0,0,"14373989.jpg"
//Break Periods
2,54043,58387
//Storyboard Layer 0 (Background)
//Storyboard Layer 1 (Fail)
//Storyboard Layer 2 (Pass)
//Storyboard Layer 3 (Foreground)
//Storyboard Sound Samples
//Background Colour Transformations
3,100,163,162,255

[TimingPoints]
22785,352.941176470588,4,1,1,70,1,0
40961,-200,4,1,1,70,0,0
41490,-100,4,1,1,70,0,0
42549,-100,4,1,2,70,0,0
42726,-100,4,1,1,70,0,0
59137,-66.6666666666667,4,1,2,70,0,0
59490,-100,4,1,1,70,0,0
70785,-200,4,1,1,70,0,0
76432,-100,4,1,1,70,0,0
82079,-100,4,1,1,70,0,1
104667,-100,4,1,1,70,0,0

[Colours]
Combo1 : 255,196,106
Combo2 : 143,252,149
Combo3 : 130,225,253
Combo4 : 255,128,192

[HitObjects]
160,48,22784,6,0,B|87:122|144:240,1,170,4|8
192,261,23314,1,0
205,176,23490,2,0,B|112:127|33:183,1,170,0|8
22,257,24020,1,0
22,257,24373,5,0
106,291,24549,1,8
192,261,24726,1,0
224,176,24902,1,0
295,119,25079,1,0
383,141,25255,1,8
430,219,25432,1,0
503,167,25608,6,0,B|440:249|507:346,1,170,4|8
409,354,26137,1,0
338,300,26314,2,0,B|244:272|172:351,1,170,0|8
94,348,26843,1,4
94,348,27196,5,0
122,267,27373,1,8
86,189,27549,1,0
123,110,27726,1,0
212,99,27902,1,0
280,154,28079,1,8
366,167,28255,1,0
416,96,28432,6,0,B|464:128|448:192,1,85,4|0
329,83,28784,2,0,B|330:36|385:20,1,85,8|0
366,167,29137,2,0,B|363:228|289:269|221:221,1,170,0|8
280,154,29667,1,4
480,336,30020,5,0
480,336,30196,1,8
448,256,30373,1,0
448,256,30549,1,0
480,176,30726,1,0
480,176,30902,1,8
424,110,31079,1,0
424,110,31167,1,8
424,110,31255,6,0,B|368:128|304:32|256:80,1,170,4|8
280,154,31784,1,0
229,223,31961,2,0,B|184:192|144:229,1,85
92,286,32314,1,8
10,267,32490,1,4
336,336,32843,5,0
336,336,33020,1,8
416,352,33196,1,0
416,352,33373,1,0
480,300,33549,1,0
480,300,33726,1,8
463,217,33902,1,0
463,217,33990,1,8
463,217,34079,6,0,B|432:128,1,85,4|0
336,192,34432,2,0,B|272:128,1,85,8|4
208,224,34785,2,0,B|96:208,1,85,0|8
124,326,35137,2,0,B|28:358,1,85,4|0
46,260,35490,5,4
124,326,35667,1,0
207,224,35843,5,8
180,126,36020,1,4
402,115,36196,5,0
336,192,36373,1,8
463,217,36549,5,4
485,316,36726,1,0
384,336,36902,6,0,B|351:375|289:348,1,85,4|0
306,354,37167,1,0
306,354,37255,1,8
214,257,37432,1,4
207,270,37520,1,0
200,283,37608,1,0
144,144,37785,1,0
121,119,37873,1,0
97,95,37961,1,12
295,138,38137,1,0
383,258,38314,6,0,B|399:206,2,42.5,4|0|0
405,104,38667,1,8
425,89,38755,1,0
446,75,38843,1,4
321,43,39020,6,0,B|264:31,2,42.5
199,177,39373,1,12
203,193,39461,1,0
208,208,39549,1,0
74,351,39726,6,0,B|45:300,3,42.5,4|0|0|0
53,288,40079,1,8
66,266,40167,1,0
86,249,40255,1,8
111,244,40343,1,0
126,223,40432,6,0,B|110:175,3,42.5,8|0|0|0
98,162,40785,1,8
91,137,40873,1,0
85,112,40961,6,0,B|100:70|160:66,1,85,4|2
241,78,41490,1,2
304,158,41667,1,0
237,266,41843,1,0
336,160,42020,1,2
458,263,42196,1,2
407,340,42373,1,0
407,341,42549,6,0,B|364:324|320:352,1,85,0|0
230,360,42902,1,8
230,360,43079,1,0
139,248,43255,2,0,B|158:303|126:346,1,85
57,203,43608,1,8
57,203,43785,1,0
144,160,43961,6,0,B|176:128|176:80,1,85
139,248,44314,1,8
227,209,44490,1,0
320,208,44667,2,0,B|362:217|362:217|400:192,1,85
488,180,45020,2,0,B|467:222|467:222|496:272,1,85,8|0
487,335,45373,5,0
408,289,45549,1,0
316,292,45726,1,8
316,291,45902,1,0
250,354,46079,2,0,B|203:369|150:323,1,85,0|0
315,291,46432,1,8
258,212,46608,1,0
161,216,46785,6,0,B|147:261|147:261|76:269,2,85,0|0|8
116,121,47314,1,0
212,80,47490,2,0,B|240:64|256:84|256:84|298:60,1,85
451,85,47843,2,0,B|423:101|406:80|406:80|365:105,1,85,8|8
504,168,48196,5,4
504,168,48373,1,0
419,282,48549,2,0,B|403:239|403:239|419:186,1,85,8|0
352,342,48902,2,0,B|304:326|304:326|256:358,1,85
352,342,49255,1,8
442,369,49432,1,0
419,281,49608,6,0,B|462:276|462:276|508:301,1,85
330,254,49961,2,0,B|292:229|292:229|306:171,1,85,8|0
169,259,50314,1,0
175,287,50490,1,0
181,315,50667,1,8
188,343,50843,1,0
74,349,51020,6,0,B|32:320|39:264,1,85
89,180,51373,2,0,B|108:136|79:80,1,85,8|0
11,42,51726,1,0
12,131,51902,1,0
90,179,52079,2,0,B|129:166|176:195,1,85,8|0
320,208,52432,6,0,B|272:192|256:128,1,85
346,117,52785,2,0,B|323:71|357:15,1,85,8|0
434,167,53137,1,0
451,198,53314,1,0
467,230,53490,1,8
483,262,53667,1,8
256,336,53843,5,4
256,224,59137,6,0,B|224:224|224:176|246:159,1,63.749998100102,4|0
336,262,59490,5,4
225,311,59667,1,0
225,311,59755,1,0
225,311,59843,2,0,B|183:334|129:313,1,85,8|0
76,254,60196,1,0
76,254,60285,1,0
76,254,60373,1,0
68,168,60549,2,0,B|108:133|71:72,1,85,8|0
18,45,60902,6,0,B|47:10|114:15,1,85
176,32,61255,1,8
226,100,61432,1,0
226,100,61520,1,0
226,100,61608,1,0
305,136,61785,2,0,B|350:159|396:121,1,85,0|8
297,53,62137,1,0
235,184,62314,6,0,B|230:239|283:264,1,85
353,283,62667,1,8
432,255,62843,1,0
446,232,62932,1,0
444,205,63020,1,0
420,333,63196,1,0
420,333,63285,1,0
420,333,63373,1,8
339,363,63549,1,0
267,311,63726,5,0
207,245,63902,1,0
205,155,64079,1,8
252,79,64255,1,0
252,79,64432,5,0
256,176,64608,1,0
175,235,64785,1,8
82,211,64961,1,0
80,192,65049,1,0
79,173,65137,6,0,B|97:117|48:80,1,85,4|0
128,48,65490,1,8
172,132,65667,1,0
256,176,65843,6,0,B|304:208|352:192,1,85
416,128,66196,1,8
304,64,66373,1,0
256,176,66549,5,0
186,263,66726,1,0
205,280,66814,1,0
222,297,66902,1,8
336,259,67079,1,0
410,348,67255,2,0,B|481:324|416:241|490:188,1,170,0|8
482,107,67785,1,0
407,54,67961,6,0,B|332:107|224:64,1,170,0|8
244,71,68490,1,0
128,80,68667,1,0
112,195,68843,1,0
112,195,68932,1,0
112,195,69020,2,0,B|160:224|144:288,1,85,8|0
55,344,69373,6,0,B|87:312|119:360|71:376,1,85
304,272,69726,2,0,B|291:320|224:288|257:240,1,85,8|0
384,224,70079,1,0
451,289,70255,1,0
451,289,70343,1,0
452,289,70432,2,0,B|432:345|515:359,1,85,8|0
478,197,70785,6,0,B|514:157|471:93|425:110,1,127.5,4|2
433,107,71490,2,0,B|388:124|345:74|368:16,1,127.5,4|2
363,30,72196,2,0,B|367:78|300:110|258:77,1,127.5,4|2
219,34,72902,1,4
188,126,73255,1,0
189,126,73432,1,0
222,155,73608,6,0,B|192:224|256:272,1,127.5,4|2
352,336,74314,2,0,B|336:304|368:272,2,63.75,4|0|2
424,317,75020,2,0,B|474:265|439:184,1,127.5,4|2
381,152,75726,5,4
256,320,75902,1,4
90,191,76079,1,4
36,129,76255,1,0
45,47,76432,6,0,B|83:77|141:42,1,85
137,52,76785,2,0,B|187:33|235:65,1,85,2|0
230,64,77137,2,0,B|273:86|328:63,1,85
325,64,77490,2,0,B|375:45|423:77,1,85,2|0
467,337,77843,6,0,B|429:307|371:342,1,85
375,332,78196,2,0,B|325:351|277:319,1,85,2|0
282,320,78549,2,0,B|239:298|184:321,1,85
187,320,78902,2,0,B|137:339|89:307,1,85,2|0
16,240,79255,6,0,B|32:192|96:192,1,85
160,192,79608,1,2
224,144,79785,1,0
304,160,79961,2,0,B|336:192|400:176,1,85
448,129,80314,1,2
448,48,80490,1,2
448,48,80667,5,4
432,320,81020,1,0
432,320,81196,1,0
352,288,81373,1,4
338,293,81461,1,0
323,289,81549,1,0
310,296,81637,1,0
296,292,81726,1,4
283,300,81814,1,0
269,295,81902,1,0
259,307,81990,1,0
244,306,82079,6,0,B|192:320|156:268,1,85,4|0
129,201,82432,1,8
189,135,82608,1,0
128,64,82785,6,0,B|160:32|224:48,1,85
304,80,83137,1,8
336,176,83314,1,0
432,208,83490,6,0,B|480:176|448:112,1,85
336,176,83843,1,8
394,299,84020,1,0
260,321,84196,2,0,B|215:335|165:308,1,85
183,166,84549,1,8
183,166,84726,1,8
256,221,84902,6,0,B|236:191|288:163|249:118,1,85
96,64,85255,1,8
104,145,85432,1,0
167,249,85608,5,0
114,311,85785,1,0
285,360,85961,2,0,B|230:345|237:264,1,85,8|0
352,288,86314,5,0
440,336,86490,1,0
448,330,86579,1,0
457,326,86667,1,8
437,236,86843,1,0
480,144,87020,2,0,B|450:64|400:144|480:144,1,85
256,96,87373,1,8
352,64,87549,1,8
352,48,87637,1,0
352,32,87726,6,0,B|336:128,1,85,4|0
208,176,88079,2,0,B|112:144|64:224|128:224|144:176|96:160|64:208|112:208,1,170,8|0
192,272,88608,1,0
290,299,88785,2,0,B|272:288|304:304|304:304|304:288|304:288|320:288|320:288|336:288|336:288|320:272,1,85,8|0
320,160,89137,6,0,B|320:112|416:128|400:160|368:160|336:176|336:80|384:64|400:144,1,170,4|8
488,184,89667,1,0
424,282,89843,2,0,B|421:340|496:336,2,85,0|0|8
288,356,90373,1,8
264,353,90461,1,0
240,352,90549,6,0,B|174:333|92:352,1,127.5,4|0
96,320,90902,2,0,B|32:336|77:385|107:375,1,85,10|0
32,192,91255,2,0,B|48:240|128:234|144:191,1,127.5,4|0
154,175,91608,1,10
224,256,91785,1,0
308,184,91961,6,0,B|316:173|332:170|354:176|340:195|300:227|268:190,1,85,4|0
271,98,92314,1,4
377,87,92490,1,0
434,169,92667,1,4
440,184,92755,1,0
447,199,92843,1,4
384,336,93020,1,4
388,321,93108,1,0
393,306,93196,1,4
398,291,93285,1,0
404,276,93373,6,0,B|448:304|496:272,1,85,4|0
288,320,93726,2,0,B|243:286|208:336,1,85,8|0
48,320,94079,6,0,B|86:288|64:224,2,85,0|0|8
128,368,94608,1,0
160,192,94785,6,0,B|256:176,3,85,0|0|8|0
336,208,95490,1,0
368,128,95667,1,0
453,128,95843,1,8
496,53,96020,1,0
432,208,96196,6,0,B|432:256|464:272|464:208,1,85
304,288,96549,1,8
384,320,96726,1,0
176,336,96902,6,0,B|128:320|176:288|224:320,1,85,0|0
272,192,97255,1,8
208,128,97432,1,0
112,128,97608,6,0,B|64:96|80:128|96:80|32:96|64:144|96:112,1,85
345,158,97961,2,0,B|290:152|265:206,1,85,8|0
240,48,98314,1,0
426,61,98490,2,0,B|466:94|445:156,1,85,0|8
414,232,98843,1,8
445,327,99020,6,0,B|382:310|350:347,1,85,4|0
512,252,99373,1,8
112,208,99726,6,0,B|96:208|112:176|144:224|112:256|80:256|64:208|96:176,1,85
202,192,100079,2,0,B|218:224|209:266|176:277,1,85,8|0
144,128,100432,6,0,B|160:48|240:80|176:112|144:112|144:48|192:32|208:48|224:80|192:96,1,170,0|8
464,224,101137,1,0
448,320,101314,1,0
368,176,101490,2,0,B|368:224|304:192|352:144,1,85,8|0
448,112,101843,5,4
352,48,102020,1,0
252,103,102196,1,10
254,218,102373,1,0
243,329,102549,5,4
132,355,102726,1,0
37,294,102902,1,10
56,181,103079,1,0
163,136,103255,5,4
329,169,103432,1,8
329,169,103520,1,8
329,169,103608,1,0
480,96,103784,1,8
474,70,103873,1,8
466,45,103961,1,4
365,78,104137,5,0
225,212,104314,1,4
410,274,104490,1,0
388,280,104579,1,0
366,285,104667,1,4
