osu file format v9

[General]
AudioFilename: SOUND HOLIC - Heisei Kappa Lords.mp3
AudioLeadIn: 0
PreviewTime: 82079
Countdown: 0
SampleSet: Normal
StackLeniency: 0.7
Mode: 0
LetterboxInBreaks: 1

[Editor]
DistanceSpacing: 1.6
BeatDivisor: 4
GridSize: 16

[Metadata]
Title:Heisei Kappa Lords
Artist:Shihori
Creator:goodbye
Version:Hard
Source:Touhou
Tags:Sound Holic Kawashiro nitori candid friend kaze akutagawa ryuunosuke kappa TW-KUMA01 eveless Crazy Jay

[Difficulty]
HPDrainRate:5
CircleSize:4
OverallDifficulty:5
ApproachRate:6
SliderMultiplier:1.4
SliderTickRate:1

[Events]
//Background and Video events
0,0,"14373989.jpg"
//Break Periods
2,54043,58087
//Storyboard Layer 0 (Background)
//Storyboard Layer 1 (Fail)
//Storyboard Layer 2 (Pass)
//Storyboard Layer 3 (Foreground)
//Storyboard Sound Samples
//Background Colour Transformations
3,100,163,162,255

[TimingPoints]
22785,352.941176470588,4,1,1,70,1,0
42549,-100,4,1,2,70,0,0
42726,-100,4,1,1,70,0,0
59137,-100,4,1,2,70,0,0
59490,-100,4,1,1,70,0,0
82079,-100,4,1,1,70,0,1
104667,-100,4,1,1,70,0,0

[Colours]
Combo1 : 255,196,106
Combo2 : 143,252,149
Combo3 : 130,225,253
Combo4 : 255,128,192

[HitObjects]
80,192,22785,2,0,B|45:232|80:304,2,105,4|0|0
176,192,23490,2,0,B|197:127|161:83|122:64|67:70|39:106,1,210,0|4
288,192,24549,6,0,B|368:224|450:184,1,140,8|0
256,288,25255,2,0,B|176:288,1,70,8|0
112,288,25608,6,0,B|64:288|32:240|64:192,2,105,4|0|0
135,207,26314,2,0,B|167:143|132:55|39:63,1,210,0|4
304,64,27373,6,0,B|270:142|352:208,1,140,8|0
452,310,28079,2,0,B|362:316,1,70,8|0
298,297,28432,6,0,B|218:265|159:348,1,140,4|8
53,211,29137,2,0,B|133:179,1,70
177,125,29490,1,8
204,45,29667,6,0,B|241:10|313:44|306:98,1,140,4|0
287,174,30196,1,0
432,256,30549,2,0,B|416:176,2,70,0|0|8
288,336,31255,6,0,B|208:352|160:288|160:208|208:192,1,210,4|0
266,246,31961,2,0,B|300:284|372:237|368:174,1,140,0|8
287,172,32490,1,4
437,96,32843,6,0,B|498:24,1,70,0|8
466,209,33373,2,0,B|502:135,2,70,0|0|8
361,339,34079,6,0,B|271:326,1,70,4|0
127,293,34608,2,0,B|199:246,1,70,4|0
331,171,35137,1,4
293,2,35490,6,0,B|373:18,1,70,4|0
242,134,36020,2,0,B|162:86,1,70,4|0
332,172,36549,1,8
213,290,36902,6,0,B|186:337|113:333|91:278,1,140,4|0
156,229,37432,2,0,B|109:202|113:129|168:107,1,140,4|0
216,53,37961,2,0,B|168:117|104:85|88:37,1,140,4|4
17,205,38667,5,8
135,323,39020,1,0
303,323,39373,1,8
256,192,39726,12,4,40961
256,192,41137,12,4,42549
256,192,42902,6,0,B|160:176,2,70,8|0|0
400,278,43608,1,8
481,130,43961,5,0
322,72,44314,2,0,B|274:8,2,70,8|0|0
160,121,45020,1,8
69,262,45373,6,0,B|4:199|70:117,1,140,0|8
196,220,46079,2,0,B|269:269|349:189,1,140,0|8
349,45,46785,5,0
448,176,47137,1,8
480,320,47490,2,0,B|400:368|338:305,1,140,0|8
192,352,48196,5,4
64,240,48549,2,0,B|64:160,2,70,8|0|0
192,352,49255,1,8
240,192,49608,5,0
112,80,49961,2,0,B|32:48,2,70,8|0|0
277,46,50667,1,8
448,32,51020,6,0,B|422:111|503:151,1,140,0|8
378,267,51726,2,0,B|420:245|425:168|360:144,1,140,0|8
247,266,52432,5,0
126,149,52785,1,8
126,149,53137,2,0,B|73:100|107:30|160:16,1,140,0|8
208,176,53843,5,4
256,192,59137,5,4
256,192,59490,6,0,B|221:218|139:161|161:104,1,140,0|8
325,123,60196,2,0,B|377:178,2,70,0|0|8
484,176,60902,6,0,B|420:224|436:320,1,140,0|8
271,344,61608,2,0,B|230:368|159:360|131:305,1,140,0|8
23,203,62314,6,0,B|55:59,2,140,0|8|0
170,122,63373,1,8
288,240,63726,6,0,B|318:212|392:219|427:280,1,140,0|8
460,331,64255,2,0,B|405:316|416:224|453:188,1,140
445,126,64785,1,8
445,126,65137,6,0,B|398:166|341:151|317:78,1,140,0|8
171,40,65843,1,0
120,200,66196,1,8
240,320,66549,6,0,B|272:256,2,70,0|0|8
408,320,67255,2,0,B|472:288,2,70,0|0|8
408,151,67961,6,0,B|360:119|296:151|280:199,1,140,0|8
147,278,68667,2,0,B|-13:246,1,140,0|8
61,90,69373,1,0
221,140,69726,1,8
369,60,70079,1,0
32,128,70785,6,0,B|56:199|243:208|272:64,1,280,4|4
512,320,72196,2,0,B|488:249|301:240|272:384,1,280,4|4
32,128,73608,6,0,B|56:199|243:208|272:64,1,280,4|4
512,320,75019,2,0,B|488:249|301:240|272:384,1,280,4|2
112,352,76079,1,2
80,192,76432,6,0,B|80:32,3,140,4|8|0|8
176,192,77843,6,0,B|176:32,3,140,0|8|0|8
272,192,79255,6,0,B|272:32,3,140,0|8|0|8
368,192,80667,6,0,B|368:32,1,140,4|4
464,192,81373,2,0,B|464:352,1,140,4|4
295,332,82079,6,0,B|200:328|194:241,1,140,4|8
39,189,82784,2,0,B|44:95|135:93,1,140,0|8
286,57,83490,2,0,B|238:87|238:169|285:200,1,140,0|8
400,282,84196,2,0,B|448:252|448:170|401:139,1,140,0|8
300,276,84902,6,0,B|220:260|160:320,1,140,0|8
192,144,85608,2,0,B|160:208|48:224,1,140,0|8
240,208,86314,6,0,B|384:128,1,140,0|8
368,304,87020,2,0,B|512:256,1,140,0|8
448,96,87726,5,4
112,64,88432,1,0
112,64,88784,1,8
96,224,89137,5,4
416,320,89843,1,0
416,320,90196,1,8
416,320,90549,6,0,B|352:272|272:320,1,140,4|0
400,192,91255,2,0,B|320:160|320:80,1,140,4|0
112,176,91961,5,0
270,334,92314,1,0
479,254,92667,1,0
479,29,93020,1,0
256,64,93373,6,0,B|227:105|160:112|120:50,3,140,4|8|0|8
134,236,94784,2,0,B|22:348,1,140,0|8
203,334,95490,2,0,B|283:302|299:206,1,140,0|8
292,148,96020,1,0
368,192,96196,6,0,B|352:272|400:336,1,140,0|8
464,176,96902,2,0,B|480:96|432:32,1,140,0|8
272,64,97608,6,0,B|192:96|128:32,1,140,0|8
192,208,98314,2,0,B|112:192|48:272,1,140,0|8
23,324,98843,1,0
103,350,99020,6,0,B|166:298|257:338,1,140,4|8
400,304,99726,1,0
400,304,100079,1,8
272,192,100432,6,0,B|224:128|288:48,1,140,4|8
112,16,101137,2,0,B|144:96|80:160,1,140,0|8
160,304,101843,5,4
320,288,102196,1,8
320,288,102373,1,0
240,256,102549,5,4
80,288,102902,1,8
80,288,103079,1,0
80,288,103255,6,0,B|48:128,1,140,4|4
176,48,103961,1,0
288,176,104314,1,8
256,336,104667,5,4
