osu file format v12

[General]
AudioFilename: 02 Day Breaker.mp3
AudioLeadIn: 2000
PreviewTime: 69550
Countdown: 0
SampleSet: Normal
StackLeniency: 0.7
Mode: 0
LetterboxInBreaks: 0
WidescreenStoryboard: 0

[Editor]
DistanceSpacing: 0.8
BeatDivisor: 4
GridSize: 8

[Metadata]
Title:Day Breaker
TitleUnicode:Day Breaker
Artist:Shihori
ArtistUnicode:Shihori
Creator:Frostmourne
Version:Lunatic
Source:Touhou
Tags:OnosakiHito orioncomet Remilia Scarlet a-one Septette for the Dead Princess Embodiment of Scarlet Devil
BeatmapID:247999
BeatmapSetID:91606

[Difficulty]
HPDrainRate:7
CircleSize:4
OverallDifficulty:7
ApproachRate:9
SliderMultiplier:2
SliderTickRate:2

[Events]
//Background and Video events
0,0,"bg.jpg",0,0
//Break Periods
2,93386,101314
2,174841,182768
//Storyboard Layer 0 (Background)
//Storyboard Layer 1 (Fail)
//Storyboard Layer 2 (Pass)
//Storyboard Layer 3 (Foreground)
//Storyboard Sound Samples
//Background Colour Transformations
3,100,163,162,255

[TimingPoints]
96,363.636363636364,4,1,1,80,1,0
277,-100,4,2,1,40,0,0
20459,-100,4,1,1,22,0,0
21505,-71.4285714285714,4,2,1,40,0,0
21732,-71.4285714285714,4,1,1,70,0,0
22914,-181.818181818182,4,1,1,70,0,0
23323,-100,4,1,0,80,0,0
35096,-100,4,1,1,60,0,0
58914,-166.666666666667,4,1,1,60,0,0
59232,-83.3333333333333,4,1,1,60,0,0
59641,-100,4,1,1,60,0,0
60368,-166.666666666667,4,1,1,60,0,0
60686,-71.4285714285714,4,1,1,60,0,0
61096,-100,4,1,1,60,0,0
69459,-133.333333333333,4,1,1,60,0,0
69823,-100,4,1,1,60,0,0
69914,-100,4,1,1,80,0,1
93186,-100,4,1,1,80,0,0
105005,-100,4,1,1,60,0,0
128732,-166.666666666667,4,1,1,60,0,0
129050,-83.3333333333333,4,1,1,60,0,0
129459,-100,4,1,1,60,0,0
130186,-166.666666666667,4,1,1,60,0,0
130505,-71.4285714285715,4,1,1,60,0,0
130914,-100,4,1,1,60,0,0
139732,-100,4,1,1,80,0,1
163005,-100,4,1,0,80,0,0
183368,-100,4,1,1,60,0,0
186914,-166.666666666667,4,1,1,60,0,0
187232,-83.3333333333333,4,1,1,60,0,0
187641,-100,4,1,1,60,0,0
188368,-166.666666666667,4,1,1,60,0,0
188686,-71.4285714285714,4,1,1,60,0,0
189096,-100,4,1,1,60,0,0
197914,-100,4,1,1,80,0,1
221186,-100,4,1,1,80,0,0

[Colours]
Combo1 : 255,0,0
Combo2 : 255,72,164
Combo3 : 98,168,2
Combo4 : 255,128,0
Combo5 : 17,136,255

[HitObjects]
80,176,96,6,0,L|116:280,1,100,4|0,0:0|0:0,0:0:0:0:
196,240,459,2,0,P|244:220|296:230,1,100,2|0,0:0|0:0,0:0:0:0:
360,168,823,2,0,P|380:216|370:268,1,100,2|0,0:0|0:0,0:0:0:0:
316,332,1186,1,2,0:0:0:0:
316,332,1368,1,2,0:0:0:0:
460,112,1914,6,0,P|388:72|264:64,1,200,2|2,0:0|0:0,0:0:0:0:
48,224,2641,2,0,P|88:228|160:220,1,100,2|2,0:0|0:0,0:0:0:0:
216,164,3005,1,0,0:0:0:0:
216,164,3368,6,0,L|124:124,1,100,2|0,0:0|0:0,0:0:0:0:
296,220,3732,2,0,L|388:260,1,100,2|0,0:0|0:0,0:0:0:0:
296,220,4096,1,2,0:0:0:0:
312,316,4277,1,2,0:0:0:0:
224,332,4459,1,0,0:0:0:0:
40,216,4823,6,0,P|32:108|68:21,1,200,2|0,0:0|0:0,0:0:0:0:
337,126,5368,2,0,P|345:234|309:321,1,200,2|0,0:0|0:0,0:0:0:0:
40,216,5914,1,0,0:0:0:0:
224,331,6277,6,0,B|302:354|360:295|360:295|400:328,2,200,2|2|2,0:0|0:0|0:0,0:0:0:0:
224,332,7186,1,0,0:0:0:0:
60,348,7368,2,0,P|40:296|68:148,1,200,0|2,0:0|0:0,0:0:0:0:
128,96,7914,1,0,0:0:0:0:
188,164,8096,2,0,P|240:160|292:140,1,100,2|0,0:0|0:0,0:0:0:0:
412,260,8459,2,0,P|360:256|308:236,1,100,2|2,0:0|0:0,0:0:0:0:
212,88,8823,6,0,L|200:40,2,50
256,192,9186,12,4,11732,1:0:0:0:
100,224,11914,6,0,L|88:168,1,50,0|0,0:0|0:0,0:0:0:0:
152,300,12277,2,0,P|224:320|360:296,1,200,0|0,0:0|0:0,0:0:0:0:
404,232,12823,1,0,0:0:0:0:
320,200,13005,2,0,L|228:159,1,100,0|0,0:0|0:0,0:0:0:0:
144,124,13368,6,0,L|120:76,2,50
144,124,13732,2,0,P|209:114|275:65,1,150,0|0,0:0|0:0,0:0:0:0:
288,48,14096,1,0,0:0:0:0:
368,4,14277,2,0,P|376:56|352:112,1,100,0|0,0:0|0:0,0:0:0:0:
284,256,14641,6,0,P|317:200|404:180,1,150
412,196,15005,1,0,0:0:0:0:
436,344,15186,1,0,0:0:0:0:
436,344,15368,2,0,L|328:308,1,100,0|0,0:0|0:0,0:0:0:0:
196,280,15732,1,0,0:0:0:0:
196,280,15914,1,0,0:0:0:0:
52,324,16096,6,0,P|28:256|32:164,2,150,0|0|0,0:0|0:0|0:0,0:0:0:0:
208,192,16823,1,0,0:0:0:0:
208,192,17005,2,0,L|312:208,1,100
484,200,17368,2,0,L|392:144,1,100
100,68,17823,6,0,B|68:132|88:224|88:224,2,150
232,92,18641,2,0,P|284:88|352:72,1,100
416,48,19005,2,0,B|448:112|428:204|428:204,2,150
332,76,19732,2,0,P|280:72|212:56,1,100
228,224,20096,2,0,P|206:186|204:116,1,100,0|0,0:0|0:0,0:0:0:0:
124,48,20459,5,4,0:0:0:0:
114,71,20550,1,0,0:0:0:0:
109,95,20641,1,0,0:0:0:0:
106,119,20732,1,0,0:0:0:0:
107,143,20823,1,0,0:0:0:0:
108,167,20914,1,0,0:0:0:0:
114,191,21005,1,0,0:0:0:0:
126,212,21096,1,0,0:0:0:0:
138,233,21186,2,0,L|180:280,3,50
188,296,21550,6,0,P|128:320|48:292,1,139.999995727539,0|4,0:0|0:0,0:0:0:0:
24,144,21914,1,4,2:0:0:0:
24,144,22096,1,0,0:0:0:0:
216,152,22277,1,0,0:0:0:0:
216,152,22368,1,0,0:0:0:0:
216,152,22459,1,4,0:0:0:0:
32,232,22641,1,2,2:0:0:0:
109,95,22823,1,4,0:0:0:0:
236,288,23005,6,0,B|252:240|252:240|252:204,1,82.5000025177003,0|0,0:0|2:0,0:0:0:0:
216,152,23368,6,0,B|212:232|212:232|176:312,1,150,6|2,0:0|0:0,0:0:0:0:
164,320,23732,1,0,0:0:0:0:
76,308,23914,2,0,P|70:274|78:210,1,100,2|0,0:0|0:0,0:0:0:0:
96,196,24186,1,2,0:0:0:0:
116,184,24277,1,0,0:0:0:0:
298,198,24459,6,0,P|304:164|296:100,1,100,2|2,0:0|0:0,0:0:0:0:
116,184,24823,2,0,B|147:258|239:272|239:272,1,150,2|2,0:0|0:0,0:0:0:0:
252,272,25186,1,0,0:0:0:0:
340,268,25368,2,0,P|326:320|256:356,1,100,2|0,0:0|0:0,0:0:0:0:
268,358,25641,1,2,0:0:0:0:
243,359,25732,1,0,0:0:0:0:
144,320,25914,5,2,0:0:0:0:
216,152,26096,1,2,0:0:0:0:
144,320,26277,2,0,P|73:306|23:227,1,150,2|2,0:0|0:0,0:0:0:0:
28,224,26641,1,0,0:0:0:0:
88,96,26823,2,0,B|142:90|182:122|182:122,1,100,2|0,0:0|0:0,0:0:0:0:
216,152,27096,1,2,0:0:0:0:
216,152,27186,1,0,0:0:0:0:
116,184,27368,5,2,0:0:0:0:
304,260,27550,1,2,0:0:0:0:
376,72,27732,1,2,0:0:0:0:
288,96,27914,5,0,0:0:0:0:
288,96,28005,1,2,0:0:0:0:
288,96,28096,1,0,0:0:0:0:
212,44,28277,2,0,B|136:28|64:60|64:60,1,150,2|2,0:0|0:0,0:0:0:0:
47,77,28641,1,0,0:0:0:0:
39,100,28732,1,0,0:0:0:0:
33,124,28823,1,2,0:0:0:0:
33,149,28914,1,0,0:0:0:0:
36,173,29005,1,2,0:0:0:0:
42,197,29096,1,0,0:0:0:0:
49,220,29186,2,0,P|105:244|221:236,1,150,6|2,0:0|0:0,0:0:0:0:
217,236,29550,1,0,0:0:0:0:
176,108,29732,6,0,B|200:160|257:160|257:160,1,100,2|0,0:0|0:0,0:0:0:0:
280,155,30005,1,2,0:0:0:0:
302,143,30096,1,0,0:0:0:0:
256,68,30277,5,2,0:0:0:0:
312,240,30459,1,2,0:0:0:0:
388,192,30641,6,0,B|424:272|372:336|372:336,1,150,2|2,0:0|0:0,0:0:0:0:
348,341,31005,1,0,0:0:0:0:
214,250,31186,2,0,B|262:226|313:240|313:240,1,100,2|0,0:0|0:0,0:0:0:0:
311,240,31459,1,2,0:0:0:0:
311,240,31550,1,0,0:0:0:0:
268,320,31732,5,2,0:0:0:0:
302,143,31914,1,2,0:0:0:0:
268,320,32096,2,0,B|188:352|124:296|124:296,1,150,6|2,0:0|0:0,0:0:0:0:
112,271,32459,1,0,0:0:0:0:
192,140,32641,2,0,B|216:191|188:240|188:240,1,100,2|0,0:0|0:0,0:0:0:0:
189,236,32914,1,2,0:0:0:0:
189,236,33005,1,0,0:0:0:0:
36,320,33186,5,2,0:0:0:0:
29,290,33277,1,0,0:0:0:0:
29,259,33368,1,2,0:0:0:0:
36,230,33459,1,0,0:0:0:0:
51,204,33550,1,6,0:0:0:0:
284,172,33732,1,0,0:0:0:0:
284,172,33823,1,2,0:0:0:0:
284,172,33914,1,0,0:0:0:0:
97,120,34096,6,0,B|137:152|193:140|193:140,1,100,6|0,0:0|0:0,0:0:0:0:
207,120,34368,1,2,0:0:0:0:
214,96,34459,1,0,0:0:0:0:
214,70,34550,1,0,0:0:0:0:
205,46,34641,2,0,L|99:28,1,100,6|2,0:0|0:0,0:0:0:0:
16,208,35005,1,4,0:0:0:0:
344,328,35368,5,8,0:0:0:0:
424,344,35550,2,0,P|454:276|429:156,1,200
351,174,36096,1,8,0:0:0:0:
288,224,36277,1,0,0:0:0:0:
288,224,36459,2,0,P|268:140|312:32,1,200,0|8,0:0|0:0,0:0:0:0:
388,52,37005,1,0,0:0:0:0:
48,132,37368,5,0,0:0:0:0:
108,184,37550,2,0,P|128:136|116:88,1,100,8|0,0:0|0:0,0:0:0:0:
36,208,37914,2,0,B|16:280|56:344|128:360,1,200,0|8,0:0|0:0,0:0:0:0:
372,304,38459,5,0,0:0:0:0:
48,132,38823,1,0,0:0:0:0:
452,112,39186,1,0,0:0:0:0:
452,112,39368,6,0,P|476:196|452:308,1,200,0|8,0:0|0:0,0:0:0:0:
372,304,39914,2,0,P|276:264|168:264,1,200
252,360,40459,5,8,0:0:0:0:
181,261,40641,1,0,0:0:0:0:
236,68,40823,5,0,0:0:0:0:
296,124,41005,1,0,0:0:0:0:
220,148,41186,1,8,0:0:0:0:
440,192,41368,5,4,0:0:0:0:
72,192,41732,5,0,0:0:0:0:
72,192,41914,1,8,0:0:0:0:
108,348,42096,1,0,0:0:0:0:
224,240,42277,1,0,0:0:0:0:
72,192,42459,1,0,0:0:0:0:
108,348,42641,1,8,0:0:0:0:
364,220,42823,5,4,0:0:0:0:
72,192,43186,6,0,L|56:80,1,100,0|8,0:0|0:0,0:0:0:0:
57,93,43550,1,0,0:0:0:0:
116,268,43732,2,0,B|212:308|212:232|312:268,1,200,0|8,0:0|0:0,0:0:0:0:
396,108,44277,2,0,B|300:68|300:144|200:108,1,200,0|0,0:0|0:0,0:0:0:0:
244,28,44823,5,8,0:0:0:0:
344,180,45005,1,0,0:0:0:0:
344,180,45096,1,0,0:0:0:0:
344,180,45186,1,0,0:0:0:0:
116,268,45368,2,0,L|220:268,1,100,0|8,0:0|0:0,0:0:0:0:
256,116,45732,5,0,0:0:0:0:
192,180,45914,1,0,0:0:0:0:
272,352,46096,1,8,0:0:0:0:
272,352,46186,1,0,0:0:0:0:
272,352,46277,1,8,0:0:0:0:
116,268,46459,1,8,0:0:0:0:
116,268,46550,1,0,0:0:0:0:
116,268,46641,1,4,0:0:0:0:
344,180,47005,5,8,0:0:0:0:
408,268,47186,2,0,P|463:259|502:222,1,100,0|0,0:0|0:0,0:0:0:0:
412,92,47550,2,0,P|432:144|420:196,1,100,0|8,0:0|0:0,0:0:0:0:
276,240,47914,2,0,P|256:188|268:136,1,100,0|0,0:0|0:0,0:0:0:0:
344,180,48277,5,0,0:0:0:0:
272,352,48459,1,8,0:0:0:0:
344,180,48641,2,0,P|275:162|148:210,1,200
208,272,49186,5,8,0:0:0:0:
144,108,49368,1,0,0:0:0:0:
36,244,49550,1,0,0:0:0:0:
104,300,49732,6,0,B|136:256|116:204|116:204,1,100,0|8,0:0|0:0,0:0:0:0:
56,136,50096,1,0,0:0:0:0:
404,40,50459,1,0,0:0:0:0:
232,356,50823,1,0,0:0:0:0:
388,308,51005,6,0,P|336:292|288:296,1,100,0|0,0:0|0:0,0:0:0:0:
216,244,51368,1,8,0:0:0:0:
136,284,51550,2,0,P|120:232|124:184,1,100,0|0,0:0|0:0,0:0:0:0:
216,244,51914,5,0,0:0:0:0:
32,324,52096,1,8,0:0:0:0:
68,128,52277,1,0,0:0:0:0:
216,244,52459,5,0,0:0:0:0:
304,224,52641,1,0,0:0:0:0:
248,152,52823,1,8,0:0:0:0:
36,208,53005,5,4,0:0:0:0:
232,356,53368,5,0,0:0:0:0:
216,244,53550,1,8,0:0:0:0:
280,68,53732,1,0,0:0:0:0:
332,140,53914,5,0,0:0:0:0:
420,128,54096,1,0,0:0:0:0:
368,56,54277,1,8,0:0:0:0:
148,164,54460,5,4,0:0:0:0:
148,164,54823,6,0,P|188:136|240:128,1,100,0|8,0:0|0:0,0:0:0:0:
332,140,55186,1,0,0:0:0:0:
148,164,55368,2,0,P|120:124|112:72,1,100
196,40,55732,5,8,0:0:0:0:
256,264,55914,2,0,P|156:272|64:220,2,200,0|0|4,0:0|0:0|0:0,0:0:0:0:
256,64,57005,5,0,0:0:0:0:
256,88,57368,1,0,0:0:0:0:
256,264,57732,5,0,0:0:0:0:
304,336,57914,1,0,0:0:0:0:
323,341,58005,1,0,0:0:0:0:
342,341,58096,1,0,0:0:0:0:
361,339,58186,1,0,0:0:0:0:
380,334,58277,1,4,0:0:0:0:
396,68,58459,5,0,0:0:0:0:
340,152,58641,1,8,0:0:0:0:
376,244,58823,1,0,0:0:0:0:
120,172,59005,6,0,P|169:167|199:174,1,59.9999981689454
216,180,59277,6,0,P|248:108|192:32,1,179.999994506836,0|0,0:0|0:0,0:0:0:0:
452,176,59732,5,0,0:0:0:0:
340,152,59914,1,0,0:0:0:0:
452,176,60096,1,8,0:0:0:0:
340,152,60278,1,0,0:0:0:0:
274,358,60459,6,0,P|308:332|324:316,1,59.9999981689454
338,291,60732,6,0,B|328:200|328:200|348:80,1,209.999993591309,0|0,0:0|0:0,0:0:0:0:
196,200,61186,6,0,B|202:133|202:133|192:32,2,150,0|0|0,0:0|0:0|0:0,0:0:0:0:
76,200,61914,2,0,B|70:267|70:267|80:368,2,150,0|0|0,0:0|0:0|0:0,0:0:0:0:
136,96,62641,1,0,0:0:0:0:
196,200,62823,2,0,L|256:216,2,50,0|0|8,0:0|0:0|0:0,0:0:0:0:
40,104,63186,5,0,0:0:0:0:
40,104,63277,1,0,0:0:0:0:
40,104,63368,1,0,0:0:0:0:
224,116,63550,2,0,L|280:92,2,50,0|0|8,0:0|0:0|0:0,0:0:0:0:
100,192,63914,1,0,0:0:0:0:
100,192,64096,1,4,0:0:0:0:
136,276,64277,5,0,0:0:0:0:
48,272,64459,1,8,0:0:0:0:
196,200,64641,1,0,0:0:0:0:
272,344,64823,2,0,B|284:296|284:296|268:244|268:244,1,100
136,112,65186,1,8,0:0:0:0:
100,192,65368,5,0,0:0:0:0:
100,192,65459,1,0,0:0:0:0:
100,192,65550,1,0,0:0:0:0:
284,184,65732,1,0,0:0:0:0:
232,112,65914,1,8,0:0:0:0:
136,276,66096,1,0,0:0:0:0:
352,240,66277,2,0,B|384:192|358:139|358:139,1,100
136,112,66641,1,8,0:0:0:0:
136,112,66732,1,0,0:0:0:0:
136,112,66823,1,0,0:0:0:0:
136,112,66914,1,0,0:0:0:0:
136,112,67005,1,0,0:0:0:0:
40,336,67186,6,0,P|20:288|28:232,1,100,0|8,0:0|0:0,0:0:0:0:
100,192,67550,1,0,0:0:0:0:
280,352,67732,1,8,0:0:0:0:
132,292,67914,1,8,0:0:0:0:
348,212,68096,1,8,0:0:0:0:
192,44,68277,1,8,0:0:0:0:
192,44,68368,1,8,0:0:0:0:
192,44,68459,1,12,0:0:0:0:
40,248,68641,6,0,B|-21:157|36:56|36:56,1,200,0|4,2:0|0:0,0:0:0:0:
116,96,69186,1,0,0:0:0:0:
116,96,69368,1,4,0:0:0:0:
156,252,69550,6,0,B|173:213|164:176|164:176,1,75.0000028610231,0|2,0:0|2:0,2:0:0:0:
156,252,69914,6,0,B|209:335|320:356|320:356,1,200,4|8,0:0|0:0,0:0:0:0:
352,150,70459,1,2,0:0:0:0:
404,232,70641,2,0,B|316:268|264:196|264:196,1,150
256,184,71005,1,8,0:0:0:0:
348,52,71186,6,0,P|359:102|348:160,1,100,2|0,0:0|0:0,0:0:0:0:
256,184,71550,2,0,P|244:133|256:76,1,100,2|8,0:0|0:0,0:0:0:0:
256,184,71914,2,0,P|205:195|148:184,1,100,2|0,0:0|0:0,0:0:0:0:
60,104,72278,2,0,P|110:92|168:104,1,100,2|8,0:0|0:0,0:0:0:0:
256,184,72641,5,2,0:0:0:0:
44,232,72823,2,0,B|16:132|80:132|60:28,1,200,0|8,0:0|0:0,0:0:0:0:
61,36,73368,1,2,0:0:0:0:
148,12,73550,2,0,B|172:96|136:157|136:157,1,150,0|0,0:0|0:0,0:0:0:0:
124,180,73914,1,8,0:0:0:0:
44,328,74096,6,0,B|160:328|204:220|204:220,1,200,2|2,0:0|0:0,0:0:0:0:
236,324,74641,2,0,B|281:356|341:328|341:328,1,100,8|2,0:0|0:0,0:0:0:0:
448,204,75005,2,0,B|403:172|343:200|343:200,1,100,0|2,0:0|0:0,0:0:0:0:
396,272,75368,5,8,0:0:0:0:
396,272,75550,1,2,0:0:0:0:
384,108,75732,2,0,B|284:136|284:72|180:92,1,200,0|8,0:0|0:0,0:0:0:0:
188,90,76277,1,2,0:0:0:0:
108,44,76459,2,0,B|92:116|113:209,1,150,0|0,0:0|0:0,0:0:0:0:
120,220,76823,1,8,0:0:0:0:
280,128,77005,6,0,P|292:180|268:236,1,100,2|0,0:0|0:0,0:0:0:0:
284,312,77368,2,0,P|232:296|196:247,1,100,2|8,0:0|0:0,0:0:0:0:
120,220,77732,2,0,P|159:183|219:176,1,100,2|0,0:0|0:0,0:0:0:0:
376,188,78096,5,2,0:0:0:0:
284,312,78277,1,8,0:0:0:0:
376,188,78459,1,2,0:0:0:0:
284,312,78641,1,0,0:0:0:0:
196,340,78823,5,2,0:0:0:0:
204,124,79005,1,8,0:0:0:0:
104,220,79186,2,0,P|168:248|292:224,1,200,2|2,0:0|0:0,0:0:0:0:
376,188,79732,1,8,0:0:0:0:
448,240,79914,2,0,B|500:148|416:148|458:48,1,200,2|2,0:0|0:0,0:0:0:0:
372,24,80459,2,0,P|323:60|304:97,1,100,8|2,0:0|0:0,0:0:0:0:
236,36,80823,5,0,0:0:0:0:
236,36,80914,1,0,0:0:0:0:
236,36,81005,1,2,0:0:0:0:
296,220,81186,1,0,0:0:0:0:
272,228,81277,1,0,0:0:0:0:
247,232,81368,1,2,0:0:0:0:
221,231,81459,1,0,0:0:0:0:
196,225,81550,2,0,P|131:205|-1:209,1,200,4|8,0:0|0:0,0:0:0:0:
44,288,82096,5,2,0:0:0:0:
44,288,82277,2,0,B|108:248|120:156|120:156,1,150,0|0,0:0|0:0,0:0:0:0:
120,140,82641,1,8,0:0:0:0:
28,140,82823,6,0,P|17:90|28:32,1,100,2|0,0:0|0:0,0:0:0:0:
116,52,83187,2,0,P|167:40|224:52,1,100,2|8,0:0|0:0,0:0:0:0:
300,24,83551,2,0,P|311:75|300:132,1,100,2|0,0:0|0:0,0:0:0:0:
280,208,83914,1,2,0:0:0:0:
216,136,84096,5,8,0:0:0:0:
388,172,84277,1,2,0:0:0:0:
216,136,84459,2,0,P|168:204|156:328,1,200,0|8,0:0|0:0,0:0:0:0:
392,340,85005,1,2,0:0:0:0:
392,340,85186,2,0,B|315:306|288:232|288:232,1,150,0|0,0:0|0:0,0:0:0:0:
280,208,85550,1,8,0:0:0:0:
248,336,85732,6,0,B|356:340|404:224|404:224,1,200,2|2,0:0|0:0,0:0:0:0:
328,56,86277,2,0,P|276:44|226:56,1,100,8|2,0:0|0:0,0:0:0:0:
64,144,86642,2,0,P|52:196|64:246,1,100,0|2,0:0|0:0,0:0:0:0:
140,196,87005,5,8,0:0:0:0:
140,196,87187,1,2,0:0:0:0:
104,64,87369,2,0,B|204:36|204:100|308:80,1,200,0|8,0:0|0:0,0:0:0:0:
384,52,87914,1,2,0:0:0:0:
396,192,88096,2,0,B|324:196|324:156|240:172,1,150,0|0,0:0|0:0,0:0:0:0:
232,176,88459,1,8,0:0:0:0:
224,264,88641,6,0,B|324:236|324:300|428:280,1,200,2|2,0:0|0:0,0:0:0:0:
484,220,89186,1,8,0:0:0:0:
396,192,89368,2,0,B|420:140|468:128|468:128,1,100,2|0,0:0|0:0,0:0:0:0:
484,220,89732,5,2,0:0:0:0:
308,160,89914,1,8,0:0:0:0:
484,220,90096,1,2,0:0:0:0:
308,160,90277,1,4,0:0:0:0:
176,260,90459,5,2,0:0:0:0:
192,76,90641,1,12,0:0:0:0:
116,336,90823,2,0,B|173:371|240:334|240:334|263:299|268:264,1,200,2|2,0:0|0:0,0:0:0:0:
72,208,91368,5,12,0:0:0:0:
380,96,91550,1,2,0:0:0:0:
256,192,91732,12,0,92823,0:0:0:0:
256,192,93005,6,0,L|256:248,2,50,2|0|4,0:0|0:0|0:0,0:0:0:0:
256,192,101914,12,4,103368,0:0:0:0:
92,204,103641,6,0,P|160:236|272:224,1,150,0|4,0:0|0:0,0:0:0:0:
312,192,104096,2,0,P|324:239|304:291,1,100
160,332,104459,1,4,0:0:0:0:
130,334,104550,1,0,0:0:0:0:
100,330,104641,1,0,0:0:0:0:
71,322,104732,1,0,0:0:0:0:
44,310,104823,2,0,B|-12:222|20:114|20:114,1,200,4|8,0:0|0:0,0:0:0:0:
92,64,105368,6,0,L|200:80,1,100
280,104,105732,2,0,B|336:116|376:76|376:76,1,100,0|8,0:0|0:0,0:0:0:0:
448,28,106096,2,0,B|508:124|436:224|436:224,1,200
356,248,106641,1,8,0:0:0:0:
284,192,106823,1,0,0:0:0:0:
284,192,107186,5,0,0:0:0:0:
120,280,107368,1,8,0:0:0:0:
148,96,107550,1,0,0:0:0:0:
232,312,107732,6,0,B|328:360|432:316|432:316,1,200,0|8,0:0|0:0,0:0:0:0:
468,236,108277,2,0,B|504:136|464:40|464:40,2,200
384,208,109186,1,0,0:0:0:0:
384,208,109368,1,0,0:0:0:0:
296,224,109550,1,8,0:0:0:0:
296,224,109732,2,0,B|223:212|176:152|176:152|184:96|184:96,1,200
288,112,110277,5,8,0:0:0:0:
356,292,110459,1,0,0:0:0:0:
384,208,110641,5,0,0:0:0:0:
296,224,110823,1,0,0:0:0:0:
356,292,111005,1,8,0:0:0:0:
445,123,111186,5,4,0:0:0:0:
84,244,111550,5,0,0:0:0:0:
84,244,111732,1,8,0:0:0:0:
224,300,111914,1,0,0:0:0:0:
15,294,112096,2,0,P|0:252|12:200,1,100
168,236,112459,1,8,0:0:0:0:
68,92,112641,5,4,0:0:0:0:
312,288,113005,5,0,0:0:0:0:
380,232,113186,1,8,0:0:0:0:
312,288,113368,1,0,0:0:0:0:
224,300,113550,2,0,B|120:320|132:236|24:252,1,200,0|8,0:0|0:0,0:0:0:0:
177,111,114096,6,0,P|185:163|165:215,1,100
96,156,114459,2,0,P|88:104|108:52,1,100,0|8,0:0|0:0,0:0:0:0:
188,28,114823,1,0,0:0:0:0:
188,28,114914,1,0,0:0:0:0:
188,28,115005,1,0,0:0:0:0:
260,80,115186,6,0,L|372:64,1,100,0|8,0:0|0:0,0:0:0:0:
380,156,115550,1,0,0:0:0:0:
380,156,115732,1,0,0:0:0:0:
177,111,115914,1,8,0:0:0:0:
177,111,116005,1,0,0:0:0:0:
177,111,116096,1,8,0:0:0:0:
144,316,116277,1,8,0:0:0:0:
144,316,116368,1,0,0:0:0:0:
144,316,116459,2,0,B|208:313|272:245|264:169,1,200,4|8,0:0|0:0,0:0:0:0:
48,44,117005,6,0,L|92:164,1,100
116,220,117368,2,0,B|60:236|20:200|20:200,1,100,0|8,0:0|0:0,0:0:0:0:
48,44,117732,2,0,B|144:4|244:44|244:44,1,200
312,104,118277,1,8,0:0:0:0:
384,156,118459,2,0,B|413:108|388:56|388:56,1,100
200,216,118823,5,0,0:0:0:0:
384,156,119005,1,8,0:0:0:0:
224,128,119186,1,0,0:0:0:0:
340,256,119368,2,0,P|292:320|176:356,1,200,0|8,0:0|0:0,0:0:0:0:
40,120,119914,6,0,L|48:224,1,100
224,128,120277,2,0,L|232:24,1,100,0|8,0:0|0:0,0:0:0:0:
32,20,120641,2,0,L|40:124,1,100
64,300,121005,6,0,P|116:308|160:296,1,100,0|8,0:0|0:0,0:0:0:0:
112,220,121368,2,0,B|216:184|308:240|308:240,1,200
268,320,121914,5,8,0:0:0:0:
316,128,122096,1,0,0:0:0:0:
392,176,122277,5,0,0:0:0:0:
312,220,122459,1,0,0:0:0:0:
316,128,122641,1,8,0:0:0:0:
456,240,122823,5,4,0:0:0:0:
136,236,123186,5,0,0:0:0:0:
136,236,123368,1,8,0:0:0:0:
212,184,123550,5,0,0:3:0:0:
148,320,123732,1,0,0:3:0:0:
56,200,123914,1,0,0:3:0:0:
212,184,124096,1,8,0:0:0:0:
320,344,124277,5,4,0:0:0:0:
320,344,124641,5,0,0:0:0:0:
364,272,124823,2,0,L|384:164,1,100,8|0,0:0|0:0,0:0:0:0:
384,92,125186,2,0,P|312:40|192:40,1,200,0|8,0:0|0:0,0:0:0:0:
64,280,125732,2,0,P|136:332|256:332,1,200
244,335,126277,5,8,0:0:0:0:
144,104,126459,1,4,0:0:0:0:
144,104,126823,6,0,P|108:140|52:140,1,100,0|0,0:0|0:0,0:0:0:0:
76,64,127186,2,0,L|164:264,1,200
416,320,127732,1,0,0:0:0:0:
430,293,127823,1,0,0:0:0:0:
441,266,127914,1,0,0:0:0:0:
447,237,128005,1,0,0:0:0:0:
449,207,128096,1,4,0:0:0:0:
380,92,128277,5,0,0:0:0:0:
332,180,128459,1,8,0:0:0:0:
272,100,128641,1,0,0:0:0:0:
228,256,128823,6,0,P|196:260|168:252,1,59.9999981689454
148,224,129096,6,0,B|132:168|132:112|132:112|148:40,1,179.999994506836
24,136,129550,6,0,P|29:194|40:240,1,100
242,354,129914,2,0,P|237:296|226:250,1,100,8|0,0:0|0:0,0:0:0:0:
24,136,130277,6,0,P|64:152|84:152,1,59.9999981689454
116,128,130550,6,0,B|168:196|140:268|140:268|112:284|68:264,1,209.999993591309
216,120,131005,6,0,P|236:180|232:272,2,150
268,48,131732,2,0,P|328:28|420:32,2,150
268,48,132459,5,0,0:0:0:0:
360,112,132641,2,0,L|328:212,1,100,0|8,0:0|0:0,0:0:0:0:
396,268,133005,2,0,L|302:316,1,100
236,204,133368,1,8,0:0:0:0:
236,204,133459,1,0,0:0:0:0:
236,204,133550,1,8,0:0:0:0:
436,148,133732,1,8,0:0:0:0:
436,148,133823,1,0,0:0:0:0:
436,148,133914,1,4,0:0:0:0:
208,288,134096,6,0,P|164:260|148:208,1,100,0|8,0:0|0:0,0:0:0:0:
184,136,134459,1,0,0:0:0:0:
232,368,134641,2,0,P|276:340|292:288,1,100,0|0,0:0|0:0,0:0:0:0:
48,172,135005,2,0,L|68:272,1,100,8|0,0:0|0:0,0:0:0:0:
67,270,135277,1,0,0:0:0:0:
67,270,135368,1,0,0:0:0:0:
208,288,135550,5,0,0:0:0:0:
184,136,135732,1,8,0:0:0:0:
144,220,135914,1,0,0:0:0:0:
148,52,136096,2,0,B|143:53|196:32|243:65,1,100
320,304,136459,1,8,0:0:0:0:
320,304,136550,1,0,0:0:0:0:
320,304,136641,1,0,0:0:0:0:
320,304,136732,1,0,0:0:0:0:
320,304,136823,1,4,0:0:0:0:
248,200,137005,5,0,0:0:0:0:
248,200,137096,1,0,0:0:0:0:
248,200,137186,1,8,0:0:0:0:
108,296,137368,1,0,0:0:0:0:
48,100,137550,1,8,0:0:0:0:
204,276,137732,5,8,0:0:0:0:
32,224,137914,1,8,0:0:0:0:
248,200,138096,1,8,0:0:0:0:
248,200,138186,1,8,0:0:0:0:
248,200,138277,1,4,0:0:0:0:
32,224,138459,6,0,P|8:132|60:36,1,200,0|4,0:0|0:0,0:0:0:0:
340,72,139005,1,0,0:0:0:0:
172,140,139186,1,0,0:0:0:0:
172,140,139277,1,0,0:0:0:0:
172,140,139368,1,0,0:0:0:0:
268,20,139550,5,0,0:0:0:0:
360,296,139732,2,0,P|276:340|172:316,1,200,4|8,0:0|0:0,0:0:0:0:
108,272,140277,1,2,0:0:0:0:
88,104,140459,2,0,P|72:156|96:256,1,150
108,272,140823,1,8,0:0:0:0:
376,216,141005,6,0,P|292:236|168:220,1,200,2|2,0:0|0:0,0:0:0:0:
172,140,141550,1,8,0:0:0:0:
256,112,141732,1,2,0:0:0:0:
256,112,141823,1,0,0:0:0:0:
256,112,141914,1,0,0:0:0:0:
192,48,142096,1,2,0:0:0:0:
108,76,142277,5,8,0:0:0:0:
280,28,142459,1,2,0:0:0:0:
40,24,142641,2,0,B|0:108|32:172|32:172|72:200,1,200,0|8,0:0|0:0,0:0:0:0:
156,228,143186,1,2,0:0:0:0:
124,312,143368,2,0,B|208:348|277:286|277:286,1,150
287,271,143732,1,8,0:0:0:0:
244,192,143914,1,2,0:0:0:0:
244,192,144005,1,0,0:0:0:0:
244,192,144096,1,0,0:0:0:0:
332,196,144277,6,0,P|336:142|312:100,1,100,2|8,0:0|0:0,0:0:0:0:
224,100,144641,2,0,L|120:100,1,100,2|0,0:0|0:0,0:0:0:0:
44,144,145005,1,2,0:0:0:0:
224,100,145186,5,8,0:0:0:0:
44,144,145368,1,2,0:0:0:0:
244,192,145550,2,0,P|204:280|100:332,1,200,0|8,0:0|0:0,0:0:0:0:
44,144,146096,1,2,0:0:0:0:
56,252,146277,2,0,P|116:205|145:107,1,150,0|0,0:0|0:0,0:0:0:0:
140,116,146641,1,8,0:0:0:0:
76,52,146823,6,0,P|120:28|180:36,1,100,2|0,0:0|0:0,0:0:0:0:
224,100,147186,2,0,B|271:110|271:110|328:92,1,100,2|8,0:0|0:0,0:0:0:0:
408,68,147550,2,0,P|420:116|400:172,1,100,2|0,0:0|0:0,0:0:0:0:
320,188,147914,5,2,0:0:0:0:
268,24,148096,1,8,0:0:0:0:
320,188,148277,1,2,0:0:0:0:
268,24,148459,1,0,0:0:0:0:
224,100,148641,5,2,0:0:0:0:
136,80,148823,1,8,0:0:0:0:
60,128,149005,2,0,P|44:80|56:32,1,100,2|0,0:0|0:0,0:0:0:0:
136,80,149368,2,0,P|152:128|140:176,1,100,2|8,0:0|0:0,0:0:0:0:
76,308,149732,2,0,P|60:260|68:200,1,100,2|4,0:0|0:0,0:0:0:0:
228,184,150096,5,10,0:0:0:0:
228,184,150186,1,0,0:0:0:0:
228,184,150277,1,8,0:0:0:0:
320,288,150459,1,2,0:0:0:0:
457,266,150641,1,0,0:0:0:0:
469,239,150732,1,0,0:0:0:0:
479,210,150823,1,10,0:0:0:0:
484,181,150914,1,0,0:0:0:0:
485,152,151005,1,8,0:0:0:0:
478,123,151096,1,0,0:0:0:0:
463,97,151186,1,2,0:0:0:0:
444,72,151277,1,0,0:0:0:0:
420,52,151368,2,0,B|328:32|324:104|208:64|208:64,1,200,4|8,0:0|0:0,0:0:0:0:
132,60,151914,5,2,0:0:0:0:
176,300,152096,2,0,B|100:272|86:182|86:182,1,150,0|0,0:0|0:0,0:0:0:0:
96,168,152459,1,8,0:0:0:0:
276,352,152641,2,0,B|348:352|364:268|484:300,1,200,2|2,0:0|0:0,0:0:0:0:
448,208,153186,6,0,P|392:208|344:224,1,100,8|2,0:0|0:0,0:0:0:0:
336,132,153550,2,0,P|336:76|352:28,1,100,0|2,0:0|0:0,0:0:0:0:
428,76,153914,5,8,0:0:0:0:
252,36,154096,1,2,0:0:0:0:
428,76,154277,2,0,P|452:162|424:276,1,200,0|8,0:0|0:0,0:0:0:0:
348,228,154823,5,2,0:0:0:0:
264,260,155005,2,0,B|188:272|108:232|108:232,1,150,0|2,0:0|0:0,0:0:0:0:
112,224,155368,1,8,0:0:0:0:
36,180,155550,6,0,P|24:232|56:296,1,100,2|0,0:0|0:0,0:0:0:0:
112,224,155914,2,0,P|124:172|92:108,1,100,2|8,0:0|0:0,0:0:0:0:
32,84,156277,1,2,0:0:0:0:
32,84,156368,1,0,0:0:0:0:
32,84,156459,1,0,0:0:0:0:
112,44,156641,1,2,0:0:0:0:
196,80,156823,5,8,0:0:0:0:
112,224,157005,1,2,0:0:0:0:
216,352,157186,2,0,B|324:376|400:296|400:296,1,200,0|8,0:0|0:0,0:0:0:0:
348,220,157732,1,2,0:0:0:0:
268,260,157914,2,0,B|192:272|112:232|112:232,1,150,0|2,0:0|0:0,0:0:0:0:
112,224,158277,1,8,0:0:0:0:
88,136,158459,6,0,L|192:112,1,100,2|0,0:0|0:0,0:0:0:0:
260,164,158823,2,0,L|304:60,1,100,2|8,0:0|0:0,0:0:0:0:
380,108,159186,2,0,L|336:212,1,100,2|0,0:0|0:0,0:0:0:0:
268,260,159550,5,2,0:0:0:0:
184,228,159732,1,8,0:0:0:0:
260,164,159914,1,2,0:0:0:0:
288,292,160096,5,4,0:0:0:0:
144,224,160277,1,2,0:0:0:0:
276,132,160459,1,12,0:0:0:0:
356,352,160641,2,0,P|375:304|363:245,1,100,2|0,0:0|0:0,0:0:0:0:
160,117,161005,5,2,0:0:0:0:
196,312,161186,1,12,0:0:0:0:
348,180,161368,1,2,0:0:0:0:
84,164,161550,5,4,0:0:0:0:
360,96,161732,1,2,0:0:0:0:
360,96,161823,1,0,0:0:0:0:
360,96,161914,1,0,0:0:0:0:
84,80,162096,5,6,0:0:0:0:
428,152,162277,2,0,L|480:152,2,50,0|0|2,0:0|0:0|0:0,0:0:0:0:
45,230,162641,1,2,0:0:0:0:
41,269,162732,1,0,0:0:0:0:
44,308,162823,1,2,0:0:0:0:
59,345,162914,1,0,0:0:0:0:
88,372,163005,2,0,B|167:350|199:274|199:274,1,150,6|2,0:0|0:0,0:0:0:0:
197,245,163368,1,0,0:0:0:0:
264,324,163550,6,0,B|320:262|306:181|306:181,1,150,2|2,0:0|0:0,0:0:0:0:
298,165,163914,1,0,0:0:0:0:
174,46,164096,1,2,0:0:0:0:
344,48,164277,1,2,0:0:0:0:
120,176,164459,6,0,B|86:88|149:31|149:31,1,150,2|2,0:0|0:0,0:0:0:0:
174,46,164823,1,0,0:0:0:0:
160,264,165005,2,0,B|68:292|28:208|28:208,1,150,2|2,0:0|0:0,0:0:0:0:
28,192,165368,1,0,0:0:0:0:
112,352,165550,1,2,0:0:0:0:
52,108,165732,1,2,0:0:0:0:
312,272,165914,6,0,B|363:204|318:129|318:129,1,150,2|2,0:0|0:0,0:0:0:0:
304,112,166277,1,0,0:0:0:0:
200,204,166459,2,0,B|128:249|57:197|57:197,1,150,2|2,0:0|0:0,0:0:0:0:
41,181,166822,1,0,0:0:0:0:
136,124,167005,5,2,0:0:0:0:
188,300,167186,1,2,0:0:0:0:
136,124,167368,1,2,0:0:0:0:
136,124,167459,1,0,0:0:0:0:
136,124,167550,2,0,L|120:76,2,50,0|2|0,0:0|0:0|0:0,0:0:0:0:
188,300,167914,2,0,B|116:340|44:288|44:288,1,150,2|2,0:0|0:0,0:0:0:0:
44,264,168277,1,0,0:0:0:0:
72,56,168459,5,2,0:0:0:0:
72,56,168550,1,0,0:0:0:0:
72,56,168641,1,2,0:0:0:0:
72,56,168732,1,0,0:0:0:0:
72,56,168823,2,0,B|12:112|40:196|40:196,1,150,6|2,0:0|0:0,0:0:0:0:
48,216,169186,1,0,0:0:0:0:
136,124,169368,6,0,B|218:121|257:200|257:200,1,150,2|2,0:0|0:0,0:0:0:0:
252,224,169732,1,0,0:0:0:0:
156,228,169914,1,2,0:0:0:0:
340,244,170096,1,2,0:0:0:0:
380,324,170277,6,0,B|466:290|469:199|469:199,1,150,2|2,0:0|0:0,0:0:0:0:
456,192,170641,1,0,0:0:0:0:
376,152,170823,2,0,B|286:167|234:92|234:92,1,150,2|2,0:0|0:0,0:0:0:0:
223,80,171187,1,0,0:0:0:0:
383,48,171368,5,2,0:0:0:0:
456,192,171550,1,2,0:0:0:0:
383,48,171732,2,0,B|301:6|237:58|237:58,1,150,2|2,0:0|0:0,0:0:0:0:
223,80,172096,1,0,0:0:0:0:
164,284,172277,2,0,B|246:326|310:274|310:274,1,150,2|2,0:0|0:0,0:0:0:0:
324,252,172641,1,0,0:0:0:0:
136,192,172823,2,0,B|184:200|184:200|236:188,1,100,2|2,0:0|0:0,0:0:0:0:
396,132,173186,5,6,0:0:0:0:
164,284,173368,1,0,0:0:0:0:
164,284,173459,1,2,0:0:0:0:
164,284,173550,1,0,0:0:0:0:
324,252,173732,5,6,0:0:0:0:
48,268,173913,1,0,0:0:0:0:
40,239,174004,1,2,0:0:0:0:
39,209,174095,1,0,0:0:0:0:
39,180,174186,1,0,0:0:0:0:
47,151,174277,2,0,L|151:127,1,100,6|2,0:0|0:0,0:0:0:0:
464,208,174641,1,4,0:0:0:0:
256,192,183368,12,0,184823,0:0:0:0:
164,248,185005,6,0,B|112:248|65:214|65:214,1,100
36,124,185368,2,0,L|28:60,2,50
136,136,185732,1,0,0:0:0:0:
160,138,185823,1,0,0:0:0:0:
185,138,185914,1,0,0:0:0:0:
209,136,186005,1,0,0:0:0:0:
233,132,186096,1,0,0:0:0:0:
257,126,186186,1,0,0:0:0:0:
282,120,186277,2,0,B|338:96|382:108|382:108,1,100,4|0,0:0|0:0,0:0:0:0:
344,192,186641,5,8,0:0:0:0:
344,192,186823,1,0,0:0:0:0:
168,340,187005,6,0,B|200:340|230:330|230:330,1,59.9999981689454
256,320,187277,6,0,B|264:280|264:280|256:244|256:244|212:216|152:260,1,179.999994506836
32,100,187732,6,0,B|69:60|126:57|126:57,1,100
282,120,188096,2,0,B|245:160|188:163|188:163,1,100,8|0,0:0|0:0,0:0:0:0:
48,292,188459,6,0,B|36:260|44:220|44:220,1,59.9999981689454
76,256,188732,6,0,B|116:259|116:259|151:246|151:246|173:199|144:148|88:168,1,209.999993591309
108,348,189186,6,0,B|140:348|140:348|200:324|200:324|232:296|236:272,2,150
8,168,189914,2,0,B|8:136|8:136|32:76|32:76|60:44|84:40,2,150
8,168,190641,1,0,0:0:0:0:
208,176,190823,5,0,0:0:0:0:
208,176,190914,1,0,0:0:0:0:
208,176,191005,1,8,0:0:0:0:
108,348,191186,1,0,0:0:0:0:
108,348,191277,1,0,0:0:0:0:
108,348,191368,1,0,0:0:0:0:
108,128,191550,1,0,0:0:0:0:
108,128,191641,1,0,0:0:0:0:
108,128,191732,1,8,0:0:0:0:
296,240,191914,1,0,0:0:0:0:
64,240,192096,5,4,0:0:0:0:
8,168,192277,2,0,B|0:112|24:68|24:68,2,100,0|8|0,0:0|0:0|0:0,0:0:0:0:
64,240,192823,2,0,B|120:241|161:211|161:211,1,100,0|0,0:0|0:0,0:0:0:0:
284,80,193186,1,8,0:0:0:0:
212,136,193368,5,0,0:0:0:0:
212,136,193459,1,0,0:0:0:0:
212,136,193550,2,0,B|184:88|200:40|200:40,1,100
284,80,193914,1,8,0:0:0:0:
368,116,194096,1,0,0:0:0:0:
452,88,194277,1,0,0:0:0:0:
384,28,194459,1,0,0:0:0:0:
336,196,194641,1,8,0:0:0:0:
336,196,194732,1,0,0:0:0:0:
336,196,194823,1,0,0:0:0:0:
336,196,194914,1,0,0:0:0:0:
336,196,195005,2,0,B|388:220|432:184|432:184,1,100,0|0,0:0|0:0,0:0:0:0:
308,288,195368,6,0,B|251:266|236:203|236:203,1,100,8|0,0:0|0:0,0:0:0:0:
368,116,195732,1,8,0:0:0:0:
428,276,195914,1,8,0:0:0:0:
264,116,196096,1,8,0:0:0:0:
216,336,196277,1,8,0:0:0:0:
216,336,196368,1,8,0:0:0:0:
216,336,196459,1,4,0:0:0:0:
76,160,196641,1,0,0:0:0:0:
76,160,197005,5,4,0:0:0:0:
240,204,197186,1,0,0:0:0:0:
52,256,197368,1,0,0:0:0:0:
52,256,197459,1,0,0:0:0:0:
52,256,197550,1,0,0:0:0:0:
100,68,197732,1,0,0:0:0:0:
332,172,197914,6,0,B|304:256|224:280|160:244|160:244,1,200,4|8,0:0|0:0,0:0:0:0:
232,156,198459,1,2,0:0:0:0:
272,344,198641,2,0,B|192:376|120:324|120:324,1,150,0|0,0:0|0:0,0:0:0:0:
112,316,199005,1,8,0:0:0:0:
24,332,199186,6,0,B|-8:220|64:144|64:144,1,200,2|2,0:0|0:0,0:0:0:0:
152,164,199732,1,8,0:0:0:0:
240,140,199914,1,2,0:0:0:0:
240,140,200005,1,0,0:0:0:0:
240,140,200096,1,0,0:0:0:0:
152,164,200277,1,2,0:0:0:0:
220,224,200459,5,8,0:0:0:0:
176,80,200641,1,2,0:0:0:0:
188,320,200823,2,0,B|292:324|324:252|312:188|312:188,1,200,0|8,0:0|0:0,0:0:0:0:
240,140,201368,5,2,0:0:0:0:
152,164,201550,2,0,B|68:156|-4:96|-4:96,1,150,0|0,0:0|0:0,0:0:0:0:
20,84,201914,1,8,0:0:0:0:
0,192,202096,6,0,B|84:248|208:252|208:252,1,200,2|2,0:0|0:0,0:0:0:0:
180,328,202641,2,0,B|121:324|72:308|72:308,1,100,8|2,0:0|0:0,0:0:0:0:
152,164,203005,2,0,B|210:167|260:184|260:184,1,100,0|2,0:0|0:0,0:0:0:0:
360,276,203368,5,8,0:0:0:0:
280,100,203550,1,2,0:0:0:0:
360,276,203732,2,0,B|260:304|260:240|156:260,1,200,0|8,0:0|0:0,0:0:0:0:
64,352,204277,5,2,0:0:0:0:
64,352,204459,2,0,B|136:376|143:335|211:347,1,150,0|0,0:0|0:0,0:0:0:0:
232,356,204823,1,8,0:0:0:0:
440,324,205005,6,0,B|439:327|463:275|439:227,1,100,2|0,0:0|0:0,0:0:0:0:
492,152,205368,2,0,B|495:153|443:129|395:153,1,100,2|8,0:0|0:0,0:0:0:0:
312,188,205732,2,0,B|314:186|262:210|214:186,1,100,2|0,0:0|0:0,0:0:0:0:
128,104,206096,5,2,0:0:0:0:
312,188,206277,1,8,0:0:0:0:
112,192,206459,1,2,0:0:0:0:
292,104,206641,1,0,0:0:0:0:
168,260,206823,1,2,0:0:0:0:
208,64,207005,1,8,0:0:0:0:
112,328,207186,6,0,B|160:364|216:336|216:336,1,100,2|0,0:0|0:0,0:0:0:0:
312,188,207550,2,0,B|264:152|208:180|208:180,1,100,2|8,0:0|0:0,0:0:0:0:
52,256,207914,1,2,0:0:0:0:
276,312,208096,5,4,0:0:0:0:
168,260,208277,1,2,0:0:0:0:
168,260,208368,1,0,0:0:0:0:
168,260,208459,1,8,0:0:0:0:
384,256,208641,1,2,0:0:0:0:
399,236,208732,1,0,0:0:0:0:
406,212,208823,1,8,0:0:0:0:
406,186,208914,1,0,0:0:0:0:
401,161,209005,1,2,0:0:0:0:
386,140,209096,1,0,0:0:0:0:
366,125,209186,1,8,0:0:0:0:
340,123,209277,1,0,0:0:0:0:
316,130,209368,1,10,0:0:0:0:
293,141,209459,1,0,0:0:0:0:
272,152,209550,2,0,P|197:167|67:130,1,200,4|8,0:0|0:0,0:0:0:0:
140,32,210096,5,2,0:0:0:0:
168,260,210277,2,0,B|248:280|316:224|316:224,1,150,0|0,0:0|0:0,0:0:0:0:
320,216,210641,1,8,0:0:0:0:
392,272,210823,6,0,B|425:232|404:176|404:176,1,100,2|0,0:0|0:0,0:0:0:0:
496,180,211186,2,0,B|503:128|456:91|456:91,1,100,2|8,0:0|0:0,0:0:0:0:
368,100,211550,2,0,B|328:133|272:112|272:112,1,100,2|0,0:0|0:0,0:0:0:0:
204,52,211914,1,2,0:0:0:0:
172,136,212096,5,8,0:0:0:0:
320,216,212277,1,2,0:0:0:0:
172,136,212459,2,0,P|157:211|194:341,1,200,0|8,0:0|0:0,0:0:0:0:
276,300,213005,5,2,0:0:0:0:
88,296,213186,2,0,B|24:248|40:160|40:160,1,150,0|2,0:0|0:0,0:0:0:0:
44,147,213550,1,8,0:0:0:0:
220,120,213732,6,0,B|172:152|116:120|116:120,1,100,2|0,0:0|0:0,0:0:0:0:
172,48,214096,2,0,B|220:16|276:48|276:48,1,100,2|8,0:0|0:0,0:0:0:0:
356,24,214459,2,0,B|372:79|324:122|324:122,1,100,2|0,0:0|0:0,0:0:0:0:
276,188,214823,1,2,0:0:0:0:
220,120,215005,5,8,0:0:0:0:
400,208,215186,1,2,0:0:0:0:
240,328,215368,2,0,B|128:344|73:231|73:231,1,200,0|8,0:0|0:0,0:0:0:0:
84,68,215914,5,2,0:0:0:0:
64,156,216096,2,0,B|144:176|212:128|212:128,1,150,0|0,0:0|0:0,0:0:0:0:
220,120,216459,1,8,0:0:0:0:
180,40,216641,1,2,0:0:0:0:
180,40,216732,1,0,0:0:0:0:
180,40,216823,1,0,0:0:0:0:
184,304,217005,6,0,B|239:279|249:227|249:227,1,100,2|8,0:0|0:0,0:0:0:0:
256,140,217368,1,2,0:0:0:0:
256,140,217550,1,0,0:0:0:0:
336,176,217732,5,2,0:0:0:0:
172,132,217914,1,8,0:0:0:0:
336,176,218096,1,2,0:0:0:0:
132,204,218277,1,4,0:0:0:0:
324,264,218459,5,2,0:0:0:0:
280,60,218641,1,12,0:0:0:0:
132,204,218823,1,2,0:0:0:0:
324,264,219005,5,0,0:0:0:0:
172,132,219186,1,2,0:0:0:0:
172,132,219277,1,0,0:0:0:0:
172,132,219368,1,12,0:0:0:0:
352,344,219550,2,0,B|408:320|408:268|408:268,1,100,2|4,0:0|0:0,0:0:0:0:
104,88,219914,6,0,L|84:140,1,50,0|2,0:0|0:0,0:0:0:0:
324,264,220186,2,0,L|344:212,1,50,0|2,0:0|0:0,0:0:0:0:
176,40,220459,5,0,0:0:0:0:
176,40,220641,1,2,0:0:0:0:
152,344,220823,1,2,0:0:0:0:
152,344,220914,1,0,0:0:0:0:
152,344,221005,1,2,0:0:0:0:
416,200,221186,1,4,0:0:0:0:
