osu file format v12

[General]
AudioFilename: 02 Day Breaker.mp3
AudioLeadIn: 0
PreviewTime: 69550
Countdown: 0
SampleSet: Normal
StackLeniency: 0.7
Mode: 0
LetterboxInBreaks: 0
WidescreenStoryboard: 0

[Editor]
Bookmarks: 22459,220823
DistanceSpacing: 0.9
BeatDivisor: 4
GridSize: 8

[Metadata]
Title:Day Breaker
TitleUnicode:Day Breaker
Artist:Shihori
ArtistUnicode:Shihori
Creator:Frostmourne
Version:Insane orion
Source:Touhou
Tags:OnosakiHito orioncomet Remilia Scarlet a-one Septette for the Dead Princess Embodiment of Scarlet Devil
BeatmapID:248001
BeatmapSetID:91606

[Difficulty]
HPDrainRate:7
CircleSize:4
OverallDifficulty:8
ApproachRate:8
SliderMultiplier:1.8
SliderTickRate:1

[Events]
//Background and Video events
0,0,"bg.jpg",0,0
//Break Periods
2,93023,102073
2,174841,183709
//Storyboard Layer 0 (Background)
//Storyboard Layer 1 (Fail)
//Storyboard Layer 2 (Pass)
//Storyboard Layer 3 (Foreground)
//Storyboard Sound Samples
Sample,71732,0,"normal-hitclap.wav",55
Sample,199732,0,"normal-hitclap.wav",55
Sample,211368,0,"normal-hitclap.wav",55
//Background Colour Transformations
3,100,0,0,0

[TimingPoints]
96,363.636363636364,4,1,0,60,1,0
23277,-100,4,1,0,35,0,0
34186,-100,4,1,0,60,0,0
41277,-100,4,1,0,40,0,0
41641,-100,4,1,0,60,0,0
42732,-100,4,1,0,40,0,0
43096,-100,4,1,0,60,0,0
56551,-100,4,1,0,40,0,0
57459,-100,4,1,0,60,0,0
61096,-100,4,1,0,40,0,0
62823,-100,4,1,0,60,0,0
66914,-100,4,1,0,40,0,0
68777,-100,4,1,0,5,0,0
68868,-100,4,1,0,40,0,0
69096,-100,4,1,0,60,0,0
69914,-100,4,1,0,60,0,1
80232,-100,4,1,0,5,0,1
80323,-100,4,1,0,60,0,1
80596,-100,4,1,0,5,0,1
80686,-100,4,1,0,60,0,1
81368,-100,4,1,0,60,0,0
81550,-100,4,1,0,60,0,1
92823,-100,4,1,0,60,0,0
111096,-100,4,1,0,40,0,0
111459,-100,4,1,0,60,0,0
112550,-100,4,1,0,35,0,0
112914,-100,4,1,0,60,0,0
126368,-100,4,1,0,35,0,0
127277,-100,4,1,0,60,0,0
130914,-100,4,1,0,40,0,0
132641,-100,4,1,0,60,0,0
136732,-100,4,1,0,40,0,0
138596,-100,4,1,0,5,0,0
138687,-100,4,1,0,40,0,0
138914,-100,4,1,0,60,0,0
139732,-100,4,1,0,60,0,1
150050,-100,4,1,0,5,0,1
150141,-100,4,1,0,60,0,1
150414,-100,4,1,0,5,0,1
150505,-100,4,1,0,60,0,1
151187,-100,4,1,0,60,0,0
151369,-100,4,1,0,60,0,1
162641,-100,4,1,0,60,0,0
162732,-100,4,1,0,35,0,0
174732,-100,4,1,0,60,0,0
189096,-100,4,1,0,40,0,0
190823,-100,4,1,0,60,0,0
194914,-100,4,1,0,40,0,0
196414,-100,4,1,0,30,0,0
196505,-100,4,1,0,40,0,0
196778,-100,4,1,0,5,0,0
196869,-100,4,1,0,40,0,0
197096,-100,4,1,0,60,0,0
197914,-100,4,1,0,60,0,1
208232,-100,4,1,0,5,0,1
208323,-100,4,1,0,60,0,1
208596,-100,4,1,0,5,0,1
208686,-100,4,1,0,60,0,1
209369,-100,4,1,0,60,0,0
209551,-100,4,1,0,60,0,1
220823,-100,4,1,0,60,0,0

[Colours]
Combo1 : 255,0,0
Combo2 : 255,72,164
Combo3 : 98,168,2
Combo4 : 255,128,0
Combo5 : 17,136,255

[HitObjects]
256,192,20459,12,0,21732,0:0:0:0:
256,336,22459,5,0,0:0:0:0:
256,336,22823,1,0,0:0:0:0:
440,256,23005,1,4,0:0:0:0:
256,192,23368,6,0,B|248:120|176:72,2,135,2|2|2,0:0|0:0|0:0,0:0:0:0:
336,208,24096,1,0,0:0:0:0:
376,280,24277,1,2,0:0:0:0:
312,328,24459,2,0,B|200:328,2,90,2|2|2,0:0|0:0|0:0,0:0:0:0:
224,240,25096,5,0,0:0:0:0:
256,216,25186,1,2,0:0:0:0:
288,144,25368,2,0,B|224:80,1,90,2|0,0:0|0:0,0:0:0:0:
225,81,25641,1,0,0:0:0:0:
225,81,25732,1,0,0:0:0:0:
152,112,25914,1,2,0:0:0:0:
80,80,26096,1,2,0:0:0:0:
88,160,26277,2,0,B|104:224|184:256,1,135,2|2,0:0|0:0,0:0:0:0:
288,208,26823,2,0,B|320:253|304:328,1,90,2|0,0:0|0:0,0:0:0:0:
376,336,27186,5,2,0:0:0:0:
392,296,27277,1,0,0:0:0:0:
392,256,27368,1,2,0:0:0:0:
440,192,27550,1,2,0:0:0:0:
376,144,27732,2,0,B|296:144|256:72,1,135,2|2,0:0|0:0,0:0:0:0:
248,200,28277,2,0,B|273:245|248:288,1,90,2|0,0:0|0:0,0:0:0:0:
176,328,28641,5,0,0:0:0:0:
152,296,28732,1,0,0:0:0:0:
144,256,28823,1,2,0:0:0:0:
144,216,28914,1,0,0:0:0:0:
160,176,29005,1,2,0:0:0:0:
184,144,29096,1,0,0:0:0:0:
216,120,29186,2,0,B|280:112|344:56,1,135,6|2,0:0|0:0,0:0:0:0:
344,184,29732,6,0,B|400:184|440:232,1,90,2|0,0:0|0:0,0:0:0:0:
400,296,30096,1,2,0:0:0:0:
360,312,30186,1,0,0:0:0:0:
320,312,30277,2,0,B|272:296|248:224,1,90,2|2,0:0|0:0,0:0:0:0:
304,184,30641,2,0,B|264:160|184:168,1,90,2|0,0:0|0:0,0:0:0:0:
152,208,31005,2,0,B|160:256|192:288,2,90,2|2|0,0:0|0:0|0:0,0:0:0:0:
152,128,31550,1,2,0:0:0:0:
160,88,31641,1,0,0:0:0:0:
184,56,31732,1,2,0:0:0:0:
264,48,31914,6,0,B|313:33|360:48,1,90,2|2,0:0|0:0,0:0:0:0:
416,88,32277,1,0,0:0:0:0:
424,128,32368,1,0,0:0:0:0:
408,168,32459,1,2,0:0:0:0:
344,224,32641,2,0,B|320:272|352:344,1,90,2|0,0:0|0:0,0:0:0:0:
272,360,33005,5,0,0:0:0:0:
208,312,33186,1,2,0:0:0:0:
248,240,33368,2,0,B|268:197|248:144,1,90,2|2,0:0|0:0,0:0:0:0:
312,104,33732,1,2,0:0:0:0:
344,128,33823,2,0,B|344:280,1,135,2|0,0:0|0:0,0:0:0:0:
280,312,34277,1,0,0:0:0:0:
200,312,34459,5,0,0:0:0:0:
128,272,34641,1,8,0:0:0:0:
160,200,34823,1,0,0:0:0:0:
240,192,35005,2,0,B|296:96|240:8,1,180,4|8,0:0|0:0,0:0:0:0:
184,72,35550,2,0,B|142:97|80:72,1,90
16,72,35914,2,0,B|16:128|56:160,1,90,0|8,0:0|0:0,0:0:0:0:
24,232,36277,1,0,0:0:0:0:
104,216,36459,2,0,B|144:128|264:120,1,180,0|8,0:0|0:0,0:0:0:0:
247,121,37005,5,0,0:0:0:0:
384,224,37186,1,0,0:0:0:0:
304,192,37368,6,0,B|216:256,2,90,0|8|0,0:0|0:0|0:0,0:0:0:0:
352,128,37914,2,0,B|448:144|480:264,1,180,0|8,0:0|0:0,0:0:0:0:
392,264,38459,2,0,B|392:320|336:352,1,90
312,272,38823,1,0,0:0:0:0:
312,272,39005,2,0,B|128:272,1,180,8|0,0:0|0:0,0:0:0:0:
112,352,39550,1,0,0:0:0:0:
48,304,39732,1,8,0:0:0:0:
72,224,39914,2,0,B|56:176|72:128,1,90
128,80,40277,5,0,0:0:0:0:
304,72,40459,1,8,0:0:0:0:
384,208,40641,1,0,0:0:0:0:
336,272,40823,6,0,B|232:256|192:160,1,180,0|8,0:0|0:0,0:0:0:0:
200,88,41368,2,0,B|200:32,2,45,2|0|6,0:0|0:0|0:0,0:0:0:0:
120,160,41732,5,0,0:0:0:0:
88,232,41914,1,8,0:0:0:0:
152,280,42096,1,0,0:0:0:0:
112,352,42277,2,0,B|200:384|288:352,1,180,0|8,0:0|0:0,0:0:0:0:
256,280,42823,2,0,B|216:240,2,45,2|0|6,0:0|0:0|0:0,0:0:0:0:
312,216,43186,6,0,B|271:189|256:144,1,90,0|8,0:0|0:0,0:0:0:0:
424,232,43550,2,0,B|414:277|368:312,2,90
376,160,44096,5,8,0:0:0:0:
296,136,44277,2,0,B|320:96|360:72,1,90
440,80,44641,2,0,B|480:112|488:160,2,90,0|8|0,0:0|0:0|0:0,0:0:0:0:
376,136,45186,2,0,B|336:200|424:264|376:320,1,180,0|8,0:0|0:0,0:0:0:0:
304,328,45732,2,0,B|272:360,2,45
304,248,46096,6,0,B|304:192,2,45,8|0|8,0:0|0:0|0:0,0:0:0:0:
304,248,46459,1,0,0:0:0:0:
224,248,46641,2,0,B|40:248,2,180,4|8|0,0:0|0:0|0:0,0:0:0:0:
224,168,47550,2,0,B|200:136|208:80,1,90,0|8,0:0|0:0,0:0:0:0:
288,104,47914,2,0,B|344:184|312:280,1,180
248,224,48459,1,8,0:0:0:0:
192,280,48641,2,0,B|208:320|256:352,1,90
328,344,49005,5,0,0:0:0:0:
304,264,49186,2,0,B|336:224|320:168,1,90,8|0,0:0|0:0,0:0:0:0:
376,120,49550,2,0,B|384:208|496:264,1,180,0|8,0:0|0:0,0:0:0:0:
416,304,50096,2,0,B|391:344|328:352,1,90
296,280,50459,1,0,0:0:0:0:
232,328,50641,2,0,B|80:328,2,135,8|0|0,0:0|0:0|0:0,0:0:0:0:
280,256,51368,5,8,0:0:0:0:
288,152,51550,1,0,0:0:0:0:
208,80,51732,1,0,0:0:0:0:
208,160,51914,5,0,0:0:0:0:
112,112,52096,1,8,0:0:0:0:
40,192,52277,1,0,0:0:0:0:
80,48,52459,5,0,0:0:0:0:
216,192,52641,1,0,0:0:0:0:
64,312,52823,2,0,B|160:344|256:304,1,180,8|4,0:0|0:0,0:0:0:0:
240,216,53368,5,0,0:0:0:0:
264,112,53550,1,8,0:0:0:0:
360,160,53732,1,0,0:0:0:0:
216,160,53914,5,0,0:0:0:0:
352,80,54096,1,0,0:0:0:0:
472,184,54277,2,0,B|432:272|296:272,1,180,8|0,0:0|0:0,0:0:0:0:
248,248,54823,6,0,B|208:216,2,45,0|0|8,0:0|0:0|0:0,0:0:0:0:
240,328,55186,1,0,0:0:0:0:
160,320,55368,2,0,B|128:280|136:216,1,90
56,232,55732,2,0,B|72:136|200:112,1,180,8|0,0:0|0:0,0:0:0:0:
256,152,56277,2,0,B|256:208,2,45,0|0|8,0:0|0:0|0:0,0:0:0:0:
256,40,56641,5,6,0:0:0:0:
32,192,57005,1,6,0:0:0:0:
256,352,57368,1,6,0:0:0:0:
184,304,57550,5,0,0:0:0:0:
184,224,57732,1,8,0:0:0:0:
168,184,57823,1,0,0:0:0:0:
176,144,57914,2,0,B|216:56|336:48,1,180,12|0,0:0|0:0,0:0:0:0:
320,128,58459,5,0,0:0:0:0:
392,96,58641,2,0,B|440:112|464:160,1,90,8|0,0:0|0:0,0:0:0:0:
400,208,59005,1,0,0:0:0:0:
448,272,59186,2,0,B|416:312|360:312,1,90,0|8,0:0|0:0,0:0:0:0:
296,280,59550,1,0,0:0:0:0:
304,272,59732,5,0,0:0:0:0:
168,192,59914,1,0,0:0:0:0:
56,304,60096,1,8,0:0:0:0:
136,344,60277,5,0,0:0:0:0:
216,344,60459,2,0,B|312:320|336:216,1,180,0|8,0:0|0:0,0:0:0:0:
360,144,61005,1,0,0:0:0:0:
280,136,61186,6,0,B|254:75|176:32,2,135,2|2|2,0:0|0:0|0:0,0:0:0:0:
280,248,61914,2,0,B|254:309|176:352,2,135,2|2|2,0:0|0:0|0:0,0:0:0:0:
216,192,62641,2,0,B|8:192,1,180,6|8,0:0|0:0,0:0:0:0:
40,112,63186,2,0,B|40:64,2,45
40,272,63550,6,0,B|40:320,2,45,8|0|8,0:0|0:0|0:0,0:0:0:0:
112,112,63914,1,0,0:0:0:0:
184,272,64096,1,0,0:0:0:0:
256,312,64277,5,0,0:0:0:0:
304,232,64459,1,8,0:0:0:0:
272,152,64641,1,0,0:0:0:0:
352,168,64823,2,0,B|392:136|408:88,1,90
448,168,65186,2,0,B|416:200|408:248,1,90,8|0,0:0|0:0,0:0:0:0:
328,248,65550,5,0,0:0:0:0:
176,280,65732,1,0,0:0:0:0:
88,248,65914,5,8,0:0:0:0:
80,168,66096,1,0,0:0:0:0:
120,96,66277,2,0,B|208:56|304:96,1,180,0|8,0:0|0:0,0:0:0:0:
344,160,66823,1,0,0:0:0:0:
304,232,67005,6,0,B|256:288|176:296,2,135,2|2|2,0:0|0:0|0:0,0:0:0:0:
384,232,67732,2,0,B|424:288|520:320,2,135,2|2|2,0:0|0:0|0:0,0:0:0:0:
344,160,68459,2,0,B|264:120|184:240|80:152,1,270,2|0,0:0|0:0,0:0:0:0:
88,80,69186,1,4,0:0:0:0:
88,80,69550,5,0,0:0:0:0:
168,80,69732,1,0,0:0:0:0:
216,144,69914,2,0,B|128:184|24:144,1,180,4|8,0:0|0:0,0:0:0:0:
56,232,70459,1,0,0:0:0:0:
120,280,70641,1,0,0:0:0:0:
176,224,70823,2,0,B|200:272|256:280,1,90,0|8,0:0|0:0,0:0:0:0:
208,352,71186,1,0,0:0:0:0:
288,352,71368,2,0,B|352:304|336:208,2,135
248,280,72096,2,0,B|128:272|112:144,1,180,0|8,0:0|0:0,0:0:0:0:
208,184,72641,5,0,0:0:0:0:
200,104,72823,2,0,B|296:128|320:240,1,180,0|8,0:0|0:0,0:0:0:0:
296,304,73368,2,0,B|352:304|384:264,1,90
392,192,73732,2,0,B|388:144|344:112,1,90,0|8,0:0|0:0,0:0:0:0:
312,184,74096,1,0,0:0:0:0:
272,112,74277,2,0,B|184:152|208:264,1,180,0|8,0:0|0:0,0:0:0:0:
264,328,74823,5,0,0:0:0:0:
392,240,75005,1,4,0:0:0:0:
368,88,75186,1,0,0:0:0:0:
384,192,75368,5,8,0:0:0:0:
312,152,75550,1,0,0:0:0:0:
240,192,75732,2,0,B|128:176|96:72,1,180,0|8,0:0|0:0,0:0:0:0:
176,64,76277,1,0,0:0:0:0:
256,88,76459,2,0,B|352:136|352:248,1,180,0|8,0:0|0:0,0:0:0:0:
432,208,77005,2,0,B|368:128|400:32,1,180
480,64,77550,2,0,B|544:128|496:256,1,180,8|0,0:0|0:0,0:0:0:0:
424,216,78096,6,0,B|376:224|320:192,1,90,0|8,0:0|0:0,0:0:0:0:
312,328,78459,2,0,B|272:352|200:328,1,90
224,336,78823,5,0,0:0:0:0:
104,216,79005,1,8,0:0:0:0:
72,144,79186,6,0,B|120:64|256:64,1,180
200,144,79732,1,8,0:0:0:0:
248,208,79914,2,0,B|224:280|264:344|352:360|424:320|464:240|400:136|296:152,1,450,0|0,0:0|0:0,0:0:0:0:
232,80,81005,5,8,0:0:0:0:
192,72,81096,1,0,0:0:0:0:
160,72,81186,2,0,B|114:56|64:72,1,90,8|0,0:0|0:0,0:0:0:0:
112,136,81550,2,0,B|200:184|304:128,1,180,4|8,0:0|0:0,0:0:0:0:
256,64,82096,1,0,0:0:0:0:
336,72,82277,2,0,B|384:152|336:256,1,180,0|8,0:0|0:0,0:0:0:0:
256,240,82823,2,0,B|200:144|256:56,1,180
328,64,83368,2,0,B|512:64,2,180,8|0|8,0:0|0:0|0:0,0:0:0:0:
272,128,84277,5,0,0:0:0:0:
320,192,84459,2,0,B|232:240|128:184,1,180,0|8,0:0|0:0,0:0:0:0:
144,272,85005,1,0,0:0:0:0:
64,256,85186,2,0,B|48:152|168:88,1,180,0|8,0:0|0:0,0:0:0:0:
216,80,85732,2,0,B|320:64|400:152,1,180
320,184,86277,5,8,0:0:0:0:
224,288,86459,1,0,0:0:0:0:
224,288,86641,2,0,B|120:288|72:192,1,180,4|8,0:0|0:0,0:0:0:0:
104,128,87186,5,0,0:0:0:0:
168,176,87368,2,0,B|256:224|344:168,1,180,0|8,0:0|0:0,0:0:0:0:
352,248,87914,1,0,0:0:0:0:
272,264,88096,2,0,B|272:312|288:352,1,90
208,344,88459,1,8,0:0:0:0:
136,312,88641,2,0,B|96:216|176:128,1,180
240,176,89186,5,8,0:0:0:0:
344,248,89368,1,0,0:0:0:0:
448,184,89550,1,0,0:0:0:0:
384,136,89732,6,0,B|392:88|344:40,1,90,0|8,0:0|0:0,0:0:0:0:
280,40,90096,2,0,B|232:56|208:104,1,90
136,80,90459,1,0,0:0:0:0:
80,144,90641,1,8,0:0:0:0:
144,200,90823,2,0,B|224:248|328:192,1,180
256,136,91368,1,8,0:0:0:0:
256,192,91550,12,4,92823,0:0:0:0:
256,192,102823,12,0,104096,0:0:0:0:
312,72,104277,5,0,0:0:0:0:
280,144,104459,1,8,0:0:0:0:
352,184,104641,1,0,0:0:0:0:
320,256,104823,2,0,B|224:312|136:256,1,180,4|8,0:0|0:0,0:0:0:0:
96,200,105368,2,0,B|138:175|200:200,1,90
264,184,105732,2,0,B|256:136|200:104,1,90,0|8,0:0|0:0,0:0:0:0:
136,112,106096,1,0,0:0:0:0:
96,40,106277,2,0,B|136:16|192:32,1,90,0|0,0:0|0:0,0:0:0:0:
264,56,106641,5,8,0:0:0:0:
376,144,106823,1,0,0:0:0:0:
336,280,107005,1,0,0:0:0:0:
272,232,107186,6,0,B|231:255|208:320,2,90,0|8|0,0:0|0:0|0:0,0:0:0:0:
272,152,107732,2,0,B|368:168|400:288,1,180,0|8,0:0|0:0,0:0:0:0:
312,272,108277,2,0,B|312:328|368:360,1,90
432,336,108641,1,0,0:0:0:0:
480,272,108823,1,8,0:0:0:0:
464,192,109005,2,0,B|456:144|408:104,1,90,0|0,0:0|0:0,0:0:0:0:
368,48,109368,5,0,0:0:0:0:
200,96,109550,1,8,0:0:0:0:
256,256,109732,1,0,0:0:0:0:
408,192,109914,1,0,0:0:0:0:
336,216,110096,5,0,0:0:0:0:
312,328,110277,1,8,0:0:0:0:
184,328,110459,1,0,0:0:0:0:
232,224,110641,5,0,0:0:0:0:
152,216,110823,1,0,0:0:0:0:
136,136,111005,1,8,0:0:0:0:
56,160,111186,1,2,0:0:0:0:
40,120,111277,1,0,0:0:0:0:
48,80,111368,1,6,0:0:0:0:
128,56,111550,5,0,0:0:0:0:
288,72,111732,1,8,0:0:0:0:
280,240,111914,1,0,0:0:0:0:
216,192,112096,5,0,0:0:0:0:
232,112,112277,1,0,0:0:0:0:
152,128,112459,1,8,0:0:0:0:
136,208,112641,1,2,0:0:0:0:
104,240,112732,1,0,0:0:0:0:
88,280,112823,1,6,0:0:0:0:
160,320,113005,6,0,B|201:293|216:248,1,90,0|8,0:0|0:0,0:0:0:0:
184,176,113368,2,0,B|194:131|240:96,2,90
264,192,113914,5,8,0:0:0:0:
344,208,114096,2,0,B|320:248|280:272,1,90
224,328,114459,2,0,B|184:296|176:248,2,90,0|8|0,0:0|0:0|0:0,0:0:0:0:
272,264,115005,2,0,B|312:200|224:136|272:80,2,180,0|8|0,0:0|0:0|0:0,0:0:0:0:
336,312,115914,5,8,0:0:0:0:
360,280,116005,1,0,0:0:0:0:
368,240,116096,1,8,0:0:0:0:
344,160,116277,1,0,0:0:0:0:
408,104,116459,2,0,B|328:48|224:104,2,180,4|8|0,0:0|0:0|0:0,0:0:0:0:
464,48,117368,2,0,B|488:80|480:136,1,90,0|8,0:0|0:0,0:0:0:0:
464,216,117732,2,0,B|384:272|288:240,1,180
256,168,118277,1,8,0:0:0:0:
336,152,118459,2,0,B|320:112|272:80,1,90
200,104,118823,5,0,0:0:0:0:
144,40,119005,2,0,B|112:80|128:136,1,90,8|0,0:0|0:0,0:0:0:0:
200,104,119368,2,0,B|192:192|80:248,1,180,0|8,0:0|0:0,0:0:0:0:
32,280,119914,2,0,B|57:320|120:328,1,90
176,288,120277,1,0,0:0:0:0:
248,328,120459,2,0,B|344:280|320:160,1,180,8|0,0:0|0:0,0:0:0:0:
240,184,121005,1,0,0:0:0:0:
192,96,121186,5,8,0:0:0:0:
184,256,121368,1,0,0:0:0:0:
328,320,121550,1,0,0:0:0:0:
304,240,121732,5,0,0:0:0:0:
448,272,121914,1,8,0:0:0:0:
448,136,122096,1,0,0:0:0:0:
352,152,122277,5,0,0:0:0:0:
288,104,122459,1,0,0:0:0:0:
224,160,122641,2,0,B|128:192|32:152,1,180,8|0,0:0|0:0,0:0:0:0:
104,96,123186,5,0,0:0:0:0:
232,24,123368,1,8,0:0:0:0:
368,88,123550,1,0,0:0:0:0:
304,136,123732,5,0,0:0:0:0:
232,96,123914,1,0,0:0:0:0:
168,152,124096,2,0,B|208:240|344:240,1,180,8|0,0:0|0:0,0:0:0:0:
392,208,124641,5,0,0:0:0:0:
400,248,124732,1,0,0:0:0:0:
384,288,124823,1,8,0:0:0:0:
320,336,125005,1,0,0:0:0:0:
264,280,125186,2,0,B|224:248|160:264,1,90
160,336,125550,2,0,B|64:320|40:192,1,180,8|0,0:0|0:0,0:0:0:0:
128,200,126096,1,0,0:0:0:0:
112,160,126186,1,0,0:0:0:0:
80,136,126277,1,8,0:0:0:0:
120,56,126459,5,2,0:0:0:0:
368,160,126823,1,2,0:0:0:0:
304,288,127005,1,2,0:0:0:0:
152,312,127186,1,2,0:0:0:0:
200,248,127368,5,0,0:0:0:0:
184,168,127550,1,8,0:0:0:0:
216,144,127641,1,0,0:0:0:0:
256,136,127732,2,0,B|344:176|352:296,1,180,12|0,0:0|0:0,0:0:0:0:
416,224,128277,5,0,0:0:0:0:
496,216,128459,2,0,B|480:168|432:144,1,90,8|0,0:0|0:0,0:0:0:0:
360,144,128823,2,0,B|256:144|232:248,1,180,0|8,0:0|0:0,0:0:0:0:
312,264,129368,1,0,0:0:0:0:
312,264,129550,5,0,0:0:0:0:
144,288,129732,1,0,0:0:0:0:
80,160,129914,1,8,0:0:0:0:
184,208,130096,5,0,0:0:0:0:
184,128,130277,2,0,B|248:48|360:64,1,180,0|8,0:0|0:0,0:0:0:0:
352,144,130823,1,0,0:0:0:0:
384,216,131005,6,0,B|445:190|488:112,2,135,2|2|2,0:0|0:0|0:0,0:0:0:0:
352,144,131732,2,0,B|291:170|248:248,2,135,2|2|2,0:0|0:0|0:0,0:0:0:0:
432,152,132459,2,0,B|432:360,1,180,6|8,0:0|0:0,0:0:0:0:
352,328,133005,1,0,0:0:0:0:
312,328,133096,1,0,0:0:0:0:
280,304,133186,1,0,0:0:0:0:
352,248,133368,6,0,B|376:200,2,45,8|0|8,0:0|0:0|0:0,0:0:0:0:
280,152,133732,1,0,0:0:0:0:
208,248,133914,1,0,0:0:0:0:
336,96,134096,5,0,0:0:0:0:
416,256,134277,1,8,0:0:0:0:
256,336,134459,1,0,0:0:0:0:
184,304,134641,6,0,B|144:316|112:356,1,90
208,200,135005,2,0,B|240:168|248:120,1,90,8|0,0:0|0:0,0:0:0:0:
152,128,135368,5,0,0:0:0:0:
320,88,135550,1,0,0:0:0:0:
400,112,135732,5,8,0:0:0:0:
456,176,135914,1,0,0:0:0:0:
408,240,136096,2,0,B|320:280|224:240,1,180,0|8,0:0|0:0,0:0:0:0:
160,280,136641,1,0,0:0:0:0:
168,200,136823,6,0,B|216:144|296:136,2,135,2|2|2,0:0|0:0|0:0,0:0:0:0:
144,120,137550,2,0,B|104:64|8:32,2,135,2|2|2,0:0|0:0|0:0,0:0:0:0:
152,200,138277,2,0,B|272:264|416:200,1,270,2|0,0:0|0:0,0:0:0:0:
360,136,139005,1,4,0:0:0:0:
144,56,139368,5,0,0:0:0:0:
216,96,139550,1,0,0:0:0:0:
160,160,139732,2,0,B|248:200|352:160,1,180,4|8,0:0|0:0,0:0:0:0:
336,248,140277,1,0,0:0:0:0:
408,208,140459,1,0,0:0:0:0:
408,128,140641,2,0,B|384:80|328:72,1,90,0|8,0:0|0:0,0:0:0:0:
256,88,141005,1,0,0:0:0:0:
296,160,141186,6,0,B|248:224|152:208,1,135
144,192,141550,1,8,0:0:0:0:
192,128,141732,1,0,0:0:0:0:
192,48,141914,2,0,B|72:56|56:184,1,180,0|8,0:0|0:0,0:0:0:0:
136,256,142459,5,0,0:0:0:0:
120,336,142641,2,0,B|216:312|240:200,1,180,0|8,0:0|0:0,0:0:0:0:
256,136,143186,2,0,B|200:136|168:176,1,90
96,168,143550,2,0,B|100:120|144:88,1,90,0|8,0:0|0:0,0:0:0:0:
216,64,143914,1,0,0:0:0:0:
272,128,144096,2,0,B|312:216|424:192,1,180,0|8,0:0|0:0,0:0:0:0:
408,272,144641,5,0,0:0:0:0:
272,336,144823,1,0,0:0:0:0:
152,256,145005,1,0,0:0:0:0:
200,192,145186,5,8,0:0:0:0:
272,240,145368,1,0,0:0:0:0:
320,176,145550,2,0,B|432:192|464:296,1,180,4|8,0:0|0:0,0:0:0:0:
352,272,146096,1,0,0:0:0:0:
344,360,146277,2,0,B|248:312|248:200,1,180,0|8,0:0|0:0,0:0:0:0:
232,136,146823,2,0,B|152:200|56:168,1,180
88,88,147368,2,0,B|152:24|280:72,1,180,8|0,0:0|0:0,0:0:0:0:
288,136,147914,6,0,B|336:104|344:24,1,90,0|8,0:0|0:0,0:0:0:0:
400,120,148277,2,0,B|440:96|512:120,1,90
480,192,148641,5,0,0:0:0:0:
344,264,148823,1,8,0:0:0:0:
312,336,149005,6,0,B|232:288|232:152,1,180
312,168,149550,1,8,0:0:0:0:
336,88,149732,2,0,B|248:16|112:32|8:152|80:296,1,450
112,304,150732,5,0,0:0:0:0:
152,312,150823,1,8,0:0:0:0:
192,312,150914,1,0,0:0:0:0:
232,304,151005,2,0,B|266:264|272:216,1,90,8|0,0:0|0:0,0:0:0:0:
336,176,151368,2,0,B|248:128|144:184,1,180,4|8,0:0|0:0,0:0:0:0:
224,232,151914,1,0,0:0:0:0:
160,280,152096,2,0,B|240:328|344:280,1,180,0|8,0:0|0:0,0:0:0:0:
416,272,152641,2,0,B|472:176|416:88,1,180
344,88,153186,2,0,B|240:96|184:200,2,180,8|0|8,0:0|0:0|0:0,0:0:0:0:
360,168,154096,5,0,0:0:0:0:
312,232,154277,2,0,B|224:280|120:224,1,180,0|8,0:0|0:0,0:0:0:0:
136,152,154823,1,0,0:0:0:0:
216,136,155005,2,0,B|320:152|384:32,1,180,0|8,0:0|0:0,0:0:0:0:
448,80,155550,2,0,B|464:184|376:264,1,180
320,272,156096,5,8,0:0:0:0:
176,240,156277,1,0,0:0:0:0:
328,160,156459,2,0,B|224:160|160:80,1,180,0|8,0:0|0:0,0:0:0:0:
240,56,157005,5,0,0:0:0:0:
320,80,157186,2,0,B|424:96|464:224,1,180,0|8,0:0|0:0,0:0:0:0:
368,208,157732,1,0,0:0:0:0:
376,288,157914,2,0,B|328:288|288:272,1,90
224,320,158277,1,8,0:0:0:0:
200,240,158459,2,0,B|104:280|16:200,1,180
104,176,159005,5,8,0:0:0:0:
208,104,159186,1,0,0:0:0:0:
312,168,159368,1,0,0:0:0:0:
240,208,159550,6,0,B|232:256|280:304,1,90,0|8,0:0|0:0,0:0:0:0:
336,240,159914,2,0,B|384:224|408:176,1,90
360,112,160277,1,0,0:0:0:0:
296,160,160459,1,8,0:0:0:0:
240,104,160641,2,0,B|192:91|152:112,1,90
200,184,161005,1,0,0:0:0:0:
136,232,161186,1,8,0:0:0:0:
256,192,161368,12,4,162641,0:0:0:0:
256,192,162823,5,0,0:0:0:0:
256,192,162914,1,0,0:0:0:0:
256,192,163005,2,0,B|264:264|336:312,2,135,2|2|2,0:0|0:0|0:0,0:0:0:0:
176,176,163732,1,0,0:0:0:0:
136,104,163914,1,2,0:0:0:0:
200,56,164096,2,0,B|312:56,2,90,2|2|2,0:0|0:0|0:0,0:0:0:0:
288,144,164732,5,0,0:0:0:0:
256,168,164823,1,2,0:0:0:0:
224,240,165005,2,0,B|288:304,1,90,2|0,0:0|0:0,0:0:0:0:
287,303,165277,1,0,0:0:0:0:
287,303,165368,1,2,0:0:0:0:
360,272,165550,1,2,0:0:0:0:
432,304,165732,1,2,0:0:0:0:
424,224,165914,2,0,B|408:160|328:128,1,135,2|2,0:0|0:0,0:0:0:0:
224,176,166459,2,0,B|192:131|208:56,1,90,2|0,0:0|0:0,0:0:0:0:
136,48,166823,5,2,0:0:0:0:
120,88,166914,1,0,0:0:0:0:
120,128,167005,1,2,0:0:0:0:
72,192,167186,1,2,0:0:0:0:
136,240,167368,2,0,B|200:256|248:320,1,135,2|2,0:0|0:0,0:0:0:0:
264,192,167914,2,0,B|239:147|264:104,1,90,2|0,0:0|0:0,0:0:0:0:
336,56,168277,5,0,0:0:0:0:
360,88,168368,1,0,0:0:0:0:
368,128,168459,1,2,0:0:0:0:
368,168,168550,1,0,0:0:0:0:
352,208,168641,1,2,0:0:0:0:
328,240,168732,1,0,0:0:0:0:
296,264,168823,2,0,B|240:320|168:320,1,135,6|2,0:0|0:0,0:0:0:0:
168,200,169368,2,0,B|112:200|72:152,1,90,2|0,0:0|0:0,0:0:0:0:
112,88,169732,5,2,0:0:0:0:
152,72,169823,1,0,0:0:0:0:
192,72,169914,2,0,B|240:88|264:160,1,90,2|2,0:0|0:0,0:0:0:0:
208,200,170277,2,0,B|248:224|328:216,1,90,2|0,0:0|0:0,0:0:0:0:
360,176,170641,2,0,B|352:128|320:96,2,90,2|2|0,0:0|0:0|0:0,0:0:0:0:
360,256,171186,5,2,0:0:0:0:
352,296,171277,1,0,0:0:0:0:
328,328,171368,1,2,0:0:0:0:
248,336,171550,2,0,B|199:351|152:336,1,90,2|2,0:0|0:0,0:0:0:0:
96,296,171914,1,0,0:0:0:0:
88,256,172005,1,0,0:0:0:0:
104,216,172096,1,2,0:0:0:0:
168,160,172277,2,0,B|192:112|160:40,1,90,2|0,0:0|0:0,0:0:0:0:
240,24,172641,5,0,0:0:0:0:
304,72,172823,1,2,0:0:0:0:
264,144,173005,2,0,B|244:187|264:240,1,90,2|2,0:0|0:0,0:0:0:0:
200,280,173368,1,0,0:0:0:0:
168,256,173459,2,0,B|168:104,1,135,2|0,0:0|0:0,0:0:0:0:
208,48,173914,2,0,B|248:64|280:120,1,90,0|0,0:0|0:0,0:0:0:0:
272,192,174277,1,2,0:0:0:0:
312,200,174368,1,0,0:0:0:0:
352,192,174459,1,2,0:0:0:0:
392,184,174550,1,0,0:0:0:0:
432,192,174641,1,4,0:0:0:0:
256,192,184459,12,0,185550,0:0:0:0:
256,256,185914,5,8,0:0:0:0:
336,176,186096,1,0,0:0:0:0:
264,80,186277,1,0,0:0:0:0:
192,128,186459,5,0,0:0:0:0:
176,48,186641,2,0,B|128:64|104:112,1,90,8|0,0:0|0:0,0:0:0:0:
48,160,187005,1,0,0:0:0:0:
56,240,187186,2,0,B|80:280|160:296,1,90,0|8,0:0|0:0,0:0:0:0:
208,312,187550,1,0,0:0:0:0:
248,240,187732,5,0,0:0:0:0:
384,184,187914,1,0,0:0:0:0:
456,312,188096,1,8,0:0:0:0:
360,336,188277,5,0,0:0:0:0:
208,328,188459,1,0,0:0:0:0:
168,176,188641,2,0,B|96:96,2,90,0|8|0,0:0|0:0|0:0,0:0:0:0:
232,136,189186,6,0,B|258:75|336:32,2,135,2|2|2,0:0|0:0|0:0,0:0:0:0:
224,216,189914,2,0,B|163:242|120:320,2,135,2|2|2,0:0|0:0|0:0,0:0:0:0:
304,216,190641,2,0,B|328:120|432:104,1,180,6|8,0:0|0:0,0:0:0:0:
448,184,191186,1,0,0:0:0:0:
448,184,191277,1,0,0:0:0:0:
448,184,191368,1,0,0:0:0:0:
472,272,191550,6,0,B|472:320,2,45,8|0|8,0:0|0:0|0:0,0:0:0:0:
400,304,191914,1,0,0:0:0:0:
328,272,192096,1,0,0:0:0:0:
256,312,192277,5,0,0:0:0:0:
304,168,192459,1,8,0:0:0:0:
192,96,192641,1,0,0:0:0:0:
160,168,192823,6,0,B|120:136|120:88,1,90
64,240,193186,2,0,B|96:272|104:320,1,90,8|0,0:0|0:0,0:0:0:0:
184,304,193550,5,0,0:0:0:0:
344,280,193732,1,0,0:0:0:0:
424,248,193914,5,8,0:0:0:0:
288,184,194096,1,0,0:0:0:0:
392,96,194277,2,0,B|304:56|208:96,1,180,0|8,0:0|0:0,0:0:0:0:
168,160,194823,1,0,0:0:0:0:
208,232,195005,6,0,B|256:288|336:296,2,135,2|2|2,0:0|0:0|0:0,0:0:0:0:
128,232,195732,2,0,B|88:288|-8:320,2,135,2|2|2,0:0|0:0|0:0,0:0:0:0:
168,160,196459,2,0,B|440:160,1,270,2|0,0:0|0:0,0:0:0:0:
440,80,197186,1,4,0:0:0:0:
240,256,197550,5,0,0:0:0:0:
224,176,197732,1,0,0:0:0:0:
296,144,197914,2,0,B|384:184|488:144,1,180,4|8,0:0|0:0,0:0:0:0:
456,232,198459,5,0,0:0:0:0:
336,304,198641,1,0,0:0:0:0:
224,232,198823,2,0,B|200:280|144:288,1,90,0|8,0:0|0:0,0:0:0:0:
200,352,199186,5,0,0:0:0:0:
120,352,199368,2,0,B|56:304|72:208,2,135,0|0|0,0:0|0:0|0:0,0:0:0:0:
160,280,200096,2,0,B|280:272|296:144,1,180,0|8,0:0|0:0,0:0:0:0:
208,168,200641,5,0,0:0:0:0:
208,88,200823,2,0,B|112:112|88:224,1,180,4|8,0:0|0:0,0:0:0:0:
104,296,201368,2,0,B|48:296|16:256,1,90
16,184,201732,2,0,B|20:136|64:104,1,90,0|8,0:0|0:0,0:0:0:0:
128,72,202096,1,0,0:0:0:0:
208,72,202277,2,0,B|296:112|272:224,1,180,0|8,0:0|0:0,0:0:0:0:
240,304,202823,5,0,0:0:0:0:
112,216,203005,1,0,0:0:0:0:
136,64,203186,1,0,0:0:0:0:
160,144,203368,5,8,0:0:0:0:
240,144,203550,1,0,0:0:0:0:
232,224,203732,2,0,B|344:208|376:104,1,180,0|8,0:0|0:0,0:0:0:0:
448,152,204277,1,0,0:0:0:0:
424,232,204459,2,0,B|376:328|264:328,1,180,0|8,0:0|0:0,0:0:0:0:
224,272,205005,2,0,B|288:192|256:96,1,180
176,88,205550,2,0,B|112:152|160:280,1,180,8|0,0:0|0:0,0:0:0:0:
216,208,206096,6,0,B|264:240|272:320,1,90,0|8,0:0|0:0,0:0:0:0:
208,344,206459,2,0,B|248:368|320:344,1,90
360,304,206823,1,0,0:0:0:0:
328,232,207005,1,8,0:0:0:0:
400,200,207186,6,0,B|352:120|232:144,1,180
216,216,207732,1,8,0:0:0:0:
144,184,207914,2,0,B|72:208|8:168|-8:80|32:8|112:-32|216:32|208:72|208:72|248:72,1,450,0|0,0:0|0:0,0:0:0:0:
288,72,208914,1,0,0:0:0:0:
328,72,209005,1,8,0:0:0:0:
368,72,209096,1,0,0:0:0:0:
408,72,209186,6,0,B|504:72,1,90,8|0,0:0|0:0,0:0:0:0:
496,152,209550,2,0,B|408:200|304:144,1,180,4|8,0:0|0:0,0:0:0:0:
296,232,210096,1,0,0:0:0:0:
352,288,210277,2,0,B|272:336|168:288,1,180,0|8,0:0|0:0,0:0:0:0:
208,216,210823,2,0,B|112:160|24:216,2,180,0|0|0,0:0|0:0|0:0,0:0:0:0:
280,256,211732,2,0,B|280:72,1,180,0|8,0:0|0:0,0:0:0:0:
344,32,212277,5,0,0:0:0:0:
344,32,212459,2,0,B|392:120|336:224,1,180,0|8,0:0|0:0,0:0:0:0:
288,264,213005,1,0,0:0:0:0:
224,216,213186,2,0,B|120:232|56:112,1,180,0|8,0:0|0:0,0:0:0:0:
152,112,213732,2,0,B|256:96|336:184,1,180
376,104,214277,5,8,0:0:0:0:
248,216,214459,1,0,0:0:0:0:
344,352,214641,2,0,B|448:352|496:256,1,180,0|8,0:0|0:0,0:0:0:0:
440,200,215186,5,0,0:0:0:0:
384,256,215368,2,0,B|296:304|208:248,1,180,0|8,0:0|0:0,0:0:0:0:
152,192,215914,1,0,0:0:0:0:
72,216,216096,2,0,B|64:168|96:128,1,90
160,88,216459,1,8,0:0:0:0:
224,136,216641,2,0,B|264:232|184:320,1,180
288,320,217186,5,8,0:0:0:0:
384,224,217368,1,0,0:0:0:0:
304,104,217550,1,0,0:0:0:0:
224,112,217732,6,0,B|216:160|264:208,1,90,0|8,0:0|0:0,0:0:0:0:
328,208,218096,2,0,B|376:192|400:144,1,90
448,216,218459,5,0,0:0:0:0:
368,336,218641,1,8,0:0:0:0:
224,328,218823,2,0,B|120:320|80:216,1,180
256,192,219368,5,8,0:0:0:0:
256,192,219550,12,4,220823,0:0:0:0:
