osu file format v9

[General]
AudioFilename: 05. Bloody Night.mp3
AudioLeadIn: 3000
PreviewTime: 81319
Countdown: 0
SampleSet: Normal
StackLeniency: 0.7
Mode: 0
LetterboxInBreaks: 0

[Editor]
Bookmarks: 43496,128860
DistanceSpacing: 0.8
BeatDivisor: 4
GridSize: 4

[Metadata]
Title:Bloody Night
Artist:Shihori
Creator:Frostmourne
Version:Snowy
Source:Touhou
Tags:bossandy snowy dream a-one the doll maker of bucuresti ultimate truth arm comiket 80 toho eurobeat vol 4 regenz

[Difficulty]
HPDrainRate:4
CircleSize:3
OverallDifficulty:4
ApproachRate:5
SliderMultiplier:1.4
SliderTickRate:2

[Events]
//Background and Video events
0,0,"bg.jpg"
//Break Periods
2,23519,33756
2,107883,115210
//Storyboard Layer 0 (Background)
//Storyboard Layer 1 (Fail)
//Storyboard Layer 2 (Pass)
//Storyboard Layer 3 (Foreground)
//Storyboard Sound Samples
//Background Colour Transformations
3,100,163,162,255

[TimingPoints]
47,363.636363636364,4,2,0,50,1,0
17047,-100,4,1,2,50,0,0
21865,-100,4,2,0,20,0,0
23319,-100,4,1,1,75,0,0
35047,-100,4,1,1,50,0,0
43501,-100,4,1,1,75,0,0
55592,-100,4,2,0,50,0,0
58228,-100,4,1,1,75,0,0
80047,-100,4,2,0,50,0,0
80319,-100,4,2,0,65,0,0
80683,-100,4,1,1,75,0,0
81501,-100,4,1,1,90,0,1
104774,-100,4,1,1,90,0,0
124956,-100,4,1,1,75,0,0
161410,-100,4,2,0,50,0,0
161774,-100,4,2,0,65,0,0
162228,-100,4,1,1,75,0,0
162956,-100,4,1,1,90,0,1
189137,-100,4,1,1,40,0,0

[Colours]
Combo1 : 255,255,0
Combo2 : 128,64,64
Combo3 : 128,128,255

[HitObjects]
352,92,47,5,4
152,288,774,1,0
76,204,1137,1,2
140,112,1501,2,0,B|204:76|280:104,3,140,0|2|0|2
384,128,2956,5,0
312,212,3319,2,0,B|288:280|328:348,3,140,2|0|2|0
440,352,4774,1,2
404,248,5137,2,0,B|432:184|388:104,2,140,0|2|4
296,220,6228,5,2
188,196,6592,1,0
104,268,6956,1,2
104,268,7319,5,0
100,156,7683,1,2
84,44,8047,1,0
196,44,8410,1,2
296,92,8774,6,0,B|332:80|368:88,2,70,0|0|2
268,200,9501,1,0
268,200,9865,1,2
172,260,10228,6,0,B|148:288|144:324,2,70,0|0|2
96,176,10956,1,0
96,176,11319,1,2
184,104,11683,6,0,B|164:36,1,70,4|0
264,92,12228,1,4
296,200,12592,2,0,B|316:268,1,70,0|2
372,268,12956,2,0,B|396:340,1,70,0|4
448,352,13319,1,0
464,240,13683,6,0,B|464:200|448:168,3,70,4|0|0|2
412,132,14410,2,0,B|348:100|320:32,1,140,2|2
264,28,14956,2,0,B|228:52|188:32,1,70,0|4
180,88,15319,2,0,B|168:120|136:148,3,70,0|0|2|0
152,256,16228,6,0,B|164:324,1,70,0|2
220,332,16592,2,0,B|256:316|292:324,3,70,4|0|2|0
344,312,17319,1,0
388,280,17501,6,0,B|424:212|384:140,3,140,4|2|0|2
284,92,18956,1,4
184,140,19319,1,2
156,248,19683,1,0
196,352,20047,1,2
308,332,20410,6,0,B|348:276,3,70,4|0|0|0
360,220,21137,2,0,B|400:160,3,70,4|0|0|0
256,192,21865,12,4,23319
200,280,34956,5,4
276,200,35319,2,0,B|284:132|228:60,1,140,8|0
124,84,36047,2,0,B|88:84|48:100,2,70,8|0|0
132,196,36774,1,8
232,144,37137,1,0
224,256,37501,1,8
332,284,37865,6,0,B|404:272|428:184,1,140,0|8
424,136,38410,2,0,B|402:55|330:43,1,140
276,44,38956,1,8
208,132,39319,6,0,B|196:164|208:204,2,70,0|0|8
308,188,40047,2,0,B|322:219|358:238,2,70,0|0|8
216,252,40774,6,0,B|172:304|88:304,1,140,0|8
64,256,41319,2,0,B|76:184|48:112,1,140
80,68,41865,1,8
188,92,42228,6,0,B|204:160,2,70,0|0|8
288,140,42956,2,0,B|304:208,2,70,0|0|8
272,84,43501,1,4
256,192,43683,12,4,46410
172,240,47319,6,0,B|148:304,2,70,0|0|8
264,176,48047,2,0,B|328:136|400:136,1,140,0|8
440,240,48774,2,0,B|452:312|504:368,2,140,0|8|0
424,128,49865,1,8
424,128,50228,1,0
324,76,50592,6,0,B|256:56|180:88,1,140,8|0
140,188,51319,1,8
140,188,51683,1,0
224,264,52047,2,0,B|248:296|252:332,2,70,8|0|0
268,160,52774,1,8
372,120,53137,1,0
448,204,53501,6,0,B|476:272|440:340,1,140,8|0
340,288,54228,1,8
244,232,54592,2,0,B|216:204|172:196,2,70,0|0|8
276,280,55137,1,4
256,192,55319,12,4,58228
148,204,58774,6,0,B|136:272|184:324|256:348|324:324|368:272|360:204,1,350,8|0
256,168,60047,1,0
256,168,60228,2,0,B|288:96|352:72,1,140,8|0
404,96,60774,1,8
404,96,60956,2,0,B|428:128|428:168,1,70
416,272,61501,5,8
316,324,61865,1,0
216,272,62228,1,8
108,300,62592,6,0,B|100:260|80:232,2,70,0|0|8
216,272,63319,2,0,B|224:312|244:340,2,70,0|0|8
328,260,64047,6,0,B|384:236|396:168|368:104|320:84,1,210,4|8
260,176,64956,1,0
260,176,65137,1,8
180,96,65501,6,0,B|140:116|108:180|140:240|188:268,2,210,0|8|0
228,124,66774,2,0,B|392:352|512:168|372:12|232:240,1,490,4|0
256,192,68228,12,4,69865
144,112,70410,6,0,B|216:160|228:264|228:264|320:248|400:256,1,350,8|0
388,144,71683,1,8
388,144,71865,2,0,B|332:164|288:180|288:180|272:127|232:84,1,210,0|8
180,92,72592,6,0,B|120:124|120:124|132:196|104:268,1,210,0|8
88,316,73319,1,0
244,256,73865,6,0,B|280:272|304:304,1,70,8|0
352,312,74228,2,0,B|392:248|464:220,1,140,0|8
452,168,74774,2,0,B|436:132|436:100,2,70
396,184,75319,1,8
304,116,75683,6,0,B|264:176|264:176|204:204,1,140,4|8
148,196,76228,2,0,B|120:264|120:264|140:328,1,140,0|0
192,344,76774,1,8
280,272,77137,6,0,B|336:232|336:232|408:232,1,140,4|8
448,192,77683,2,0,B|436:120|436:120|384:76,1,140,0|0
336,100,78228,1,4
280,100,78410,6,0,B|224:144|148:152,1,140,10|0
104,184,78956,2,8,B|92:216|112:252,1,70,8|2
220,280,79501,1,2
324,236,79865,1,6
256,192,80047,12,4,81501
144,172,82228,6,0,B|120:240|176:300,1,140,0|8
248,212,82956,2,0,B|308:172|392:172,2,140,0|8|0
268,324,84047,1,8
268,324,84228,6,0,B|196:308|156:240,1,140
156,188,84774,2,0,B|156:152|140:120,1,70,8|0
184,88,85137,2,0,B|204:60|244:44,3,70,0|0|8|0
296,48,85865,2,0,B|316:80|348:100,3,70,0|0|8|0
372,148,86592,2,0,B|388:184|384:216,1,70
328,208,86956,2,0,B|308:252|348:308|324:352,1,140,8|4
216,344,87683,6,0,B|184:328|164:292,2,70,8|0|0
228,232,88410,2,0,B|228:192|216:164,2,70,8|0|0
128,184,89137,1,8
184,84,89501,2,0,B|204:56|240:40|240:40|284:56|300:84,1,140,0|8
332,120,90047,6,0,B|380:176|372:256,1,140
348,300,90592,2,0,B|344:336|360:368,2,70,8|0|0
248,248,91319,2,0,B|219:270|208:304,2,70,8|0|0
288,144,92047,1,8
196,80,92410,1,0
108,148,92774,1,8
200,212,93137,6,0,B|188:248|164:272,2,70,4|0|8
288,144,93865,2,0,B|304:177|304:211,2,70,0|0|8
400,152,94592,2,0,B|448:192|412:248|456:288,2,140,0|8|0
295,111,95683,1,8
244,88,95865,6,0,B|188:128|108:124,1,140
72,164,96410,2,0,B|64:200|76:232,1,70,8|0
116,276,96774,1,0
220,240,97137,1,8
292,328,97501,1,0
392,280,97865,1,8
420,184,98228,2,0,B|444:156|448:116,2,70,0|0|8
336,112,98956,6,0,B|300:76|236:88|208:128,1,140,4|8
156,220,99683,2,0,B|192:256|256:244|284:204,1,140,0|8
392,220,100410,2,0,B|392:288|440:352,2,140,0|8|0
380,108,101501,1,8
380,108,101683,6,0,B|316:80|240:112,1,140
208,152,102228,2,0,B|196:188|172:216,1,70,8|0
124,240,102592,1,0
84,136,102956,2,0,B|72:100|44:76,2,70,8|0|0
20,228,103683,1,8
80,324,104047,2,0,B|92:360|120:384,2,70,0|0|8
192,308,104774,1,4
256,192,104956,12,4,107683
172,168,116410,6,0,B|140:240|196:304,2,140,4|8|0
244,84,117501,2,0,B|292:72|324:80,1,70,8|0
360,112,117865,2,0,B|428:152|424:232,1,140,0|8
388,332,118592,2,0,B|320:292|324:212,1,140,0|8
276,188,119137,6,0,B|208:168|136:192,1,140
96,228,119683,2,0,B|88:264|64:292,1,70,8|0
172,332,120228,2,0,B|208:320|268:340,1,70,0|8
288,304,120592,6,0,B|256:256|256:256|284:220|272:176,1,140
304,132,121137,2,0,B|324:100|352:80,1,70,8|0
408,80,121501,2,0,B|420:116|444:144,1,70
464,192,121865,1,8
444,244,122047,2,0,B|432:280|396:308,1,70
296,324,122592,2,0,B|268:344|256:380,1,70,8|0
124,272,123319,1,8
96,228,123501,6,0,B|68:156|112:96,1,140
168,84,124047,2,0,B|204:100|240:92,1,70,8|0
288,112,124410,2,0,B|308:144|340:168,1,70
388,176,124774,1,8
388,176,124956,1,4
256,192,125137,12,4,127865
160,228,128592,6,0,B|148:152|208:96,1,140
256,84,129137,2,0,B|292:72|324:76,1,70,8|0
372,108,129501,2,0,B|400:176|400:176|380:208|392:244,1,140,0|8
368,292,130047,2,0,B|360:328|372:360,2,70
268,244,130774,6,0,B|200:220|132:252,1,140,0|0
76,248,131319,2,0,B|48:220|40:180,1,70,8|0
84,84,131865,2,0,B|156:72|216:32,1,140,0|0
268,32,132410,6,0,B|280:64|308:88,1,70
364,88,132774,1,8
476,84,133137,2,0,B|464:52|436:28,1,70
380,28,133501,1,8
424,132,133865,6,0,B|444:208|396:272,1,140,0|8
288,272,134592,2,0,B|252:284|228:308,2,70,0|0|8
272,220,135137,6,0,B|236:160|252:84,1,140,4|0
272,32,135683,1,8
384,56,136047,2,0,B|408:84|440:100,1,70
464,148,136410,2,0,B|460:184|432:216,1,70,8|4
256,192,136774,12,4,139683
136,136,140228,6,0,B|200:172|224:240,1,140,8|0
280,228,140774,2,0,B|292:296|352:344,1,140,8|0
424,256,141501,1,0
412,200,141683,2,0,B|392:80|252:76,1,210,8|8
220,108,142410,2,0,B|176:164|200:240,1,140,0|0
244,276,142956,2,0,B|260:308|256:344,1,70,8|0
92,312,143683,5,8
92,312,143865,1,0
96,200,144228,2,0,B|104:164|92:124,1,70,0|8
112,76,144592,1,0
168,64,144774,2,0,B|200:52|236:56,2,70,0|0|8
200,172,145501,6,0,B|172:212|180:272|228:304,1,140,4|8
276,288,146047,2,0,B|304:248|296:188|248:156,1,140,0|0
216,124,146592,1,8
324,100,146956,6,0,B|384:64|460:64,1,140,0|8
468,120,147501,2,0,B|456:192|488:256,1,140,0|0
488,312,148047,1,8
256,192,148228,12,4,151319
280,68,151865,6,0,B|304:136|280:208,1,140
280,264,152410,1,8
168,248,152774,2,0,B|104:288|32:248,2,140,0|8|0
100,160,153865,1,8
100,160,154047,2,0,B|152:56|280:72,1,210,0|8
320,104,154774,2,0,B|332:140|364:168,1,70
420,256,155319,6,0,B|416:296|392:324,1,70,8|0
296,264,155865,2,0,B|260:252|228:260,1,70,0|8
176,240,156228,1,0
136,280,156410,2,0,B|124:312|132:348,2,70,0|0|8
96,176,157137,6,0,B|88:100|152:56,1,140,4|8
208,52,157683,2,0,B|272:80|288:160,1,140
276,216,158228,1,8
388,208,158592,5,4
436,236,158774,1,0
404,284,158956,1,8
356,256,159137,2,0,B|308:312|220:316,1,140
188,284,159683,1,12
140,312,159865,6,0,B|80:268|72:192,1,140,4|0
80,140,160410,1,0
124,104,160592,2,0,B|188:80|264:100,1,140,2|2
332,184,161319,1,6
256,192,161501,12,4,162956
344,244,163319,5,8
232,272,163683,1,0
232,272,163865,1,0
232,272,164047,1,8
132,220,164410,1,0
144,108,164774,1,8
256,108,165137,1,0
360,144,165501,1,8
360,144,165683,6,0,B|392:204|380:284,1,140
360,332,166228,1,8
252,364,166592,1,0
208,328,166774,1,0
184,280,166956,1,8
88,332,167319,6,0,B|64:304|60:264,1,70
84,216,167683,1,8
84,160,167865,1,0
124,120,168047,2,0,B|156:100|196:100,2,70,0|0|8
212,192,168774,6,0,B|208:228|228:264,1,70,4|0
280,280,169137,1,8
280,280,169319,1,0
332,304,169501,2,0,B|352:340|352:376,2,70,0|0|8
352,180,170228,2,0,B|324:108|360:40,2,140,0|8|0
464,184,171319,1,8
464,184,171501,6,0,B|452:268|380:284,1,140
324,272,172047,2,0,B|292:288|252:288,1,70,8|0
208,260,172410,1,0
208,260,172592,1,0
156,284,172774,2,0,B|136:312|128:352,2,70,8|0|0
108,184,173501,1,8
156,80,173865,1,0
260,124,174228,2,0,B|292:108|328:104,2,70,8|0|4
308,224,174956,5,8
420,236,175319,2,0,B|460:232|488:216,2,70,0|0|8
308,224,176047,1,0
228,300,176410,1,8
192,192,176774,1,0
84,220,177137,1,8
84,220,177319,6,0,B|100:152|72:80,1,140
124,60,177865,2,0,B|156:40|192:36,1,70,8|0
244,48,178228,1,0
336,108,178592,1,8
332,220,178956,1,0
332,220,179137,1,0
332,220,179319,1,8
224,256,179683,1,0
200,308,179865,1,0
148,332,180047,1,8
120,224,180410,6,0,B|100:192|72:176,2,70,4|0|8
176,128,181137,1,0
288,120,181501,1,8
384,176,181865,2,0,B|396:224|444:260|448:308,2,140,0|8|0
288,232,182956,1,8
288,232,183137,6,0,B|268:304|192:332,1,140
140,320,183683,2,0,B|104:316|72:328,2,70,8|0|0
156,208,184410,1,8
216,116,184774,1,0
256,80,184956,1,0
308,56,185137,1,8
360,80,185319,1,0
400,120,185501,1,0
308,260,186047,5,0
308,260,186228,1,4
256,192,186319,12,0,189137
