osu file format v9

[General]
AudioFilename: 05. Bloody Night.mp3
AudioLeadIn: 3000
PreviewTime: 81319
Countdown: 0
SampleSet: Normal
StackLeniency: 0.7
Mode: 0
LetterboxInBreaks: 0

[Editor]
Bookmarks: 43496,128860
DistanceSpacing: 0.5
BeatDivisor: 4
GridSize: 4

[Metadata]
Title:Bloody Night
Artist:Shihori
Creator:Frostmourne
Version:Lunatic
Source:Touhou
Tags:bossandy snowy dream a-one the doll maker of bucuresti ultimate truth arm comiket 80 toho eurobeat vol 4 regenz

[Difficulty]
HPDrainRate:7
CircleSize:4
OverallDifficulty:7
ApproachRate:9
SliderMultiplier:2
SliderTickRate:2

[Events]
//Background and Video events
0,0,"bg.jpg"
//Break Periods
2,23519,31447
2,116610,124356
//Storyboard Layer 0 (Background)
//Storyboard Layer 1 (Fail)
//Storyboard Layer 2 (Pass)
//Storyboard Layer 3 (Foreground)
//Storyboard Sound Samples
//Background Colour Transformations
3,100,163,162,255

[TimingPoints]
47,363.636363636364,4,2,0,50,1,0
17047,-100,4,1,2,50,0,0
21865,-100,4,2,0,20,0,0
23319,-100,4,1,1,75,0,0
35047,-100,4,1,1,50,0,0
43501,-100,4,1,1,75,0,0
47501,-200,4,1,1,75,0,0
47774,-100,4,1,1,75,0,0
50410,-200,4,1,1,75,0,0
50683,-100,4,1,1,75,0,0
55592,-100,4,2,0,50,0,0
58228,-100,4,1,1,75,0,0
80047,-100,4,2,0,50,0,0
80319,-100,4,2,0,65,0,0
80683,-100,4,1,1,75,0,0
81501,-100,4,1,1,90,0,1
104683,-100,4,1,1,90,0,0
104774,-100,4,1,0,90,0,1
106592,-200,4,1,0,90,0,1
107410,-100,4,1,0,90,0,1
116410,-100,4,2,0,90,0,0
124956,-100,4,1,1,75,0,0
149501,-200,4,1,1,75,0,0
150047,-100,4,1,1,75,0,0
161410,-100,4,2,0,50,0,0
161774,-100,4,2,0,65,0,0
162228,-100,4,1,1,75,0,0
162956,-100,4,1,1,90,0,1
189137,-100,4,1,1,40,0,0

[Colours]
Combo1 : 255,255,0
Combo2 : 128,64,64
Combo3 : 128,128,255

[HitObjects]
328,112,47,1,4
396,184,228,2,0,B|368:232|308:216,1,100,2|0
160,80,774,1,0
148,180,956,2,0,B|201:196|234:143,1,100,2|0
264,48,1319,1,2
300,272,1683,6,0,B|196:316,1,100,2|0
228,212,2047,2,0,B|132:176,1,100,2|0
220,124,2410,2,0,B|160:44,2,100,2|0|2
200,324,3137,5,2
300,340,3319,1,0
400,324,3501,2,0,B|480:264,1,100,2|0
392,220,3865,2,0,B|444:132,1,100,2|0
488,44,4228,1,2
172,136,4592,6,0,B|120:156|84:108,1,100,2|0
248,112,4956,2,0,B|268:164|220:200,1,100,2|0
172,136,5319,1,2
128,336,5501,2,0,B|108:284|156:248,1,100,0|2
208,312,5865,1,4
288,256,6047,6,0,B|320:208|376:224,1,100,2|0
408,316,6410,2,0,B|376:364|320:348,1,100,2|0
464,244,6774,1,2
432,148,6956,2,0,B|384:116|399:61,1,100,0|2
399,61,7501,5,2
300,52,7683,2,0,B|200:64,1,100,0|2
268,140,8047,2,0,B|184:200,1,100,0|2
64,176,8410,2,0,B|148:116,1,100,0|2
363,244,8956,5,2
304,324,9137,2,0,B|348:356|400:336,1,100,0|2
424,160,9501,2,0,B|380:128|328:148,1,100,0|2
88,224,9865,2,0,B|132:256|184:236,1,100,0|2
216,36,10410,6,0,B|152:116,1,100,2|0
252,132,10774,2,0,B|220:236,1,100,2|0
320,204,11137,2,0,B|332:308,1,100,2|0
304,60,11683,5,4
152,192,11865,1,0
152,192,12228,5,4
96,276,12410,1,0
96,276,12592,1,0
196,280,12774,1,0
196,280,12956,1,0
392,324,13137,5,4
196,280,13319,1,0
196,280,13683,6,0,B|200:220|260:216,1,100,4|0
168,136,14047,2,0,B|164:196|104:200,2,100
224,56,14592,5,4
40,140,14774,1,0
296,300,15137,5,4
412,156,15319,1,0
336,88,15501,5,0
316,236,15683,1,0
336,88,15865,1,0
400,240,16047,6,0,B|436:284|492:268,1,100,4|0
400,240,16592,5,4
264,308,16774,1,2
264,308,16865,1,2
264,308,16956,1,2
131,222,17137,1,0
111,205,17228,1,0
99,182,17319,1,0
60,320,17501,6,0,B|112:344|156:308,1,100,4|2
220,232,17865,1,0
320,244,18047,1,2
384,320,18228,1,0
280,164,18410,6,0,B|236:128|180:148,1,100,2|0
148,52,18774,1,2
200,312,18956,5,4
300,328,19137,2,0,B|332:284|388:280,1,100,2|0
472,228,19501,1,2
452,128,19683,1,0
452,128,19865,1,2
380,52,20047,1,0
380,52,20228,1,2
184,40,20410,5,4
184,40,20592,1,0
68,116,20774,1,0
68,116,20956,1,0
248,104,21137,5,4
272,105,21228,1,0
293,118,21319,1,0
303,140,21410,1,0
314,162,21501,1,0
319,186,21592,1,0
334,204,21683,1,0
354,218,21774,1,0
376,232,21865,6,0,B|424:252,12,50,0|0|0|0|0|0|0|0|0|0|0|0|0
32,104,23319,5,4
256,192,32047,12,4,33410
84,308,33865,6,0,B|184:308,1,100,2|2
428,76,34410,1,2
242,101,34774,1,0
242,101,34865,1,0
242,101,34956,6,0,B|280:192,1,100,4|0
188,208,35319,2,0,B|176:312,1,100,8|0
268,268,35683,2,0,B|336:344,2,100,0|0|8
152,124,36228,6,0,B|116:168|60:152,1,100
32,56,36592,2,0,B|68:12|124:28,1,100,0|8
220,52,36956,1,0
220,52,37137,1,0
176,224,37319,1,0
176,224,37501,1,8
392,40,37683,6,0,B|416:88|476:88,1,100
324,104,38047,2,0,B|307:154|349:197,2,100,0|8|0
428,220,38592,1,0
352,288,38774,2,0,B|294:288|270:240,1,100,0|8
160,96,39137,2,0,B|217:95|241:143,1,100,0|0
156,200,39501,5,0
348,140,39683,1,8
208,284,39865,1,0
272,96,40047,1,0
80,144,40228,5,0
80,144,40410,2,0,B|44:252,1,100,8|0
156,200,40774,2,0,B|188:100,1,100
156,200,41137,1,8
120,288,41319,2,0,B|136:344|200:336,1,100
244,248,41683,2,0,B|285:206|247:154,1,100,0|8
336,108,42047,6,0,B|284:92|272:32,1,100
176,52,42410,1,0
92,104,42592,1,8
56,196,42774,2,0,B|108:212|120:272,2,100
188,164,43319,1,8
464,68,43501,6,0,B|456:64|456:64|448:72|448:72|440:64|440:64|432:72|432:72|424:64|424:64|416:72|416:72|408:64|408:64|400:72|400:72|392:64|392:64|384:72|384:72|376:64|376:64|368:72|368:72|360:64|360:64|352:72|352:72|344:64|344:64|336:72|336:72|328:64|328:64|320:72|320:72|312:64|312:64|304:72|304:72|296:64|296:64|288:72|288:72|280:64|280:64|272:72|272:72|264:64|264:64|260:72|260:72|248:68|248:68,1,300,4|0
148,68,44228,5,2
380,224,44592,1,2
120,328,44956,1,2
464,192,45320,5,2
48,192,45683,1,2
112,268,45865,2,0,B|152:304,2,50,2|2|2
244,116,46410,1,4
192,276,46774,6,0,B|192:336|136:352,1,100,0|8
192,276,47137,1,0
292,288,47319,1,0
252,200,47501,6,0,B|272:144,1,50,2|8
296,60,47865,5,0
296,60,47956,1,0
296,60,48047,2,0,B|200:28,1,100
104,48,48410,1,8
36,120,48592,1,0
68,216,48774,5,0
252,140,48956,1,0
68,216,49137,1,8
268,224,49319,6,0,B|328:216|336:156,1,100
236,56,49683,2,0,B|176:64|168:124,1,100,0|8
172,220,50047,1,0
228,304,50228,1,0
332,304,50410,6,0,B|388:280,1,50,2|8
440,203,50774,5,0
440,203,50865,1,0
440,203,50956,2,0,B|476:107,1,100
344,35,51319,2,0,B|308:131,1,100,8|0
280,228,51683,5,0
164,116,51865,1,0
116,268,52047,1,8
76,164,52228,6,0,B|48:68,1,100
76,164,52592,1,0
172,192,52774,1,8
252,132,52956,2,0,B|280:228,1,100,0|0
308,324,53319,5,2
308,324,53410,1,0
308,324,53501,1,8
208,340,53683,6,0,B|152:360|116:320,1,100,4|0
247,247,54047,1,0
348,232,54228,2,0,B|400:244|412:300,1,100,10|0
464,212,54592,1,2
408,132,54774,1,0
408,132,54865,1,0
408,132,54956,1,10
352,48,55137,6,0,B|344:44|344:44|336:52|336:52|328:44|328:44|320:52|320:52|312:44|312:44|304:52|304:52|296:44|296:44|288:52|288:52|280:44|280:44|272:52|272:52|264:44|264:44|256:52|256:52|248:44|248:44|240:52|240:52|232:44|232:44|224:52|224:52|216:44|216:44|208:52|208:52|200:44|200:44|192:52|192:52|184:44|184:44|176:52|176:52|168:44|168:44|160:52|160:52|152:44|152:44|148:52|148:52|136:48|136:48,1,300,4|0
72,252,56228,5,0
124,336,56410,1,0
72,252,56592,1,0
256,236,56956,6,0,B|308:216,2,50,0|0|2
188,160,57319,2,0,B|210:109,2,50,0|0|2
160,256,57683,1,0
160,256,57774,1,0
160,256,57865,1,2
308,120,58047,1,0
308,120,58137,1,0
308,120,58228,6,0,B|340:76|396:68,1,100,4|0
440,156,58592,2,0,B|408:200|352:208,1,100,8|0
432,276,58956,1,0
332,292,59137,1,0
264,216,59319,1,8
308,120,59501,1,0
244,44,59683,6,0,B|212:88|156:80,1,100
76,140,60047,2,0,B|108:184|164:176,1,100,8|0
76,140,60410,1,0
150,271,60592,1,0
248,296,60774,6,0,B|234:350|181:363,1,100,8|0
248,296,61137,1,0
316,224,61319,1,0
224,188,61501,2,0,B|237:133|290:120,1,100,8|0
224,44,61865,2,0,B|210:98|157:111,1,100
136,28,62228,5,10
80,220,62410,1,2
80,220,62501,1,0
80,220,62592,1,0
136,332,62774,5,2
228,240,62956,1,8
348,292,63137,1,2
348,132,63319,5,0
268,316,63501,1,2
348,132,63683,1,10
268,316,63865,1,0
316,204,64047,6,0,B|260:176|268:120,1,100,4|0
320,40,64410,1,8
320,40,64501,1,0
320,40,64592,2,0,B|216:52,1,100
124,84,64956,1,0
76,172,65137,1,8
124,84,65319,1,0
196,180,65501,6,0,B|252:208|244:264,1,100
192,344,65864,1,8
192,344,65955,1,0
192,344,66046,2,0,B|296:332,1,100
392,320,66410,1,0
468,136,66592,1,8
252,72,66774,6,0,B|152:56,1,100,4|0
288,204,67137,2,0,B|388:188,1,100,0|8
104,188,67501,1,0
120,288,67683,5,0
134,308,67774,1,0
153,323,67865,1,0
176,332,67956,1,0
200,335,68047,1,0
240,244,68228,6,0,B|248:248|248:248|256:240|256:240|264:248|264:248|272:240|272:240|280:248|280:248|288:240|288:240|296:248|296:248|304:240|304:240|312:248|312:248|320:240|320:240|328:248|328:248|336:240|336:240|344:248|344:248|352:240|352:240|360:248|360:248|368:240|368:240|376:248|376:248|384:240|384:240|392:248|392:248|400:240|400:240|408:248|408:248|416:240|416:240|424:248|424:248|432:240|432:240|440:248|440:248|444:240|444:240|456:244|456:244,1,300,4|0
64,208,69137,1,0
204,60,69501,1,0
204,60,69683,1,0
272,132,69865,6,0,B|324:152|316:212,1,100,4|0
220,240,70228,2,0,B|242:290|194:327,1,100,8|0
128,252,70592,1,0
76,168,70774,1,0
128,252,70956,1,8
312,288,71137,5,0
312,288,71228,1,0
312,288,71319,2,0,B|348:248|404:256,1,100
480,192,71683,1,8
400,132,71865,2,0,B|364:172|308:164,2,100
324,64,72410,5,8
220,240,72592,1,0
216,340,72774,6,0,B|156:340|132:288,1,100
124,192,73137,1,8
124,192,73319,1,0
244,80,73501,1,0
244,80,73683,1,0
284,240,73865,1,10
284,240,73956,1,0
284,240,74047,2,0,B|336:244|368:196,1,100,2|0
436,116,74410,5,2
280,152,74592,1,8
368,195,74774,5,2
272,64,74956,1,0
208,212,75137,1,2
368,196,75319,1,10
272,64,75501,1,0
116,68,75683,6,0,B|36:148,1,100,4|0
52,248,76047,1,8
52,248,76137,1,0
52,248,76228,2,0,B|124:176,1,100
208,128,76592,1,0
300,164,76774,1,8
52,344,76956,6,0,B|108:340|132:292,1,100,0|4
216,236,77319,1,0
216,236,77501,1,8
288,56,77683,1,0
288,56,77865,1,0
192,36,78047,1,0
52,88,78228,5,8
52,88,78410,1,6
460,296,78956,5,8
460,296,79138,1,6
88,164,79501,5,2
424,220,79865,1,6
92,312,80228,5,0
92,312,80410,1,0
92,312,80592,1,0
192,312,80774,2,0,B|240:312,2,50,2|0|0
152,220,81137,2,0,B|185:186,2,50,2|0|0
52,216,81501,6,0,B|28:168|52:120,1,100,4|0
128,40,81865,2,0,B|152:88|128:136,1,100,8|0
228,136,82228,1,0
228,136,82319,1,0
228,136,82410,2,0,B|324:84,1,100,0|8
324,188,82774,2,0,B|428:200,1,100
188,280,83137,2,0,B|84:292,1,100,0|8
36,208,83501,5,0
30,183,83592,1,0
36,160,83683,2,0,B|48:132,4,25,2|0|0|0|0
136,180,84047,1,10
336,348,84228,6,0,B|384:320|384:260,1,100
368,168,84592,1,0
312,84,84774,1,10
64,320,84956,6,0,B|92:272|144:268,1,100
240,244,85319,1,0
340,256,85501,1,10
405,108,85683,2,0,B|365:72|313:84,1,100
240,244,86047,5,10
223,233,86137,1,8
208,218,86228,1,10
194,202,86319,1,8
180,187,86410,1,8
172,168,86501,1,2
164,149,86592,1,8
158,129,86683,1,0
158,107,86774,1,10
72,156,86956,6,0,B|56:176,4,25,2|0|0|0|0
132,236,87319,6,0,B|104:280|44:276,1,100,4|0
112,352,87683,1,8
208,328,87865,2,0,B|236:284|296:288,1,100
392,316,88228,1,0
176,148,88410,1,8
176,148,88592,1,0
120,68,88774,6,0,B|68:92|72:156,1,100
392,316,89137,2,0,B|444:292|440:228,1,100,8|0
352,168,89501,1,0
352,168,89592,1,0
352,168,89683,1,2
292,76,89865,1,10
292,76,90047,6,0,B|324:32|380:36,1,100,0|0
476,60,90410,1,0
256,192,90592,1,10
368,140,90774,1,0
220,308,90956,6,0,B|188:352|132:348,1,100
36,324,91319,1,10
256,192,91501,1,0
172,40,91683,6,0,B|84:104,1,100
80,120,91956,1,0
72,144,92047,1,10
72,244,92228,1,0
96,244,92319,1,0
120,244,92410,1,0
144,244,92501,1,0
168,244,92592,1,2
172,160,92774,5,2
320,76,92956,1,2
320,244,93137,1,4
392,312,93319,6,0,B|448:320|476:272,1,100,0|8
408,128,93683,2,0,B|352:120|324:168,1,100
244,108,94047,2,0,B|168:36,1,100,0|8
244,108,94410,1,0
99,104,94592,5,0
99,104,94683,1,0
99,104,94774,2,0,B|40:184,1,100,0|8
140,196,95137,1,0
140,196,95228,1,0
140,196,95319,2,0,B|132:236,4,25,2|0|0|0|0
180,48,95683,1,10
388,48,95865,5,0
280,104,96047,1,0
192,184,96228,2,0,B|152:224|176:280,1,100,0|10
324,352,96592,2,0,B|364:312|340:256,1,100
64,80,96956,5,0
84,196,97137,1,10
174,276,97319,2,0,B|232:280|244:336,1,100
372,180,97683,2,0,B|314:176|302:120,1,100,0|10
224,60,98047,5,0
224,168,98228,1,0
224,60,98410,1,2
296,232,98592,5,2
296,232,98683,1,0
296,232,98774,1,0
296,232,98865,1,0
296,232,98956,2,0,B|324:284|388:272,1,100,4|0
452,128,99319,2,0,B|424:76|360:88,1,100,8|0
272,112,99683,5,0
208,196,99865,1,0
144,52,100047,1,8
80,196,100228,1,0
184,344,100410,5,0
184,344,100501,1,0
184,344,100592,2,0,B|292:324,1,100,0|8
308,320,100865,1,0
332,316,100956,1,0
356,312,101047,1,0
380,308,101137,2,0,B|410:302,4,25,2|0|0|0|0
432,168,101501,5,10
184,344,101683,2,0,B|132:336|116:280,1,100
256,192,102047,1,0
328,40,102228,2,0,B|380:48|396:104,1,100,10|0
224,84,102592,6,0,B|172:92|156:148,1,100
288,300,102956,2,0,B|340:292|356:236,1,100,10|0
204,340,103319,1,2
180,332,103410,1,0
156,324,103501,1,0
132,316,103592,1,0
108,308,103683,1,2
84,300,103774,1,0
60,292,103865,1,0
36,284,103956,1,0
12,276,104047,6,0,B|-16:264,7,25,2|0|0|2|0|0|0|0
32,260,104410,2,0,B|44:144|124:88,1,200,2|4
220,236,104956,5,0
220,236,105047,1,0
220,236,105137,1,8
348,312,105319,1,0
348,312,105410,1,0
348,312,105501,1,8
452,116,105683,1,0
452,116,105774,1,0
452,116,105865,2,0,B|428:220,1,100,8|0
316,84,106228,2,0,B|352:176,1,100,0|0
284,280,106592,6,0,B|304:224,1,50,10|0
432,316,106956,1,10
452,116,107137,2,0,B|432:172,1,50,10|0
68,296,107501,6,0,B|88:340,1,50,0|12
112,152,107774,2,0,B|92:108,1,50,0|8
220,184,108047,5,8
356,244,108228,1,0
220,184,108410,1,8
356,244,108592,1,0
236,328,108774,1,8
236,328,108865,1,8
236,328,108956,1,8
236,328,109047,1,4
104,132,109501,6,0,B|156:124|188:72,1,100,6|0
408,252,109865,2,0,B|356:260|324:312,1,100,6|0
168,260,110228,5,6
280,60,110410,1,0
104,132,110592,5,4
104,132,110683,1,0
104,132,110774,2,0,B|52:220,2,100,8|0|8
224,328,111319,1,0
224,328,111410,1,0
224,328,111501,2,0,B|152:240,1,100,8|0
280,152,111865,2,0,B|166:140,1,100,8|0
52,68,112228,5,2
104,256,112410,1,10
188,200,112592,5,0
188,200,112683,1,0
188,200,112774,1,10
280,288,112956,1,10
399,320,113137,1,0
424,316,113228,1,0
448,304,113319,1,0
468,288,113410,1,12
476,264,113501,6,0,B|484:200|432:176,1,100,0|8
388,92,113865,2,0,B|336:120|340:180,1,100,8|0
240,160,114228,2,0,B|223:216|268:256,1,100,8|0
336,320,114592,2,0,B|392:320,2,50,8|8|8
336,320,114865,1,4
104,296,115319,5,2
148,152,115501,1,2
444,104,115865,1,2
256,192,116410,5,4
328,80,124956,6,0,B|319:83|319:83|320:94|320:94|309:95|309:95|310:107|310:107|299:108|299:108|300:119|300:119|288:120|288:120|289:131|289:131|278:132|278:132|279:143|279:143|268:144|268:144|269:156|269:156|258:157|258:157|259:168|259:168|247:169|247:169|248:180|248:180|237:181|237:181|238:192|238:192|227:193|227:193|228:205|228:205|216:206|216:206|217:217|217:217|206:218|206:218|207:229|207:229|196:230|196:230|199:238|199:238|189:245|189:245,1,300,4|0
132,324,125683,5,2
380,324,126047,1,2
448,136,126410,5,2
80,268,126774,1,2
268,340,127137,5,2
312,248,127319,2,0,B|332:204,2,50,2|2|2
204,80,127865,1,4
419,208,128228,5,0
372,120,128410,1,8
372,120,128592,1,0
372,120,128774,1,0
204,80,128956,1,2
204,80,129047,1,0
204,80,129137,1,8
188,320,129319,5,0
188,320,129410,1,0
188,320,129501,2,0,B|116:248,1,100
84,156,129865,1,8
84,156,130047,1,0
116,60,130228,1,0
116,60,130410,1,0
192,128,130592,6,0,B|252:120|256:56,1,100,8|0
336,144,130956,2,0,B|276:152|272:216,1,100
276,308,131319,5,8
276,308,131410,1,0
276,308,131501,2,0,B|356:240,1,100
460,190,131865,1,2
460,191,131956,1,0
460,191,132047,2,0,B|426:290,1,100,8|0
204,356,132410,6,0,B|172:308|204:260,1,100
272,192,132774,1,8
352,244,132956,1,0
184,180,133137,5,0
320,116,133319,1,0
184,180,133501,1,8
260,52,133683,1,0
344,36,133865,6,0,B|404:56|404:112,1,100
484,268,134228,2,0,B|424:248|424:192,1,100,8|0
320,200,134592,1,0
244,285,134774,2,0,B|304:305|304:361,1,100,2|8
56,252,135137,5,4
100,160,135319,1,0
188,112,135501,2,0,B|228:72|280:88,1,100,0|10
340,284,135865,1,0
160,240,136047,1,2
244,285,136228,5,0
100,160,136410,1,10
244,285,136592,1,4
256,192,136774,12,0,138592
384,80,138956,5,0
128,304,139319,1,0
112,52,139683,6,0,B|80:152,1,100,4|0
180,128,140047,2,0,B|200:240,1,100,8|0
232,320,140410,1,0
256,320,140501,1,0
280,320,140592,1,0
304,320,140683,1,0
328,320,140774,2,0,B|440:320,1,100,8|0
176,212,141137,6,0,B|120:216|100:160,1,100
188,44,141501,2,0,B|244:40|264:96,1,100,8|0
348,36,141865,1,0
416,108,142047,1,0
344,180,142228,6,0,B|380:228|436:208,2,100,8|0|0
272,112,142774,1,0
240,208,142956,2,0,B|212:304,2,100,8|0|0
240,208,143501,1,0
176,132,143683,2,0,B|120:120|116:60,1,100,10|2
200,48,144047,5,0
68,164,144228,1,2
200,48,144410,1,8
68,164,144592,1,2
152,220,144774,2,0,B|152:280|216:292,1,100,0|2
360,164,145137,2,0,B|360:104|296:92,1,100,10|0
101,37,145501,6,0,B|200:48,1,100,4|0
276,176,145865,1,8
276,176,145956,1,0
276,176,146047,1,0
236,268,146228,1,0
164,200,146410,1,0
164,200,146501,1,0
164,200,146592,1,8
76,248,146774,1,0
148,320,146956,6,0,B|188:352|248:344,1,100
364,220,147319,2,0,B|329:262|278:266,1,100,8|0
364,220,147683,1,0
364,120,147865,1,0
348,100,147956,1,0
326,87,148047,1,8
301,88,148137,1,0
277,95,148228,6,0,B|220:96|192:48,1,100,4|0
148,140,148592,2,0,B|204:139|231:184,1,100,0|8
152,244,148956,1,0
244,288,149137,5,0
268,292,149228,1,0
292,300,149319,1,0
316,308,149410,1,0
340,316,149501,6,0,B|388:296,1,50,0|4
80,172,150228,5,0
80,172,150410,1,0
304,128,150592,1,0
304,128,150774,1,0
284,44,150956,2,0,B|228:52|212:112,1,100
316,212,151319,2,0,B|372:204|388:144,1,100,4|0
168,164,151683,5,8
168,164,151774,1,0
168,164,151865,2,0,B|172:224|116:252,1,100
88,340,152228,1,0
72,320,152319,1,0
56,300,152410,1,8
40,280,152501,1,0
24,260,152592,2,0,B|8:160,1,100
128,36,152956,6,0,B|84:128,1,100,0|8
108,224,153319,1,0
204,256,153501,1,0
292,212,153683,1,0
308,112,153865,2,0,B|368:112|384:168,2,100,8|0|0
228,52,154410,5,0
156,124,154592,1,8
228,52,154774,1,0
156,124,154956,1,0
132,308,155137,5,0
132,308,155228,1,0
132,308,155319,2,0,B|164:356|224:344,1,100,10|2
268,224,155683,2,0,B|236:176|176:188,1,100,0|2
96,196,156047,5,8
144,40,156228,1,2
96,196,156410,1,0
244,124,156592,1,2
212,280,156774,2,0,B|248:320|304:296,1,100,10|0
400,72,157137,6,0,B|440:172,2,100,4|0|8
304,40,157683,1,0
204,52,157865,1,0
128,116,158047,2,0,B|216:196,1,100,0|8
128,116,158410,1,0
172,303,158592,6,0,B|128:336|80:304,1,100,4|0
128,212,158956,1,8
212,156,159137,1,0
312,144,159319,1,0
404,184,159501,1,0
404,184,159592,1,0
404,184,159683,2,0,B|388:80,1,100,8|6
108,200,160410,6,0,B|124:304,1,100,8|6
64,60,160956,1,2
304,240,161319,1,6
404,184,161501,5,0
420,72,161683,1,0
420,72,161865,1,0
420,72,162047,1,0
320,72,162229,2,0,B|272:72,2,50,2|0|0
312,172,162592,1,2
312,172,162683,1,0
312,172,162774,1,0
106,289,162956,6,0,B|134:334|188:340,1,100,4|0
241,254,163319,2,0,B|213:209|160:204,1,100,8|0
40,112,163683,1,0
40,112,163774,1,0
40,112,163865,2,0,B|78:214,1,100,0|8
148,136,164229,2,0,B|252:148,1,100
341,247,164592,2,0,B|238:255,1,100,0|8
444,220,164956,5,0
450,245,165047,1,0
444,268,165138,2,0,B|432:296,4,25,2|0|0|0|0
368,136,165502,1,10
312,56,165683,6,0,B|264:84|264:144,1,100
200,328,166047,2,0,B|248:300|248:240,1,100,0|10
368,136,166410,5,0
368,136,166592,1,0
160,252,166774,1,0
160,252,166956,1,10
60,56,167138,5,0
92,152,167320,1,0
192,156,167502,1,10
216,158,167592,1,8
238,168,167683,1,10
257,184,167774,1,8
269,204,167865,1,0
276,228,167956,1,2
277,252,168047,1,8
269,275,168138,1,0
257,297,168229,1,10
164,336,168410,6,0,B|136:340,4,25,2|0|0|0|0
356,340,168774,6,0,B|413:343|441:299,1,100,4|0
384,244,169137,2,0,B|424:202|408:152,1,100,8|0
328,108,169501,1,0
176,148,169683,1,0
328,108,169865,1,8
176,148,170047,1,0
120,68,170229,6,0,B|68:92|72:156,1,100,0|0
224,228,170592,2,0,B|276:204|272:140,1,100,8|0
216,76,170956,1,0
216,76,171047,1,0
216,76,171137,1,2
128,224,171320,1,10
168,296,171502,6,0,B|136:340|80:336,1,100,0|0
268,328,171865,1,0
428,268,172047,1,10
268,328,172229,1,0
368,124,172411,6,0,B|421:118|456:162,1,100
288,180,172774,1,10
128,224,172956,1,0
56,64,173138,6,0,B|156:64,1,100
180,64,173411,1,0
204,64,173501,1,10
304,64,173683,1,0
304,64,173774,1,0
304,64,173865,1,0
304,64,173956,1,0
304,64,174047,1,2
404,232,174228,5,2
455,58,174411,1,2
404,232,174592,1,4
392,312,174774,6,0,B|448:320|476:272,1,100,0|8
416,148,175138,2,0,B|360:140|332:188,1,100
292,280,175501,1,0
200,320,175683,1,8
124,256,175865,1,0
44,88,176047,5,0
44,88,176138,1,0
44,88,176229,2,0,B|97:188,1,100,0|8
192,184,176592,1,0
192,184,176683,1,0
192,184,176774,2,0,B|232:177,4,25,2|0|0|0|0
124,256,177138,1,10
144,80,177320,5,0
244,88,177502,1,0
296,172,177683,2,0,B|350:158|359:97,1,100,0|10
248,260,178047,1,0
244,88,178228,5,0
144,80,178411,1,0
68,144,178592,1,10
148,300,178774,2,0,B|90:296|78:240,1,100
178,201,179137,2,0,B|236:205|248:261,1,100,0|10
224,344,179502,5,0
384,344,179683,1,0
224,344,179865,1,2
440,168,180047,5,2
440,168,180138,1,0
440,168,180229,1,0
440,168,180320,1,0
440,168,180411,2,0,B|412:116|348:128,1,100,4|0
248,236,180774,2,0,B|276:288|340:276,1,100,8|0
328,192,181138,5,0
212,160,181320,1,0
168,272,181502,1,8
260,348,181683,1,0
404,324,181865,5,0
404,324,181956,1,0
404,324,182047,2,0,B|349:228,1,100,0|8
340,214,182320,1,0
329,193,182411,1,0
317,171,182502,1,0
306,150,182592,2,0,B|290:123,4,25,2|0|0|0|0
140,128,182956,5,10
328,40,183138,2,0,B|380:48|396:104,1,100
256,256,183501,2,0,B|204:248|188:192,1,100,0|10
256,256,183865,1,0
268,336,184047,6,0,B|320:328|336:272,1,100
432,80,184411,2,0,B|380:88|364:144,1,100,10|0
236,176,184774,1,2
211,170,184865,1,0
189,157,184956,1,0
173,135,185047,1,0
167,110,185138,1,2
170,85,185229,1,0
177,61,185320,1,0
194,43,185411,1,0
220,36,185502,6,0,B|249:28,7,25,2|0|0|0|2|0|0|0
232,56,185865,2,0,B|300:136|416:104,1,200,2|4
256,192,186410,12,0,189137
