osu file format v9

[General]
AudioFilename: Hirata Shihoko, Kawamura Yumi - .mp3
AudioLeadIn: 3000
PreviewTime: 49011
Countdown: 0
SampleSet: Normal
StackLeniency: 0.7
Mode: 0
LetterboxInBreaks: 1

[Editor]
Bookmarks: 75994
DistanceSpacing: 1.1
BeatDivisor: 4
GridSize: 4

[Metadata]
Title:key plus words (TV Size)
Artist:Shihoko Hirata feat. Yumi Kawamura
Creator:Louis Cyphre
Version:Insane
Source:Persona 4 the Animation
Tags:shin megami tensei smt aic asta shoji meguro chie satonaka yukiko amagi kanji tatsumi naoto shirogane yosuke hanamura rise kujikawa teddie velvet room igor margaret atlus perusona katsuro hashino souji seta kakihara yuuko kishi seiji KanaRin

[Difficulty]
HPDrainRate:6
CircleSize:4
OverallDifficulty:7
ApproachRate:8
SliderMultiplier:1.7
SliderTickRate:2

[Events]
//Background and Video events
0,0,"bgomg.png"
Video,-691,"Persona 4 The Animation Key Plus Words (Opening Theme Song 2).flv"
//Break Periods
//Storyboard Layer 0 (Background)
//Storyboard Layer 1 (Fail)
//Storyboard Layer 2 (Pass)
//Storyboard Layer 3 (Foreground)
//Storyboard Sound Samples
//Background Colour Transformations
3,100,163,162,255

[TimingPoints]
132,344.827586206897,4,1,1,60,1,0
132,-133.333333333333,4,1,1,70,0,0
10821,-133.333333333333,4,1,1,25,0,0
11166,-100,4,1,1,60,0,0
21856,-100,4,1,1,25,0,0
22200,-100,4,1,1,60,0,0
49442,-100,4,1,1,25,0,0
49787,-100,4,1,1,60,0,1
77373,-100,4,1,1,60,0,0
88063,-100,4,1,1,25,0,0
88407,-100,4,1,1,60,0,0

[Colours]
Combo1 : 0,0,128
Combo2 : 251,125,0
Combo3 : 64,0,64
Combo4 : 187,0,0
SliderBorder : 255,255,255

[HitObjects]
76,156,132,1,8
80,164,304,1,0
248,148,649,5,0
328,204,994,1,0
272,284,1338,1,0
192,228,1683,1,0
400,60,2890,5,0
452,124,3063,2,0,B|484:184|464:252,1,127.499996200204
432,320,3580,1,0
364,276,3752,2,0,B|304:256|240:284,1,127.499996200204
172,328,4269,2,0,B|148:268,1,63.749998100102
92,120,4787,1,0
92,120,5132,1,0
248,148,5476,5,0
300,88,5649,2,0,B|368:72,1,63.749998100102,8|8
432,216,6166,5,0
488,296,6511,1,0
408,352,6855,1,0
352,272,7200,1,0
64,304,8407,5,8
60,296,8580,1,0
68,136,8925,1,0
144,160,9097,2,0,B|176:172|192:200,1,63.749998100102
268,340,9614,1,0
328,288,9787,2,0,B|380:244,1,63.749998100102,0|4
404,88,10304,6,0,B|468:72,2,63.749998100102,0|8|0
324,72,10821,1,8
302,75,10907,1,8
280,82,10994,1,8
262,95,11080,1,8
247,111,11166,6,0,B|160:119,1,85,4|0
92,72,11511,1,8
80,156,11683,2,0,B|27:228|61:322,1,170
140,288,12200,1,8
216,328,12373,2,0,B|304:296|296:360|384:324,1,170
340,252,12890,1,8
388,88,13235,6,0,B|300:88,1,85
232,44,13580,2,0,B|184:116|84:108,1,170,8|0
44,32,14097,1,0
128,184,14269,6,0,B|52:232|56:332,1,170,8|0
140,352,14787,1,0
204,212,14959,6,0,B|288:188|376:212,1,170,8|8
456,200,15476,1,0
364,288,15649,1,0
464,116,15821,6,0,B|428:116|400:140|400:140|356:124|296:124,1,170,8|0
216,124,16338,2,0,B|168:124|136:156,1,85,8|0
24,344,16683,6,0,B|69:346|101:314,1,85,4|0
36,260,17028,1,8
116,236,17200,2,0,B|168:260|168:260|180:324|240:336,1,170
252,251,17718,1,8
262,166,17890,2,0,B|322:178|334:242|334:242|386:266,1,170
392,352,18407,6,0,B|376:256|460:208,1,170,8|0
472,124,18925,1,0
392,156,19097,2,0,B|348:148|328:104,1,85,8|0
120,56,19442,6,0,B|164:64|184:108,1,85,8|0
76,240,19959,1,0
152,280,20132,2,0,B|188:300|188:300|208:340,2,85,0|8|0
76,240,20649,5,0
148,196,20821,2,0,B|192:196|224:160,1,85
260,84,21166,1,8
308,160,21338,2,0,B|352:172|352:172|400:220|372:288,1,170
300,240,21856,1,8
292,248,21942,1,8
284,256,22028,1,8
276,264,22114,1,8
268,272,22200,6,0,B|192:324|108:276,1,170,4|8
28,224,22718,1,0
20,208,23063,1,0
108,44,23407,6,0,B|172:100|268:80,1,170,8|0
360,56,23925,1,8
324,140,24097,1,0
416,116,24269,2,0,B|440:204,1,85
380,348,24614,2,0,B|360:264,1,85,8|0
268,268,24959,5,0
200,208,25132,2,0,B|164:176|184:128,1,85,0|8
216,44,25476,1,0
44,136,25649,1,0
40,228,25821,2,0,B|32:320,2,85,0|8|0
44,136,26338,6,0,B|112:88,1,85,4|0
320,92,26683,2,0,B|248:140,1,85,8|0
144,320,27028,2,0,B|216:272,1,85,0|0
292,216,27373,1,8
296,308,27545,1,0
372,252,27718,6,0,B|448:204|452:108,1,170,0|8
368,68,28235,1,0
360,72,28580,1,0
176,36,28925,6,0,B|100:84|96:180,1,170,8|0
40,252,29442,1,8
132,268,29614,2,0,B|152:308|192:328,1,85
224,240,29959,1,0
312,212,30132,2,0,B|292:172|252:152,1,85,8|0
196,76,30476,6,0,B|280:56,1,85,4|0
352,116,30821,2,0,B|436:120|484:212,1,170,8|0
444,296,31338,1,0
252,284,31511,2,0,B|272:324|320:328,1,85,8|0
192,232,31856,2,0,B|172:192|124:188,1,85
32,180,32200,5,8
88,104,32373,2,0,B|180:112|248:56,1,170
474,72,32890,2,0,B|382:64|316:120,1,170,8|4
304,204,33407,6,0,B|288:292,1,85,0|8
212,244,33752,2,0,B|128:204|128:272|48:228,1,170
100,152,34269,2,0,B|96:60,1,85,8|0
180,108,34614,6,0,B|251:64|344:84,1,170,4|8
491,171,35132,2,0,B|420:215|328:196,1,170,0|0
236,220,35649,2,0,B|224:260|180:280,1,85,8|0
20,184,35994,6,0,B|32:144|76:124,1,85,4|0
108,212,36338,1,8
48,40,36511,5,0
136,292,36856,1,0
64,40,37200,1,0
152,292,37545,1,0
212,220,37718,1,8
304,200,37890,1,0
396,212,38063,6,0,B|424:176|420:132,1,85
236,140,38407,2,0,B|208:176|212:220,1,85,8|0
448,272,38752,2,0,B|500:204|496:112,1,170,0|8
180,80,39442,2,0,B|128:148|132:240,1,170,0|8
76,312,39959,1,0
428,352,40304,1,0
360,288,40476,1,8
424,112,40821,6,0,B|348:156|256:132,1,170,0|8
188,72,41338,2,0,B|108:104,1,85
16,84,41683,5,0
44,176,41856,2,0,B|4:268|60:336,1,170,8|0
152,316,42373,2,0,B|248:288,2,85,0|8|0
160,224,42890,5,0
252,200,43235,1,8
232,108,43580,1,0
140,132,43925,2,0,B|96:104|96:104|64:108|40:128|36:168|52:196,2,170,4|0|0
232,108,44959,1,0
240,96,45132,1,0
248,84,45304,2,0,B|336:68,1,85,8|0
440,220,45821,5,0
388,140,45994,1,0
308,192,46166,1,0
360,272,46338,2,0,B|351:316|351:316|375:368|435:360|455:333,2,170,4|8|0
440,220,47200,1,0
388,140,47373,6,0,B|328:64|236:88,1,170,12|0
172,156,47890,1,0
16,52,48235,1,0
16,52,48321,1,0
16,52,48407,2,0,B|40:140,1,85,8|0
44,320,48925,5,8
24,228,49097,1,0
116,208,49269,1,0
136,300,49442,1,8
144,304,49528,1,8
152,308,49614,1,8
160,312,49701,1,8
168,316,49787,6,0,B|252:336|336:316,2,170,4|8|0
204,228,50649,2,0,B|240:148,1,85,0|8
164,96,50994,2,0,B|220:168|316:152,1,170
466,300,51511,2,0,B|410:228|316:244,1,170,8|0
272,328,52028,2,0,B|172:312,1,85
40,184,52373,2,0,B|124:208,1,85,0|4
252,76,52890,1,8
440,88,53235,6,0,B|472:168|460:256,1,170,0|8
324,128,53925,2,0,B|328:216|284:296,1,170,0|8
204,124,54614,2,0,B|160:200|72:224,2,170,0|8|4
152,304,55649,2,0,B|320:320,1,170,8|0
376,140,56338,6,0,B|428:212|400:304,1,170,8|4
216,264,57028,2,0,B|164:192|192:100,1,170,8|0
268,156,57545,1,0
272,64,57718,2,0,B|200:120|112:116,2,170,8|4|8
348,116,58580,1,0
420,60,58752,2,0,B|456:124|416:180|416:180|428:224,1,170,0|8
272,328,59442,5,0
180,304,59614,1,0
92,276,59787,2,0,B|68:236|84:196,1,85,8|0
240,92,60132,2,0,B|264:132|248:172,1,85
76,284,60476,2,0,B|52:244|68:204,1,85,8|0
296,40,60821,6,0,B|344:121|312:202,2,170,4|8|0
216,88,61683,2,0,B|128:100,1,85,0|8
40,72,62028,2,0,B|20:136|40:192|88:224,1,170
264,356,62545,2,0,B|283:292|263:236|217:205,1,170,8|4
192,296,63063,1,0
112,128,63407,1,0
164,52,63580,2,0,B|240:96|328:76,1,170,4|8
448,220,64269,6,0,B|364:264|364:360,1,170,0|8
64,220,64959,2,0,B|148:264|147:357,1,170,0|8
336,56,65649,2,0,B|256:108|176:56,1,170,0|8
344,140,66338,6,0,B|276:188,1,85,4|0
112,244,66683,2,0,B|181:194,1,85,8|0
360,232,67028,2,0,B|288:284,2,85,0|0|8
432,172,67545,1,0
256,104,67890,1,0
252,100,68063,1,8
91,177,68407,5,0
141,79,68580,1,0
250,96,68752,1,8
268,204,68925,1,0
170,255,69097,2,0,B|160:304|160:304|132:336|80:336|56:296,1,170,4|8
36,112,69787,6,0,B|72:68|144:60|192:88,1,170,0|8
464,104,70476,2,0,B|428:148|356:156|308:128,1,170,0|8
248,356,71166,2,0,B|204:320|196:248|224:200,1,170,0|8
72,308,71856,6,0,B|68:224|88:140,2,170,4|8|0
160,280,72718,1,0
212,204,72890,1,8
300,168,73063,2,0,B|304:252|284:336,1,170
228,120,73580,2,0,B|300:168|392:144,1,170,8|0
392,52,74097,5,0
468,92,74269,2,0,B|476:184,1,85
304,352,74614,2,0,B|304:256|392:216,1,170,12|0
192,232,75132,2,0,B|240:148|336:158,1,170,12|0
184,120,75649,6,0,B|216:92|264:84,1,85,12|0
484,132,75994,2,0,B|452:160|404:168,1,85,4|0
128,68,76338,2,0,B|184:120|196:220,1,170,12|8
476,320,76856,2,0,B|420:268|408:168,1,170,4|0
408,156,77287,2,0,B|412:100,1,42.5
272,200,77545,1,8
464,48,77890,5,0
192,176,78235,1,0
476,56,78580,1,0
200,184,78925,2,0,B|216:228|200:272,1,85
24,332,79442,1,0
28,320,79614,1,0
32,308,79787,1,0
36,296,79959,1,0
24,204,80132,6,0,B|28:156|68:132,1,85,4|0
120,212,80476,1,8
120,212,80649,1,0
216,204,80821,2,0,B|215:160|175:132,1,85,4|0
120,212,81166,1,8
124,204,81339,1,0
78,287,81511,2,0,B|116:308|160:288,1,85,4|0
176,132,81856,1,8
24,204,82028,1,0
232,64,82373,5,0
248,72,82545,1,8
264,80,82718,1,0
280,88,82890,6,0,B|336:176,1,85,4|0
416,176,83235,1,8
352,244,83407,2,0,B|328:292|328:292|260:296|228:348,1,170
144,312,83925,1,8
56,280,84097,2,0,B|32:196|68:112,1,170
140,56,84614,1,8
324,84,84959,1,0
448,64,85132,5,0
464,188,85304,1,8
340,204,85476,1,0
324,84,85649,1,12
320,80,85821,1,0
152,160,86166,5,0
144,176,86338,1,0
136,192,86511,1,0
20,336,86856,1,0
104,296,87028,2,0,B|204:296|160:348|260:348,1,170
248,256,87545,2,0,B|292:184|392:180,1,170
432,96,88063,2,8,B|384:80,4,42.5,8|8|8|8|0
