osu file format v9

[General]
AudioFilename: Hirata Shihoko, Kawamura Yumi - .mp3
AudioLeadIn: 3000
PreviewTime: 49011
Countdown: 0
SampleSet: Normal
StackLeniency: 0.7
Mode: 0
LetterboxInBreaks: 1

[Editor]
DistanceSpacing: 1
BeatDivisor: 4
GridSize: 4

[Metadata]
Title:key plus words (TV Size)
Artist:Shihoko Hirata feat. Yumi Kawamura
Creator:Louis Cyphre
Version:Easy
Source:Persona 4 the Animation
Tags:shin megami tensei smt aic asta shoji meguro chie satonaka yukiko amagi kanji tatsumi naoto shirogane yosuke hanamura rise kujikawa teddie velvet room igor margaret atlus perusona katsuro hashino souji seta kakihara yuuko kishi seiji KanaRin

[Difficulty]
HPDrainRate:2
CircleSize:3
OverallDifficulty:2
ApproachRate:3
SliderMultiplier:0.85
SliderTickRate:1

[Events]
//Background and Video events
0,0,"bgomg.png"
Video,-691,"Persona 4 The Animation Key Plus Words (Opening Theme Song 2).flv"
//Break Periods
//Storyboard Layer 0 (Background)
//Storyboard Layer 1 (Fail)
//Storyboard Layer 2 (Pass)
//Storyboard Layer 3 (Foreground)
//Storyboard Sound Samples
//Background Colour Transformations
3,100,163,162,255

[TimingPoints]
132,344.827586206897,4,1,1,60,1,0
11425,-100,4,1,2,60,0,0
11597,-100,4,1,1,60,0,0
14183,-100,4,1,2,60,0,0
14356,-100,4,1,1,60,0,0
14873,-100,4,1,2,60,0,0
15045,-100,4,1,1,60,0,0
16942,-100,4,1,2,60,0,0
17114,-100,4,1,1,60,0,0
17632,-100,4,1,2,60,0,0
17804,-100,4,1,1,60,0,0
19011,-100,4,1,2,60,0,0
19183,-100,4,1,1,60,0,0
21080,-100,4,1,2,60,0,0
21252,-100,4,1,1,60,0,0
22459,-100,4,1,2,60,0,0
22632,-100,4,1,1,60,0,0
23149,-100,4,1,2,60,0,0
23321,-100,4,1,1,60,0,0
23838,-100,4,1,2,60,0,0
24011,-100,4,1,1,60,0,0
25218,-100,4,1,2,60,0,0
25390,-100,4,1,1,60,0,0
25907,-100,4,1,2,60,0,0
26080,-100,4,1,1,60,0,0
27976,-100,4,1,2,60,0,0
28149,-100,4,1,1,60,0,0
28666,-100,4,1,2,60,0,0
28838,-100,4,1,1,60,0,0
30045,-100,4,1,2,60,0,0
30218,-100,4,1,1,60,0,0
31425,-100,4,1,2,60,0,0
31597,-100,4,1,1,60,0,0
33494,-100,4,1,2,60,0,0
33666,-100,4,1,1,60,0,0
34873,-100,4,1,2,60,0,0
35045,-100,4,1,1,60,0,0
36252,-100,4,1,2,60,0,0
36425,-100,4,1,1,60,0,0
36942,-100,4,1,2,60,0,0
37114,-100,4,1,1,60,0,0
37632,-100,4,1,2,60,0,0
37804,-100,4,1,1,60,0,0
39700,-100,4,1,2,60,0,0
39873,-100,4,1,1,60,0,0
49787,-100,4,1,1,60,0,1
53494,-100,4,1,2,60,0,1
53666,-100,4,1,1,60,0,1
54183,-100,4,1,2,60,0,1
54356,-100,4,1,1,60,0,1
55563,-100,4,1,2,60,0,1
55735,-100,4,1,1,60,0,1
56942,-100,4,1,2,60,0,1
57114,-100,4,1,1,60,0,1
58321,-100,4,1,2,60,0,1
58494,-100,4,1,1,60,0,1
60390,-100,4,1,2,60,0,1
60563,-100,4,1,1,60,0,1
61769,-100,4,1,2,60,0,1
61942,-100,4,1,1,60,0,1
62459,-100,4,1,2,60,0,1
62632,-100,4,1,1,60,0,1
64528,-100,4,1,2,60,0,1
64700,-100,4,1,1,60,0,1
65218,-100,4,1,2,60,0,1
65390,-100,4,1,1,60,0,1
66597,-100,4,1,2,60,0,1
66769,-100,4,1,1,60,0,1
67287,-100,4,1,2,60,0,1
67459,-100,4,1,1,60,0,1
68666,-100,4,1,2,60,0,1
68838,-100,4,1,1,60,0,1
70045,-100,4,1,2,60,0,1
70218,-100,4,1,1,60,0,1
71425,-100,4,1,2,60,0,1
71597,-100,4,1,1,60,0,1
72804,-100,4,1,2,60,0,1
72976,-100,4,1,1,60,0,1
74183,-100,4,1,2,60,0,1
74356,-100,4,1,1,60,0,1
74873,-100,4,1,2,60,0,1
75045,-100,4,1,1,60,0,1
76252,-100,4,1,2,60,0,1
76425,-100,4,1,1,60,0,1
76942,-100,4,1,2,60,0,1
77114,-100,4,1,1,60,0,1
77373,-100,4,1,1,60,0,0
83149,-100,4,1,2,60,0,0
83321,-100,4,1,1,60,0,0
83838,-100,4,1,2,60,0,0
84011,-100,4,1,1,60,0,0
84528,-100,4,1,2,60,0,0
84700,-100,4,1,1,60,0,0
87890,-100,4,1,1,100,0,0
88063,-100,4,1,1,25,0,0
88407,-100,4,1,1,60,0,0

[Colours]
Combo1 : 0,0,128
Combo2 : 251,125,0
Combo3 : 64,0,64
Combo4 : 187,0,0
SliderBorder : 255,255,255

[HitObjects]
440,192,132,2,0,B|400:232|256:232|256:152|112:152|72:192,1,382.5,12|0
340,64,2890,6,0,B|172:64,3,170
72,204,5649,6,0,B|112:244|256:244|256:164|400:164|440:204,1,382.5,12|0
172,336,8407,6,0,B|340:336,3,170,0|0|0|8
400,176,11166,6,0,B|400:128|400:128|400:92|444:64,2,127.5,0|0|8
256,268,12890,1,8
112,176,13580,1,8
64,104,13925,6,0,B|100:84|156:80|188:120|196:160,2,170
112,176,15649,1,8
256,264,16338,1,8
204,332,16683,6,0,B|240:352|296:356|328:316|336:276,2,170
252,260,18407,1,8
300,188,18752,6,0,B|264:168|208:164|176:204|168:244,1,170,0|4
96,92,20132,1,0
256,40,20821,2,0,B|316:40|316:40|376:80,2,127.5,0|0|8
284,120,22200,6,0,B|232:164|244:224|272:256|272:256|244:328|152:320,2,297.5,0|0|8
332,192,24959,2,0,B|424:192|472:272,2,170
328,276,26683,2,0,B|336:192|328:104,1,170,8|8
244,100,27718,6,0,B|218:68|170:37|119:71|96:100,2,170
170,145,29442,1,8
96,190,29787,2,0,B|121:221|169:252|220:218|243:190,1,170
312,144,30821,5,8
316,228,31166,2,0,B|344:312|444:328,1,170
452,244,32200,2,0,B|488:172|468:76,1,170,8|8
384,72,33235,2,0,B|212:76,1,170,4|0
128,76,34269,1,8
172,148,34614,6,0,B|228:216|204:308,1,170
124,276,35649,1,8
144,360,35994,6,0,B|208:304|304:320,3,170
380,284,38407,1,8
436,220,38752,2,0,B|460:136,1,85,0|8
376,116,39442,6,0,B|340:152|256:152|256:92|168:92|132:128,1,255,0|8
192,188,40821,2,0,B|192:284,2,85,0|8|0
272,220,41856,2,0,B|272:304,2,85,8|0|8
356,240,42890,2,0,B|356:336,2,85,0|8|0
440,260,43925,2,0,B|440:352,2,85,8|4|8
256,192,44787,12,12,47373
256,192,48407,6,0,B|256:124|312:80,2,127.5,8|8|0
192,248,49787,6,0,B|152:248|108:264,2,85,4|8|0
276,264,50821,1,8
360,280,51166,2,0,B|400:280|444:264,2,85,0|8|0
328,200,52200,1,8
244,184,52545,2,0,B|252:140|296:120,1,85,0|8
244,52,53235,6,0,B|176:104|68:100,2,170
312,100,54959,1,8
392,72,55304,2,0,B|404:140|352:172|352:172|340:240,1,170,4|0
412,276,56338,2,0,B|344:224|252:232|252:312|168:320|92:264,1,340,8|8
156,208,58063,6,0,B|108:176|100:104|152:60,1,170
200,132,59097,2,0,B|372:144,1,170,8|8
420,72,60132,2,0,B|470:114|462:186|414:218,1,170,0|4
416,304,61166,5,8
340,264,61511,2,0,B|256:252|164:280,2,170
324,180,63235,2,0,B|236:152,1,85,8|4
192,88,63925,1,8
112,120,64269,6,0,B|48:144|36:208|64:260,2,170
136,204,65994,1,8
156,288,66338,6,0,B|220:264|232:200|204:148,2,170,4|0|0
72,304,68063,1,8
60,220,68407,2,0,B|36:52,1,170
120,56,69442,1,8
192,104,69787,6,0,B|276:96|276:96|288:140|332:156,1,170
356,76,70821,1,8
412,140,71166,2,0,B|416:184|416:184|392:248|316:240,1,170,0|4
236,204,72200,1,8
160,164,72545,6,0,B|83:155|59:219|59:219|63:263,1,170
148,248,73580,1,8
172,328,73925,2,0,B|256:352|340:328,2,170
148,248,75649,1,8
232,252,75994,2,0,B|319:245|389:194,2,170,0|0|4
256,192,77545,12,4,80132
256,80,80821,5,0
128,192,81511,2,0,B|84:268,2,85,0|8|0
252,308,82890,6,0,B|340:276|332:332|420:300,3,170,4|0|0|0
376,224,85304,1,8
420,152,85649,5,4
256,104,86338,1,0
92,152,87028,2,0,B|56:184|60:232|68:272|124:292,2,170
