osu file format v14

[General]
AudioFilename: Dance.mp3
AudioLeadIn: 0
PreviewTime: -1
Countdown: 1
SampleSet: Normal
StackLeniency: 0.7
Mode: 0
LetterboxInBreaks: 1
WidescreenStoryboard: 0

[Editor]
DistanceSpacing: 0.95
BeatDivisor: 4
GridSize: 32
TimelineZoom: 0.1

[Metadata]
Title:Dance!
TitleUnicode:Dance!
Artist:Shihoko Hirata and Lotus Juice
ArtistUnicode:Shihoko Hirata and Lotus Juice
Creator:TheMagicmastere
Version:Easy
Source:
Tags:Persona 4 Dancing All Night; JPOP
BeatmapID:635417
BeatmapSetID:280809

[Difficulty]
HPDrainRate:5
CircleSize:5
OverallDifficulty:5
ApproachRate:5
SliderMultiplier:2.59999990463257
SliderTickRate:2

[Events]
//Background and Video events
//Break Periods
//Storyboard Layer 0 (Background)
//Storyboard Layer 1 (Fail)
//Storyboard Layer 2 (Pass)
//Storyboard Layer 3 (Foreground)
//Storyboard Sound Samples

[TimingPoints]
422.317899532728,200.803212851406,4,1,0,100,1,0

[HitObjects]
88,252,20,6,0,B|120:100|120:112|312:120|312:220|260:312|96:272|64:248|116:264|408:292|452:396|312:64|64:24|292:28|356:64|392:112|348:140|-168:156|-168:156|120:324|260:356|488:128|376:32|496:16|488:356|488:296|488:0|0:80|-176:168|-168:176|-164:168|-164:168,23,2274.9999165535
100,100,43042,1,0,0:0:0:0:
100,100,43243,1,0,0:0:0:0:
328,196,43695,1,0,0:0:0:0:
244,224,44046,1,0,0:0:0:0:
216,248,44599,1,0,0:0:0:0:
216,124,45101,1,0,0:0:0:0:
216,124,45402,1,0,0:0:0:0:
328,104,45703,1,0,0:0:0:0:
316,164,45954,1,0,0:0:0:0:
256,172,46255,1,0,0:0:0:0:
160,172,46556,1,0,0:0:0:0:
236,240,47460,1,0,0:0:0:0:
320,296,47761,1,0,0:0:0:0:
344,296,47962,1,0,0:0:0:0:
352,212,48464,1,0,0:0:0:0:
352,184,48665,1,0,0:0:0:0:
184,64,49267,1,0,0:0:0:0:
184,64,49418,1,0,0:0:0:0:
180,164,49819,1,0,0:0:0:0:
180,164,50020,1,0,0:0:0:0:
180,164,50221,1,0,0:0:0:0:
180,164,50472,1,0,0:0:0:0:
180,164,50773,1,0,0:0:0:0:
268,232,51125,1,0,0:0:0:0:
268,232,51325,1,0,0:0:0:0:
312,212,51576,1,0,0:0:0:0:
292,168,51827,1,0,0:0:0:0:
264,140,52028,1,0,0:0:0:0:
128,200,52329,1,0,0:0:0:0:
184,284,52631,1,0,0:0:0:0:
508,332,52882,1,0,0:0:0:0:
176,284,53183,1,0,0:0:0:0:
200,288,53233,1,0,0:0:0:0:
460,148,53484,1,0,0:0:0:0:
132,240,53785,1,0,0:0:0:0:
360,88,54036,1,0,0:0:0:0:
124,228,54287,1,0,0:0:0:0:
140,132,54588,1,0,0:0:0:0:
140,132,54839,1,0,0:0:0:0:
484,320,55191,1,0,0:0:0:0:
288,256,55341,1,0,0:0:0:0:
68,148,55542,1,0,0:0:0:0:
336,248,55793,1,0,0:0:0:0:
152,92,55994,1,0,0:0:0:0:
248,112,56496,1,0,0:0:0:0:
248,136,56747,1,0,0:0:0:0:
216,216,56998,1,0,0:0:0:0:
172,200,57199,1,0,0:0:0:0:
328,152,57500,1,0,0:0:0:0:
328,152,57751,1,0,0:0:0:0:
216,176,58253,1,0,0:0:0:0:
204,88,58504,1,0,0:0:0:0:
252,88,58805,1,0,0:0:0:0:
496,108,59006,1,0,0:0:0:0:
180,184,59257,1,0,0:0:0:0:
216,176,59508,1,0,0:0:0:0:
152,200,59809,1,0,0:0:0:0:
264,256,60311,1,0,0:0:0:0:
264,256,60562,1,0,0:0:0:0:
356,168,61115,1,0,0:0:0:0:
356,168,61416,1,0,0:0:0:0:
356,168,61617,1,0,0:0:0:0:
0,112,61918,1,0,0:0:0:0:
152,136,62068,1,0,0:0:0:0:
404,176,62269,1,0,0:0:0:0:
172,140,62470,1,0,0:0:0:0:
364,188,62621,1,0,0:0:0:0:
136,260,62821,1,0,0:0:0:0:
328,204,62972,1,0,0:0:0:0:
128,240,63123,1,0,0:0:0:0:
328,176,63323,1,0,0:0:0:0:
92,80,63524,1,0,0:0:0:0:
312,204,63725,1,0,0:0:0:0:
72,192,63926,1,0,0:0:0:0:
276,88,64127,1,0,0:0:0:0:
104,176,64277,1,0,0:0:0:0:
36,96,64528,1,0,0:0:0:0:
276,136,64729,1,0,0:0:0:0:
24,120,64930,1,0,0:0:0:0:
256,208,65131,1,0,0:0:0:0:
492,228,65331,1,0,0:0:0:0:
284,212,65532,1,0,0:0:0:0:
116,108,65733,1,0,0:0:0:0:
316,144,65884,1,0,0:0:0:0:
120,308,66084,1,0,0:0:0:0:
172,28,66335,1,0,0:0:0:0:
144,236,66536,1,0,0:0:0:0:
328,100,66737,1,0,0:0:0:0:
172,252,66938,1,0,0:0:0:0:
100,28,67139,1,0,0:0:0:0:
296,148,67339,1,0,0:0:0:0:
44,84,67540,1,0,0:0:0:0:
296,196,67791,1,0,0:0:0:0:
100,204,67942,1,0,0:0:0:0:
368,212,68143,1,0,0:0:0:0:
144,72,68344,1,0,0:0:0:0:
364,204,68544,1,0,0:0:0:0:
96,116,68795,1,0,0:0:0:0:
292,200,68996,1,0,0:0:0:0:
272,176,69247,1,0,0:0:0:0:
112,320,69448,1,0,0:0:0:0:
176,120,69649,1,0,0:0:0:0:
428,108,69850,1,0,0:0:0:0:
144,232,70101,1,0,0:0:0:0:
92,92,73012,1,0,0:0:0:0:
92,92,73213,1,0,0:0:0:0:
324,164,73414,1,0,0:0:0:0:
80,104,77631,1,0,0:0:0:0:
80,104,77831,1,0,0:0:0:0:
216,196,78283,1,0,0:0:0:0:
228,80,78986,1,0,0:0:0:0:
228,80,79337,1,0,0:0:0:0:
164,228,80392,1,0,0:0:0:0:
336,224,80944,1,0,0:0:0:0:
124,172,81546,1,0,0:0:0:0:
264,116,82199,1,0,0:0:0:0:
348,120,82751,1,0,0:0:0:0:
336,176,83253,1,0,0:0:0:0:
244,228,83906,1,0,0:0:0:0:
128,240,84558,1,0,0:0:0:0:
144,120,85111,1,0,0:0:0:0:
248,104,85663,1,0,0:0:0:0:
296,148,86014,1,0,0:0:0:0:
144,124,89378,1,0,0:0:0:0:
184,164,89729,1,0,0:0:0:0:
300,184,90733,1,0,0:0:0:0:
352,108,91235,1,0,0:0:0:0:
176,116,91737,1,0,0:0:0:0:
224,216,92239,1,0,0:0:0:0:
224,216,92691,1,0,0:0:0:0:
268,208,92942,1,0,0:0:0:0:
296,200,93193,1,0,0:0:0:0:
72,4,93444,1,0,0:0:0:0:
264,304,93745,1,0,0:0:0:0:
156,136,93896,1,0,0:0:0:0:
284,328,94097,1,0,0:0:0:0:
136,104,94348,1,0,0:0:0:0:
220,232,94498,1,0,0:0:0:0:
124,88,94649,1,0,0:0:0:0:
220,232,94799,1,0,0:0:0:0:
120,80,94950,1,0,0:0:0:0:
240,264,95151,1,0,0:0:0:0:
132,100,95301,1,0,0:0:0:0:
252,280,95502,1,0,0:0:0:0:
160,144,95653,1,0,0:0:0:0:
288,316,95854,1,0,0:0:0:0:
188,180,96004,1,0,0:0:0:0:
188,180,96155,1,0,0:0:0:0:
188,180,96356,1,0,0:0:0:0:
188,180,96858,1,0,0:0:0:0:
176,80,100271,1,0,0:0:0:0:
216,112,101125,1,0,0:0:0:0:
260,164,101727,1,0,0:0:0:0:
340,208,102430,1,0,0:0:0:0:
228,236,102932,1,0,0:0:0:0:
120,156,103635,1,0,0:0:0:0:
228,128,104086,1,0,0:0:0:0:
272,140,104438,1,0,0:0:0:0:
256,188,105141,1,0,0:0:0:0:
152,200,105542,1,0,0:0:0:0:
124,136,105994,1,0,0:0:0:0:
148,116,106396,1,0,0:0:0:0:
228,112,106747,1,0,0:0:0:0:
312,136,107651,1,0,0:0:0:0:
280,228,108253,1,0,0:0:0:0:
144,176,108755,1,0,0:0:0:0:
224,116,109157,1,0,0:0:0:0:
312,132,109860,1,0,0:0:0:0:
288,168,110311,1,0,0:0:0:0:
248,220,110763,1,0,0:0:0:0:
200,212,111215,1,0,0:0:0:0:
204,152,111717,1,0,0:0:0:0:
232,112,112119,1,0,0:0:0:0:
268,116,112470,1,0,0:0:0:0:
288,164,113022,1,0,0:0:0:0:
276,212,113524,1,0,0:0:0:0:
196,204,113926,1,0,0:0:0:0:
200,152,114428,1,0,0:0:0:0:
236,132,114880,1,0,0:0:0:0:
276,144,115281,1,0,0:0:0:0:
276,144,115683,1,0,0:0:0:0:
276,180,116235,1,0,0:0:0:0:
244,216,116787,1,0,0:0:0:0:
180,188,117289,1,0,0:0:0:0:
184,168,117942,1,0,0:0:0:0:
196,132,118394,1,0,0:0:0:0:
232,120,118846,1,0,0:0:0:0:
256,128,119297,1,0,0:0:0:0:
280,160,119799,1,0,0:0:0:0:
284,192,120251,1,0,0:0:0:0:
272,208,120703,1,0,0:0:0:0:
228,216,121356,1,0,0:0:0:0:
192,204,121858,1,0,0:0:0:0:
184,168,122360,1,0,0:0:0:0:
184,168,122862,1,0,0:0:0:0:
212,140,123615,1,0,0:0:0:0:
264,152,124368,1,0,0:0:0:0:
288,200,125070,1,0,0:0:0:0:
248,224,125673,1,0,0:0:0:0:
200,180,126325,1,0,0:0:0:0:
236,136,127028,1,0,0:0:0:0:
268,160,127530,1,0,0:0:0:0:
280,200,127982,1,0,0:0:0:0:
248,224,128635,1,0,0:0:0:0:
204,216,128936,1,0,0:0:0:0:
176,128,129187,1,0,0:0:0:0:
176,128,129488,1,0,0:0:0:0:
288,116,129940,1,0,0:0:0:0:
312,192,130593,1,0,0:0:0:0:
180,232,131195,1,0,0:0:0:0:
252,76,132048,1,0,0:0:0:0:
340,96,132651,1,0,0:0:0:0:
272,160,133404,1,0,0:0:0:0:
192,188,133805,1,0,0:0:0:0:
160,104,134408,1,0,0:0:0:0:
336,72,134860,1,0,0:0:0:0:
332,216,135412,1,0,0:0:0:0:
216,224,135864,1,0,0:0:0:0:
200,96,136265,1,0,0:0:0:0:
364,128,136868,1,0,0:0:0:0:
280,240,137470,1,0,0:0:0:0:
156,228,138223,1,0,0:0:0:0:
200,96,138725,1,0,0:0:0:0:
316,140,139277,1,0,0:0:0:0:
288,280,139930,1,0,0:0:0:0:
60,200,142590,2,0,B|316:44|288:156|360:320|360:316|360:316|32:212|-176:140|-160:152|-160:152,20,909.999966621398
40,128,157601,2,0,B|168:124|312:172|344:240|348:144|348:140|32:36|176:408|516:324|480:276|480:276|296:156|296:176|296:176|248:32|248:32|4:40|4:40|24:104|40:144|40:140|40:140|56:352|56:352|352:340|352:340|380:336|380:336|460:152|460:152|384:84|-168:156|-168:156,22,2729.9998998642
48,160,205241,1,0,0:0:0:0:
48,160,205492,1,0,0:0:0:0:
380,96,205793,1,0,0:0:0:0:
184,120,205944,1,0,0:0:0:0:
412,108,206145,1,0,0:0:0:0:
212,124,206295,1,0,0:0:0:0:
92,184,206546,1,0,0:0:0:0:
252,324,206747,1,0,0:0:0:0:
100,64,206998,1,0,0:0:0:0:
256,216,207199,1,0,0:0:0:0:
92,184,207400,1,0,0:0:0:0:
124,252,207701,1,0,0:0:0:0:
104,156,209107,2,0,B|200:152|-172:280|-172:280,10,324.999988079071
256,192,212721,12,0,228077,0:0:0:0:
