osu file format v9

[General]
AudioFilename: OST Shin Megami Tensei _ Persona 4 - Shoji Meguro,Shihoko Hirata - .mp3
AudioLeadIn: 2000
PreviewTime: 48413
Countdown: 0
SampleSet: Soft
StackLeniency: 0.7
Mode: 0
LetterboxInBreaks: 1

[Editor]
Bookmarks: 25021,51252,61093
DistanceSpacing: 0.6
BeatDivisor: 8
GridSize: 8

[Metadata]
Title:Your Affection
Artist:Shihoko Hirata
Creator:Louis Cyphre
Version:Normal
Source:Shin Megami Tensei: Persona 4
Tags:shoji meguro chie satonaka yukiko amagi kanji tatsumi naoto shirogane yosuke hanamura rise kujikawa teddie velvet room igor margaret smt p4 atlus perusona katsuro hashino icebeam -maju souji seta

[Difficulty]
HPDrainRate:4
CircleSize:4
OverallDifficulty:4
ApproachRate:5
SliderMultiplier:1.2
SliderTickRate:1

[Events]
//Background and Video events
0,0,"Your affection.png"
//Break Periods
2,81386,88053
//Storyboard Layer 0 (Background)
//Storyboard Layer 1 (Fail)
//Storyboard Layer 2 (Pass)
//Storyboard Layer 3 (Foreground)
//Storyboard Sound Samples
//Background Colour Transformations
3,100,163,162,255

[TimingPoints]
514,504.201680672269,4,2,1,60,1,0
29190,-100,4,2,2,60,0,0
29316,-100,4,2,1,60,0,0
31207,-100,4,2,2,60,0,0
31333,-100,4,2,1,60,0,0
44316,-100,4,2,2,60,0,0
44442,-100,4,2,1,60,0,0
47278,-100,4,2,2,60,0,0
47530,-100,4,2,1,60,0,0
48917,-100,4,2,1,60,0,1
49358,-100,4,2,2,60,0,1
49484,-100,4,2,1,60,0,1
51375,-100,4,2,2,60,0,1
51501,-100,4,2,1,60,0,1
81186,-100,4,2,1,60,0,0
103812,-100,4,2,2,60,0,0
103938,-100,4,2,1,60,0,0
104820,-100,4,2,2,60,0,0
104946,-100,4,2,1,60,0,0
119946,-100,4,2,2,60,0,0
120072,-100,4,2,1,60,0,0
120955,-100,4,2,2,60,0,0
121081,-100,4,2,1,60,0,0
128014,-100,4,2,2,60,0,0
128140,-100,4,2,1,60,0,0
129022,-100,4,2,2,60,0,0
129148,-100,4,2,1,60,0,0
129589,-100,4,2,1,60,0,1
132047,-100,4,2,2,60,0,1
132173,-100,4,2,1,60,0,1
141123,-100,4,2,2,60,0,1
141249,-100,4,2,1,60,0,1
161858,-100,4,2,1,60,0,0

[Colours]
Combo1 : 255,0,0
Combo2 : 0,255,0
Combo3 : 0,0,128
Combo4 : 255,128,0

[HitObjects]
456,192,514,2,0,B|384:176|360:240,1,120,2|8
432,264,1522,1,0
407,336,2026,2,0,B|479:352|504:288,2,120,8|0|8
344,304,3539,2,0,B|296:304|272:272|272:224,1,120,0|8
240,160,4547,6,0,B|240:114|216:82|168:82,1,120,0|2
160,152,5556,1,0
152,168,5808,1,0
144,184,6060,2,0,B|160:256|240:256,1,120,8|0
256,192,7068,1,8
320,160,7572,2,0,B|352:160|376:120|352:80|320:80,1,120,0|8
256,56,8581,6,0,B|208:56|208:56|192:96|152:96,1,120,0|2
136,24,9589,1,0
120,32,9841,1,0
104,40,10093,1,8
32,56,10598,2,0,B|53:125|130:108,1,120,0|8
200,96,11606,6,0,B|128:104|136:184,1,120,0|8
208,176,12614,1,0
224,184,12866,1,0
240,192,13119,2,0,B|240:144|272:112|312:112,1,120,2|0
320,184,14127,1,8
328,256,14631,6,0,B|367:255|399:223|399:175,2,120,0|8|0
336,328,16144,2,0,B|320:256|248:272,1,120,8|2
256,200,17152,6,0,B|272:144|240:144|256:80,2,120,8|0|8
184,224,18665,2,0,B|216:288|288:272,2,120,2|8|0
120,264,20177,1,8
120,192,20682,1,2
56,224,21186,2,0,B|32:168|64:128|104:120,1,120,8|0
152,80,22194,1,8
208,128,22698,6,0,B|224:160|256:168|288:160|304:128,4,120,2|8|0|8|2
256,72,25219,5,8
328,48,25724,2,0,B|400:48|416:120,1,120,0|8
480,144,26732,2,0,B|408:144|400:216,2,120,2|8|0
472,216,28245,1,8
480,288,28749,6,0,B|424:336|368:288|312:240|256:288,1,240,2|0
304,344,30261,1,8
232,352,30766,2,0,B|183:295|231:239|279:183|231:127,1,240,2|0
176,168,32278,2,0,B|150:123|166:80|208:60,1,120,8|2
240,128,33287,5,8
256,112,33539,1,0
272,96,33791,2,0,B|309:96|340:129|334:181,2,120,0|8|2
264,168,35303,2,0,B|150:213|213:286|99:332,1,240,8|8
32,304,36816,1,2
24,232,37320,2,0,B|136:186|74:113|184:64,1,240,0|8
200,136,38833,6,0,B|256:176|312:136,4,120,2|8|0|8|2
128,112,41354,5,8
72,160,41858,2,0,B|96:224|168:208,2,120,0|8|2
144,136,43371,2,0,B|184:152|232:144|248:104|256:38|256:38|264:104|280:144|328:152|368:136,1,360,8|2
416,192,45387,5,8
368,248,45892,2,0,B|368:304|336:328|288:320,1,120,0|8
288,248,46900,2,0,B|248:208|176:224|176:224|192:168|152:136|120:136|120:136|112:72|176:40,1,360,2|8
216,104,48917,6,0,B|256:152|320:176|384:152|424:104,1,240,2|0
392,40,50429,1,8
464,40,50934,6,0,B|416:80|392:144|416:208|464:248,1,240,2|0
408,296,52446,1,8
416,312,52698,1,0
424,328,52950,6,0,B|360:352|312:312,1,120,2|8
256,264,53959,1,0
264,248,54211,1,0
272,232,54463,2,0,B|243:170|175:176,2,120,8|0|8
200,248,55976,1,0
224,320,56480,6,0,B|155:326|127:264,2,120,8|2|8
240,312,57740,1,0
296,264,58245,1,0
312,248,58497,2,0,B|331:218|322:186|299:162|263:164,2,120,8|2|8
384,264,60009,2,0,B|350:252|321:269|304:297|316:331,2,120,0|8|2
400,192,61522,5,8
352,136,62026,1,0
368,64,62530,1,8
312,24,63035,2,0,B|256:64|200:24,1,120,0|8
144,64,64043,1,0
144,136,64547,6,0,B|144:176|144:176|144:216|192:232,1,120,8|2
240,176,65556,1,8
248,160,65808,1,0
256,144,66060,1,0
296,80,66564,6,0,B|344:96|344:136|344:136|344:176,1,120,8|2
320,248,67572,1,8
256,288,68077,1,0
192,248,68581,6,0,B|144:216|160:192|112:152,2,120,8|2|8
216,320,70093,2,0,B|216:344|239:366|273:365|296:344|296:320,1,120,0|8
320,248,71102,2,0,B|368:216|352:192|400:152,2,120,2|2|2
256,208,72614,1,8
200,264,73119,6,0,B|160:208|200:152,2,120,2|8|0
256,208,74631,1,8
312,264,75135,2,0,B|352:209|312:153,2,120,2|8|0
256,208,76648,2,0,B|184:192|200:224|136:208,1,120,8|2
104,144,77656,5,8
152,88,78161,1,0
168,80,78413,1,0
184,72,78665,1,8
256,96,79169,1,0
256,112,79421,1,0
256,128,79673,1,8
320,168,80177,5,0
336,160,80429,1,0
352,152,80681,1,8
424,168,81186,1,2
256,192,89253,5,2
264,208,89505,1,0
272,224,89757,2,0,B|296:192|328:192|328:192|328:160|352:136,2,120,8|0|8
280,296,91270,2,0,B|204:299|200:224,1,120,0|8
136,192,92278,5,0
128,208,92530,1,0
120,224,92782,1,8
56,184,93287,1,0
48,168,93539,1,0
40,152,93791,1,2
88,96,94295,6,0,B|144:56|200:96,1,120,0|8
248,40,95303,2,0,B|208:95|247:151,1,120,0|8
304,96,96312,1,0
360,40,96816,2,0,B|399:95|360:151,1,120,8|2
424,192,97824,5,8
368,240,98329,2,0,B|344:264|312:272|280:264|256:240,1,120,0|8
312,192,99337,1,2
368,144,99841,2,0,B|344:120|312:112|280:120|256:144,1,120,8|0
208,192,100850,2,0,B|144:168|152:216|88:192,2,120,8|2|8
200,120,102362,1,0
256,72,102866,1,8
312,120,103371,6,0,B|304:176|408:152|408:152|352:200|435:240|435:240|352:279|408:328|408:328|304:304|312:360,1,480,2|2
240,344,105892,1,8
168,360,106396,2,0,B|128:303|167:247,1,120,0|8
240,224,107404,2,0,B|216:160|144:176,1,120,2|8
120,248,108413,1,0
48,248,108917,6,0,B|96:200|88:136,3,120,8|2|8|0
24,112,110934,1,8
80,64,111438,2,0,B|88:144|176:136,1,120,2|8
184,72,112446,1,0
256,48,112950,1,8
328,72,113455,1,2
360,136,113959,6,0,B|432:136|438:63,2,120,0|0|8
344,152,115219,1,0
328,168,115471,1,2
256,192,115976,2,0,B|184:176|200:208|128:192,3,120,8|0|8|2
64,208,117992,2,0,B|64:136|136:120,2,120,0|0|8
136,200,119505,6,0,B|192:192|168:296|168:296|216:240|256:323|256:323|296:240|344:296|344:296|320:192|376:200,1,480,2|2
448,208,122026,6,0,B|384:192|376:120,1,120,8|0
312,88,123035,1,8
296,96,123287,1,0
280,104,123539,1,2
216,64,124043,6,0,B|192:112|208:160|264:176,3,120,8|0|8|2
312,192,126060,1,8
368,152,126564,2,0,B|312:192|328:264,1,120,0|8
256,280,127572,6,0,B|222:234|165:325|165:325|171:251|84:282|84:282|114:195|41:200|41:200|131:144|86:110,1,480,2|2
128,48,130093,1,8
200,72,130598,1,0
256,120,131102,5,8
312,72,131606,2,0,B|368:48|432:48|472:88|480:136|472:176,1,240,2|0
400,192,133119,5,8
392,208,133371,1,0
384,224,133623,2,0,B|344:192|344:192|304:208|264:192,1,120,2|8
304,128,134631,1,0
360,80,135135,2,0,B|328:48|280:48|248:80,1,120,8|0
224,144,136144,2,0,B|195:172|147:172|115:140,1,120,8|0
72,80,137152,6,0,B|64:104|40:120|40:120|56:152|32:192,1,120,8|2
104,216,138161,1,8
112,232,138413,1,0
184,256,138917,1,0
192,272,139169,6,0,B|256:272|304:224,2,120,8|2|8
136,320,140682,2,0,B|72:304|40:232|72:160|136:144,1,240,0|2
96,80,142194,6,0,B|112:144|184:176|256:144|272:80,1,240,8|8
328,128,143707,1,0
368,192,144211,1,8
328,256,144715,1,0
256,280,145219,6,0,B|200:320|144:280,2,120,8|2|8
200,224,146732,1,0
255,168,147236,2,0,B|199:128|144:168,2,120,8|2|8
320,192,148749,1,0
320,120,149253,2,0,B|400:120|424:192|400:264|320:264,2,240,8|8|8
256,152,151774,1,2
192,192,152278,1,2
256,232,152782,1,2
192,272,153287,6,0,B|144:272|112:248|112:200,1,120,8|2
152,144,154295,1,8
160,128,154547,1,0
224,88,155051,1,0
232,72,155303,6,0,B|288:32|344:72,2,120,8|2|8
288,128,156816,1,0
312,200,157320,1,8
256,192,157824,12,2,161858
