osu file format v9

[General]
AudioFilename: OST Shin Megami Tensei _ Persona 4 - Shoji Meguro,Shihoko Hirata - .mp3
AudioLeadIn: 2000
PreviewTime: 48413
Countdown: 0
SampleSet: Soft
StackLeniency: 0.7
Mode: 0
LetterboxInBreaks: 1

[Editor]
DistanceSpacing: 1
BeatDivisor: 2
GridSize: 4

[Metadata]
Title:Your Affection
Artist:Shihoko Hirata
Creator:Louis Cyphre
Version:Beamsy
Source:Shin Megami Tensei: Persona 4
Tags:shoji meguro chie satonaka yukiko amagi kanji tatsumi naoto shirogane yosuke hanamura rise kujikawa teddie velvet room igor margaret smt p4 atlus perusona katsuro hashino icebeam -maju souji seta

[Difficulty]
HPDrainRate:2
CircleSize:4
OverallDifficulty:2
ApproachRate:3
SliderMultiplier:0.799999999999999
SliderTickRate:1

[Events]
//Background and Video events
0,0,"Your affection.png"
//Break Periods
2,81386,95880
//Storyboard Layer 0 (Background)
//Storyboard Layer 1 (Fail)
//Storyboard Layer 2 (Pass)
//Storyboard Layer 3 (Foreground)
//Storyboard Sound Samples
//Background Colour Transformations
3,100,163,162,255

[TimingPoints]
514,504.201680672269,4,2,1,60,1,0
46648,-100,4,2,1,50,0,0
47152,-100,4,2,1,40,0,0
47656,-100,4,2,1,30,0,0
48161,-100,4,2,1,20,0,0
48665,-100,4,2,1,60,0,0
48917,-100,4,2,1,60,0,1
81186,-100,4,2,1,60,0,0
127320,-100,4,2,1,50,0,0
127824,-100,4,2,1,40,0,0
128329,-100,4,2,1,30,0,0
128833,-100,4,2,1,20,0,0
129589,-100,4,2,1,60,0,1
157824,-100,4,2,1,55,0,1
158329,-100,4,2,1,50,0,1
158833,-100,4,2,1,45,0,1
159337,-100,4,2,1,40,0,1
159841,-100,4,2,1,35,0,1
160345,-100,4,2,1,30,0,1
160850,-100,4,2,1,25,0,1
161354,-100,4,2,1,20,0,1
161858,-100,4,2,1,15,0,0

[Colours]
Combo1 : 255,0,0
Combo2 : 0,255,0
Combo3 : 0,0,128
Combo4 : 255,128,0

[HitObjects]
136,60,514,2,0,B|180:40|224:64,1,79.9999999999999,4|8
256,128,1522,2,0,B|212:148|168:124,1,79.9999999999999,0|8
144,200,2530,2,0,B|152:288,1,79.9999999999999,2|8
232,280,3539,2,0,B|224:192,1,79.9999999999999,0|8
256,128,4547,5,0
324,84,5051,2,0,B|300:48|256:36|212:48|184:88,2,160,8|8|8
256,128,7572,2,0,B|236:172|260:216,1,79.9999999999999,0|8
324,164,8581,6,0,B|368:184|412:160,1,79.9999999999999,4|8
364,96,9589,1,0
296,52,10093,2,0,B|252:32|208:56,1,79.9999999999999,8|2
152,92,11102,1,8
224,128,11606,2,0,B|244:172|220:216,1,79.9999999999999,0|8
152,240,12614,5,0
180,316,13119,2,0,B|220:316|256:344|256:344|288:316|328:316,2,160,8|8|8
152,240,15640,2,0,B|124:152,1,79.9999999999999,0|8
192,112,16648,6,0,B|220:200,1,79.9999999999999,4|8
256,260,17656,1,0
320,112,18665,2,0,B|292:200,1,79.9999999999999,2|8
256,260,19673,2,0,B|212:280|168:256,1,79.9999999999999,0|8
216,192,20682,5,0
296,188,21186,2,0,B|364:116|446:184,1,160,8|8
372,224,22698,2,0,B|392:268|368:312,3,79.9999999999999,4|0|4|0
300,264,24715,5,4
300,184,25219,2,0,B|372:116|304:34,2,160,8|8|8
228,224,27740,2,0,B|184:204|140:228,1,79.9999999999999,0|8
184,296,28749,5,0
104,292,29253,2,8,B|68:268|56:224|68:180|108:152,1,160
100,76,30766,1,2
176,48,31270,2,0,B|336:48,1,160,8|8
412,76,32782,5,4
408,156,33287,2,0,B|443:180|455:224|443:268|407:292,1,160,8|8
364,224,34799,1,2
320,156,35303,2,0,B|276:156|256:116|256:116|240:156|184:156,1,160,8|8
148,224,36816,6,0,B|168:268|144:312,1,79.9999999999999,0|8
80,264,37824,2,0,B|60:220|84:176,1,79.9999999999999,0|8
148,144,38833,2,0,B|156:52,3,79.9999999999999,4|8|4|8
232,48,40850,5,4
308,68,41354,2,0,B|392:112|464:48,2,160,8|8|8
252,124,43875,2,0,B|232:168|256:212,1,79.9999999999999,0|8
324,168,44883,5,0
324,248,45387,2,8,B|300:284|256:296|212:284|184:244,1,160
136,188,46900,2,0,B|92:168|48:192,3,79.9999999999999,2|0|2|0
100,256,48917,5,4
176,276,49421,2,0,B|232:236|276:316|336:268,1,160,8|8
396,320,50934,1,4
404,240,51438,2,8,B|440:216|452:172|440:128|396:100,1,160
328,128,52950,5,4
264,76,53455,2,0,B|160:80,1,79.9999999999999,8|0
109,104,54463,2,8,B|72:128|60:172|72:216|108:240,2,160
188,80,56984,5,4
180,160,57488,2,0,B|224:184|256:152|256:152|288:180|328:160,1,160,8|8
400,196,59001,2,0,B|420:240|396:284,1,79.9999999999999,2|8
332,316,60009,2,0,B|312:272|336:228,1,79.9999999999999,0|8
324,160,61018,5,4
288,88,61522,2,0,B|244:68|200:92,1,79.9999999999999,8|4
168,156,62530,2,0,B|212:176|256:152,1,79.9999999999999,8|4
324,160,63539,1,4
392,120,64043,2,0,B|412:164|388:208,1,79.9999999999999,4|2
416,276,65051,5,4
336,260,65556,2,0,B|160:260,1,160,8|8
96,276,67068,1,4
116,200,67572,2,8,B|78:176|66:132|78:88|114:64,1,160
192,44,69085,5,4
176,124,69589,2,0,B|336:124,1,160,8|8
404,84,71102,2,0,B|424:128|400:172,1,79.9999999999999,2|8
336,200,72110,1,0
256,216,72614,1,8
176,200,73119,5,4
136,132,73623,2,8,B|98:156|86:200|98:244|134:268,1,160
212,276,75135,2,0,B|216:360,1,79.9999999999999,2|8
296,355,76144,2,0,B|300:276,1,79.9999999999999,0|8
256,208,77152,5,0
324,168,77656,2,0,B|300:132|256:120|212:132|184:172,2,160,8|8|8
256,208,80177,2,0,B|236:252|260:296,1,79.9999999999999,2|8
328,252,81186,5,4
404,40,97320,6,0,B|424:84|400:128,1,79.9999999999999,4|8
332,148,98329,2,0,B|276:108|232:188|172:140,1,160,0|2
120,92,99841,1,8
104,172,100345,2,0,B|84:216|108:260,1,79.9999999999999,0|8
184,236,101354,5,0
176,316,101858,2,0,B|220:340|252:308|252:308|284:336|324:316,1,160,8|8
396,352,103371,2,0,B|416:308|388:264,3,79.9999999999999,4|0|4|0
324,236,105387,5,4
320,156,105892,2,0,B|276:156|256:196|256:196|240:156|184:156,1,160,8|8
228,84,107404,1,2
148,88,107908,2,0,B|113:112|101:156|113:200|152:224,1,160,8|8
124,300,109421,5,0
204,288,109925,2,0,B|292:248|360:316,1,160,8|8
428,284,111438,1,2
372,224,111942,2,0,B|332:136|400:68,1,160,8|8
472,56,113455,5,4
452,132,113959,2,0,B|364:172|296:104,1,160,8|8
256,48,115471,1,2
208,111,115976,2,0,B|148:172|60:132,1,160,8|8
40,56,117488,5,0
120,72,117992,2,0,B|180:132|140:220,1,160,8|8
104,288,119505,2,0,B|148:308|192:280,3,79.9999999999999,4|0|4|0
256,252,121522,5,4
324,208,122026,2,0,B|300:172|256:160|212:172|184:212,2,160,8|8|8
256,252,124547,2,0,B|236:296|264:340,1,79.9999999999999,0|8
332,288,125556,5,0
324,208,126060,2,0,B|360:184|372:140|360:96|320:68,1,160,8|8
248,48,127572,2,0,B|152:56,3,79.9999999999999,2|0|2|0
88,40,129589,5,4
104,120,130093,2,0,B|68:144|56:188|68:232|108:260,1,160,8|8
104,336,131606,1,4
176,304,132110,2,0,B|336:304,1,160,8|0
412,336,133623,5,4
408,256,134127,2,0,B|443:231|455:187|443:143|407:119,1,160,8|8
392,40,135640,1,2
332,92,136144,2,0,B|292:92|256:120|256:120|224:92|184:92,1,160,8|8
108,108,137656,5,4
156,168,138161,2,0,B|176:332,1,160,8|8
256,316,139673,1,2
336,326,140177,2,0,B|356:168,1,160,8|8
296,116,141690,6,0,B|252:96|208:124,1,79.9999999999999,4|8
260,188,142698,2,0,B|240:232|268:276,1,79.9999999999999,4|8
332,228,143707,2,0,B|376:248|420:220,1,79.9999999999999,4|4
372,156,144715,2,0,B|392:112|364:68,1,79.9999999999999,4|8
300,40,145724,5,4
296,120,146228,2,0,B|232:176|136:132,1,160,8|8
128,60,147740,1,4
208,72,148245,2,0,B|264:136|220:228,1,160,8|8
148,252,149757,5,4
180,324,150261,2,0,B|224:348|256:316|256:316|288:344|328:324,2,160,8|8|8
148,252,152782,2,0,B|152:156,1,79.9999999999999,0|8
100,112,153791,5,4
176,88,154295,2,0,B|364:88,1,160,8|8
408,124,155808,2,0,B|428:168|400:212,1,79.9999999999999,2|8
336,240,156816,2,0,B|316:196|344:152,1,79.9999999999999,0|8
256,192,157824,12,4,161858
