osu file format v9

[General]
AudioFilename: Shihoko Hirata - Time To Make History.mp3
AudioLeadIn: 0
PreviewTime: 45154
Countdown: 0
SampleSet: Soft
StackLeniency: 0.7
Mode: 0
LetterboxInBreaks: 1

[Editor]
DistanceSpacing: 0.8
BeatDivisor: 4
GridSize: 8

[Metadata]
Title:Time To Make History
Artist:Shihoko Hirata
Creator:shojimeguro
Version:Hard
Source:Persona 4 Golden
Tags:Lincolm,Yu-Izanagi-12

[Difficulty]
HPDrainRate:8
CircleSize:5
OverallDifficulty:8
ApproachRate:5
SliderMultiplier:1.4
SliderTickRate:2

[Events]
//Background and Video events
0,0,"wall01_800x600.jpg"
//Break Periods
//Storyboard Layer 0 (Background)
//Storyboard Layer 1 (Fail)
//Storyboard Layer 2 (Pass)
//Storyboard Layer 3 (Foreground)
//Storyboard Sound Samples
//Background Colour Transformations
3,100,163,162,255

[TimingPoints]
438,315.789473684211,4,2,0,93,1,0
45943,315.789473684211,4,2,0,93,1,1
56048,-100,4,2,0,93,0,1
66154,-100,4,2,0,93,0,0

[Colours]
Combo1 : 128,128,255
Combo2 : 240,5,5
Combo3 : 0,128,255
Combo4 : 0,255,64

[HitObjects]
40,120,5490,1,8
128,32,5806,1,8
216,120,6122,1,8
128,216,6438,1,8
128,120,6753,1,8
128,216,7227,1,8
80,208,7701,2,8,B|216:424|280:240|400:224|256:-32|192:120|256:8|240:48|248:0|-24:184|256:360|320:384|424:200,1,910
480,128,10543,1,8
384,32,10859,1,8
288,128,11174,1,8
384,224,11490,1,8
384,128,11806,1,8
456,224,12280,1,8
448,320,12753,1,8
320,320,13069,1,8
192,320,13385,1,8
192,232,13701,2,8,B|168:88|312:256|336:256|256:272|432:104|432:112,1,315,8|4
64,64,15280,5,8
192,64,15595,1,8
320,64,15911,1,8
192,160,16227,1,8
192,256,16543,1,8
192,160,16859,1,8
32,264,17174,1,8
32,160,17490,1,8
32,64,17806,5,8
96,160,18122,1,8
32,256,18438,1,8
96,352,18753,1,8
160,256,19069,1,8
240,160,19385,1,8
176,48,19701,2,8,B|304:112|464:48,1,280
392,256,20648,5,8
304,256,20964,1,8
224,256,21280,1,8
224,320,21595,1,8
136,320,21911,1,8
136,248,22227,2,8,B|472:168|472:168|432:152|432:152|128:64,2,700,8|8|12
96,248,25701,5,8
96,120,26016,1,8
216,120,26332,1,8
216,248,26648,1,8
344,248,26964,1,8
464,248,27280,1,8
344,248,27438,1,8
216,248,27595,2,0,B|256:144|256:144|144:48|168:0|192:24|416:224|416:208|312:48|288:80|288:32|224:16|416:40,2,595,8|8|8
240,56,30753,1,8
88,56,31069,1,8
88,208,31385,1,8
240,216,31701,1,8
96,296,32016,2,0,B|168:216|144:352|328:352|280:240|280:272,1,210,8|4
24,48,33280,5,8
120,112,33595,1,8
248,56,33911,1,8
384,176,34227,2,8,B|288:224|256:168,1,140
120,208,34859,1,8
288,216,35174,1,8
432,216,35490,1,8
440,96,35806,2,8,B|408:32|312:88,2,140
432,96,36753,1,8
432,200,37069,1,8
277,296,37306,2,0,B|320:240|408:280,4,140
208,320,38964,2,8,B|32:176,1,210
64,168,39911,2,8,B|200:80,3,140
200,88,41095,1,8
320,88,41490,1,8
320,88,41648,1,8
216,168,41964,2,8,B|216:192|320:192,1,105,8|8
256,192,42595,12,0,45280
32,64,45943,5,2
88,192,46258,1,2
168,320,46574,1,2
304,320,46890,1,2
368,192,47206,1,2
448,64,47521,1,2
360,112,47837,2,2,B|360:128|160:136|0:296|32:176|-32:264|-272:24|232:-8|192:-24|320:280|320:280,1,840,2|6
32,336,50364,5,8
200,264,50521,1,8
32,192,50837,1,8
208,120,51311,1,12
32,56,51627,1,8
120,104,51785,1,8
256,192,52100,1,8
376,144,52416,1,8
464,208,52732,1,8
464,48,52890,2,8,B|288:40|240:224,3,280,8|8|8|12
192,192,55100,1,0
128,192,55416,1,0
64,192,55732,1,0
464,56,56048,5,8
464,168,56364,1,8
464,288,56679,1,8
360,168,56995,2,8,B|200:168,1,140
48,48,57627,1,8
144,48,57943,1,8
232,48,58100,1,8
56,160,58416,2,0,B|-8:320|-8:336|32:336|480:80,1,630,0|8
448,98,60153,1,8
40,48,60469,5,8
40,192,60785,1,8
208,192,61100,1,8
208,48,61416,1,8
320,48,61732,2,8,B|464:48,1,140
456,192,62364,1,8
456,312,62679,1,8
336,312,62995,1,8
64,312,63311,5,8
72,192,63627,1,8
256,192,63943,1,8
256,288,64258,1,8
256,192,64890,1,8
256,192,65206,1,8
256,96,65521,1,8
256,8,65837,1,8
256,192,66153,12,4,70416
32,56,70890,5,8
32,192,71206,1,8
24,336,71521,1,8
160,336,71837,1,8
160,192,72153,1,8
160,120,72469,2,0,B|256:-40|320:88,1,210,8|8
480,64,73732,5,8
480,192,74048,1,8
488,328,74363,1,8
376,328,74679,1,8
368,200,74995,1,8
360,128,75469,2,8,B|264:-32|200:96,1,210
