osu file format v14

[General]
AudioFilename: Snowflakes_Narasaki_Remix_Long_Ver.mp3
AudioLeadIn: 0
PreviewTime: -1
Countdown: 1
SampleSet: Normal
StackLeniency: 0.7
Mode: 0
LetterboxInBreaks: 1
WidescreenStoryboard: 0

[Editor]
DistanceSpacing: 1.2
BeatDivisor: 4
GridSize: 8
TimelineZoom: 3.099999

[Metadata]
Title:Snowflakes (Narasaki Remix)
TitleUnicode:Snowflakes (Narasaki Remix)
Artist:Shihoko Hirata
ArtistUnicode:Shihoko Hirata
Creator:Eraqus
Version:True Ending
Source:Persona 4: Dancing All Night
Tags:atlus persona 4 golden
BeatmapID:1108304
BeatmapSetID:521813

[Difficulty]
HPDrainRate:6
CircleSize:4.2
OverallDifficulty:7.5
ApproachRate:8
SliderMultiplier:1.6
SliderTickRate:2

[Events]
//Background and Video events
0,0,"rsz_persona-4-dancing-all-night-23433.png",0,0
//Break Periods
//Storyboard Layer 0 (Background)
//Storyboard Layer 1 (Fail)
//Storyboard Layer 2 (Pass)
//Storyboard Layer 3 (Foreground)
//Storyboard Sound Samples

[TimingPoints]
904,400.03779264214,4,1,0,100,1,0

[HitObjects]
160,193,699,5,0,0:0:0:0:
120,80,905,1,0,0:0:0:0:
131,119,1003,1,0,0:0:0:0:
142,158,1103,1,0,0:0:0:0:
160,193,1203,1,0,0:0:0:0:
176,224,1303,2,0,P|232:288|416:192,2,320
256,192,2903,12,0,4104,0:0:0:0:
440,80,4304,5,0,0:0:0:0:
392,64,4404,1,0,0:0:0:0:
336,56,4504,1,0,0:0:0:0:
280,64,4604,1,0,0:0:0:0:
232,80,4704,1,0,0:0:0:0:
96,96,5104,1,0,0:0:0:0:
168,208,5304,1,0,0:0:0:0:
96,304,5504,1,0,0:0:0:0:
328,176,5904,1,0,0:0:0:0:
384,192,6004,1,0,0:0:0:0:
408,168,6104,1,0,0:0:0:0:
176,104,6504,6,0,L|214:144,8,40
392,168,7504,1,0,0:0:0:0:
368,232,7604,1,0,0:0:0:0:
344,296,7704,1,0,0:0:0:0:
136,192,7903,1,0,0:0:0:0:
368,240,8103,1,0,0:0:0:0:
136,296,8303,1,0,0:0:0:0:
360,152,8504,1,0,0:0:0:0:
136,96,8704,1,0,0:0:0:0:
400,152,8903,5,0,0:0:0:0:
376,112,9003,1,0,0:0:0:0:
344,80,9103,1,0,0:0:0:0:
296,72,9203,1,0,0:0:0:0:
256,80,9303,2,0,L|192:128,1,80
216,288,9703,1,0,0:0:0:0:
304,200,9903,1,0,0:0:0:0:
216,104,10103,1,0,0:0:0:0:
304,200,10303,1,0,0:0:0:0:
216,104,10503,1,0,0:0:0:0:
155,321,10703,5,0,0:0:0:0:
104,120,10903,2,0,P|88:256|176:328,2,240
120,296,12305,1,0,0:0:0:0:
344,128,12704,1,0,0:0:0:0:
416,224,12905,1,0,0:0:0:0:
416,224,13105,1,0,0:0:0:0:
264,48,13305,5,0,0:0:0:0:
248,96,13404,1,0,0:0:0:0:
264,136,13504,1,0,0:0:0:0:
248,184,13604,1,0,0:0:0:0:
264,224,13704,1,0,0:0:0:0:
248,272,13804,1,0,0:0:0:0:
264,312,13904,1,0,0:0:0:0:
200,152,14104,5,0,0:0:0:0:
104,280,14305,1,0,0:0:0:0:
200,232,14504,1,0,0:0:0:0:
104,104,14705,1,0,0:0:0:0:
360,264,14904,1,0,0:0:0:0:
360,112,15104,1,0,0:0:0:0:
248,312,15305,1,0,0:0:0:0:
201,295,15405,1,0,0:0:0:0:
159,267,15505,1,0,0:0:0:0:
124,231,15605,1,0,0:0:0:0:
98,189,15705,1,0,0:0:0:0:
416,128,15904,6,0,L|360:56,2,80
417,224,16505,1,0,0:0:0:0:
64,88,16905,1,0,0:0:0:0:
72,136,17005,1,0,0:0:0:0:
80,184,17105,1,0,0:0:0:0:
96,232,17205,1,0,0:0:0:0:
120,272,17305,2,0,B|144:320|192:328|232:336|272:328|312:320|336:296|344:248|320:208|288:184|264:152|216:152|176:192|168:240|216:272|256:272|280:240|264:200|232:200,1,480
256,120,18705,1,0,0:0:0:0:
96,312,19105,5,0,0:0:0:0:
102,272,19205,1,0,0:0:0:0:
114,234,19305,1,0,0:0:0:0:
132,198,19405,1,0,0:0:0:0:
155,166,19505,1,0,0:0:0:0:
183,137,19605,5,0,0:0:0:0:
216,152,19705,1,0,0:0:0:0:
251,171,19805,1,0,0:0:0:0:
288,186,19905,1,0,0:0:0:0:
327,196,20005,1,0,0:0:0:0:
366,202,20105,1,0,0:0:0:0:
104,272,20505,6,0,B|224:312|272:272|256:280,2,160
256,192,21405,12,0,22106,0:0:0:0:
368,320,22706,5,0,0:0:0:0:
336,280,22806,1,0,0:0:0:0:
320,328,22906,1,0,0:0:0:0:
320,328,23306,1,0,0:0:0:0:
320,328,23706,2,0,L|64:128,1,320,0|0,0:0|0:0,0:3:0:0:
416,72,24706,2,0,L|357:124,3,80
88,320,26506,5,0,0:0:0:0:
88,176,26706,1,0,0:0:0:0:
216,320,26906,1,0,0:0:0:0:
88,176,27106,1,0,0:0:0:0:
216,320,27306,1,0,0:0:0:0:
320,232,27506,1,0,0:0:0:0:
368,216,27606,1,0,0:0:0:0:
416,232,27706,1,0,0:0:0:0:
256,192,27906,1,0,0:0:0:0:
160,80,28106,1,0,0:0:0:0:
256,192,28306,1,0,0:0:0:0:
88,328,28506,6,0,L|88:136,1,160
112,80,29106,1,0,0:0:0:0:
144,80,29206,1,0,0:0:0:0:
112,80,29306,1,0,0:0:0:0:
96,256,29506,1,0,0:0:0:0:
64,208,29706,1,0,0:0:0:0:
64,208,29906,1,0,0:0:0:0:
64,208,30106,2,0,P|152:320|360:24,1,640
120,80,31906,5,0,0:0:0:0:
256,232,32106,1,0,0:0:0:0:
400,80,32306,1,0,0:0:0:0:
256,328,32506,1,0,0:0:0:0:
432,216,32907,1,0,0:0:0:0:
432,256,33107,1,0,0:0:0:0:
96,64,33307,2,0,B|72:184|120:264|112:320|176:344|232:328|232:328|232:328|232:328,1,320
336,128,34907,5,0,0:0:0:0:
184,256,35307,1,0,0:0:0:0:
96,72,35707,1,0,0:0:0:0:
424,312,36107,1,0,0:0:0:0:
216,184,36507,2,0,B|240:128|288:136|312:160|320:192|288:248|264:232|216:232|184:224|160:192|168:136|200:80|240:80|280:80|312:88|336:112|352:136|368:184|360:224|360:224|360:224|360:224,1,480
256,280,37907,5,0,0:0:0:0:
96,336,38107,1,0,0:0:0:0:
135,341,38207,1,0,0:0:0:0:
175,341,38307,1,0,0:0:0:0:
215,336,38407,1,0,0:0:0:0:
253,325,38507,1,0,0:0:0:0:
290,308,38607,1,0,0:0:0:0:
323,287,38707,1,0,0:0:0:0:
354,261,38807,1,0,0:0:0:0:
376,216,38907,1,0,0:0:0:0:
376,176,39007,1,0,0:0:0:0:
376,136,39107,1,0,0:0:0:0:
376,96,39207,1,0,0:0:0:0:
376,56,39307,1,0,0:0:0:0:
