osu file format v9

[General]
AudioFilename: 09. Heaven.mp3
AudioLeadIn: 3000
PreviewTime: 17991
Countdown: 0
SampleSet: Normal
StackLeniency: 0.7
Mode: 0
LetterboxInBreaks: 1

[Editor]
DistanceSpacing: 1.2
BeatDivisor: 4
GridSize: 4

[Metadata]
Title:Signs of Love (Reincarnation ver.)
Artist:Shihoko Hirata
Creator:Louis Cyphre
Version:Normal
Source:Shin Megami Tensei: Persona 4
Tags:SMT aic asta shoji meguro chie satonaka yukiko amagi kanji tatsumi naoto shirogane yosuke hanamura rise kujikawa teddie velvet room igor margaret p4 atlus perusona katsuro hashino souji seta Kakihara Yuuko Kishi Seiji MMzz

[Difficulty]
HPDrainRate:4
CircleSize:3
OverallDifficulty:4
ApproachRate:5
SliderMultiplier:1.33
SliderTickRate:2

[Events]
//Background and Video events
0,0,"BGOMG.png"
//Break Periods
2,88648,98257
//Storyboard Layer 0 (Background)
//Storyboard Layer 1 (Fail)
//Storyboard Layer 2 (Pass)
//Storyboard Layer 3 (Foreground)
//Storyboard Sound Samples
//Background Colour Transformations
3,100,163,162,255

[TimingPoints]
375,550.45871559633,4,1,2,20,1,0
925,-100,4,2,1,40,0,0
1063,-100,4,1,2,20,0,0
2026,-100,4,1,2,40,0,0
2576,-100,4,1,2,20,0,0
3127,-100,4,2,1,40,0,0
3264,-100,4,1,2,20,0,0
4228,-100,4,1,2,40,0,0
4503,-100,4,1,2,20,0,0
5329,-100,4,2,1,40,0,0
5879,-100,4,1,2,20,0,0
6430,-100,4,1,2,40,0,0
6567,-100,4,1,2,20,0,0
7530,-100,4,2,1,40,0,0
7668,-100,4,1,2,20,0,0
8356,-100,4,1,1,40,0,0
35604,-100,4,1,2,20,0,0
36154,-100,4,1,2,40,0,0
36705,-100,4,1,2,20,0,0
36980,-100,4,1,2,40,0,0
37806,-100,4,1,2,20,0,0
38356,-100,4,1,2,40,0,0
38907,-100,4,1,2,20,0,0
39457,-100,4,1,2,40,0,0
40008,-100,4,1,2,20,0,0
40558,-100,4,1,2,40,0,0
41108,-100,4,1,2,20,0,0
41659,-100,4,1,2,40,0,0
42209,-100,4,1,2,20,0,0
42760,-100,4,1,2,40,0,0
43310,-100,4,1,2,20,0,0
43861,-100,4,1,2,40,0,0
44411,-100,4,1,2,20,0,0
44686,-100,4,1,2,40,0,0
45512,-100,4,1,2,20,0,0
46063,-100,4,1,2,40,0,0
46613,-100,4,1,2,20,0,0
47163,-100,4,1,2,40,0,0
47714,-100,4,1,2,20,0,0
48264,-100,4,1,2,40,0,0
48815,-100,4,1,2,20,0,0
49365,-100,4,1,2,40,0,0
49916,-100,4,1,2,20,0,0
50466,-100,4,1,2,40,0,0
51017,-100,4,1,2,20,0,0
51567,-100,4,1,2,40,0,0
52118,-100,4,1,2,20,0,0
53219,-100,4,1,1,40,0,0
99457,-100,4,1,2,20,0,0
99732,-100,4,1,2,40,0,0
100558,-100,4,1,2,20,0,0
101108,-100,4,1,2,40,0,0
101659,-100,4,1,2,20,0,0
102760,-100,4,1,2,20,0,0
103035,-100,4,1,2,40,0,0
103861,-100,4,1,2,20,0,0
104962,-100,4,1,2,20,0,0
105237,-100,4,1,2,40,0,0
106063,-100,4,1,2,20,0,0
106613,-100,4,1,2,40,0,0
107163,-100,4,1,2,20,0,0
107714,-100,4,1,2,40,0,0
108264,-100,4,1,2,20,0,0
108815,-100,4,1,2,40,0,0
109365,-100,4,1,2,20,0,0
109641,-100,4,1,2,40,0,0
110466,-100,4,1,2,20,0,0
110741,-100,4,1,2,40,0,0
111567,-100,4,1,2,20,0,0
112118,-100,4,1,2,40,0,0
112668,-100,4,1,2,20,0,0
113219,-100,4,1,2,40,0,0
113769,-100,4,1,2,20,0,0
114319,-100,4,1,2,40,0,0
114870,-100,4,1,2,20,0,0
115420,-100,4,1,2,40,0,0
115971,-100,4,1,2,20,0,0
116521,-100,4,1,2,40,0,0
117072,-100,4,1,2,20,0,0
117622,-100,4,1,2,40,0,0
118173,-100,4,1,2,20,0,0
118723,-100,4,1,2,40,0,0
119274,-100,4,1,2,20,0,0
119549,-100,4,1,2,40,0,0
120374,-100,4,1,2,20,0,0
120925,-100,4,1,2,40,0,0
121475,-100,4,1,2,20,0,0
121751,-100,4,1,2,40,0,0
122576,-100,4,1,2,20,0,0
123127,-100,4,1,2,40,0,0
123952,-100,4,1,1,40,0,0
160008,-100,4,1,2,40,0,0
160558,-100,4,2,1,40,0,0
161108,-100,4,1,2,40,0,0
161659,-100,4,2,1,40,0,0
162209,-100,4,1,2,40,0,0
162760,-100,4,2,1,40,0,0
163310,-100,4,1,2,40,0,0
163861,-100,4,2,1,40,0,0
164411,-100,4,1,2,40,0,0
164962,-100,4,2,1,40,0,0
165512,-100,4,1,2,40,0,0
166063,-100,4,2,1,40,0,0
166613,-100,4,1,2,40,0,0
167163,-100,4,2,1,40,0,0
168264,-100,4,1,2,40,0,0
178723,-100,4,2,0,5,0,0

[Colours]
Combo1 : 128,0,128
Combo2 : 0,0,160
Combo3 : 251,35,4
Combo4 : 255,87,6
SliderBorder : 255,255,255

[HitObjects]
304,128,375,2,0,B|368:104|436:128,2,133,8|2|8
256,280,2026,1,0
208,128,2576,2,0,B|144:104|76:128,2,133,8|2|8
256,280,4228,1,0
320,328,4503,6,0,B|388:336|448:296,1,133,8|0
472,220,5329,1,2
316,192,5879,2,0,B|328:124|388:80,2,133,0|0|8
156,192,7530,1,2
240,328,8081,6,0,B|320:328,1,66.5
384,304,8631,1,8
436,244,8907,1,8
452,164,9182,6,0,B|384:156|336:104,1,133,4|8
176,104,10283,2,0,B|128:155|60:163,1,133,0|8
72,324,11384,1,0
148,296,11659,1,0
228,296,11934,1,8
388,312,12485,6,0,B|384:232|436:192|436:192|384:152|388:72,1,266,0|4
256,164,14136,1,8
124,74,14686,2,0,B|128:152|76:192|76:192|128:232|124:312,1,266
256,220,16338,1,8
316,72,16888,6,0,B|292:48|256:40|220:48|196:72,2,133,4|4|0
256,132,18264,1,8
196,192,18540,2,0,B|220:216|256:224|292:216|316:192,1,133,8|4
136,248,19641,6,0,B|184:296|256:312|328:296|376:247,2,266,8|8|8
92,96,22393,1,0
152,40,22668,2,0,B|220:40,1,66.5,4|8
332,152,23494,2,0,B|268:172|200:152,2,133,0|8|4
464,60,25145,2,0,B|368:156|424:308,1,266,8|8
264,304,26797,6,0,B|212:260|140:264,1,133,0|8
92,324,27622,2,0,B|124:268|112:196,1,133,4|0
76,124,28448,1,8
228,80,28998,1,4
372,152,29549,5,8
452,144,29824,2,0,B|448:204|392:228|392:228|416:268|396:320,1,199.5,0|8
324,276,30925,1,0
264,336,31200,6,0,B|244:316|232:276|240:240|264:216,2,133,4|8|0
104,336,32852,1,8
152,272,33127,2,0,B|168:220|168:220|184:172|216:136|272:128,1,199.5,4|8
420,148,34503,2,0,B|404:216|428:280,1,133,12|12
284,348,35604,5,8
264,188,36154,1,0
136,100,36705,1,8
100,172,36980,1,0
120,248,37255,1,0
252,336,37806,6,0,B|384:312,1,133,8|0
360,236,38631,1,0
332,160,38907,2,0,B|468:140,1,133,8|0
316,76,40008,6,0,B|244:96|248:176,1,133,8|0
276,252,40833,1,0
196,240,41108,2,0,B|128:256|64:228,1,133,8|0
64,68,42209,6,0,B|104:120|184:120,1,133,8|0
256,88,43035,1,0
330,119,43310,2,0,B|408:120|448:68,1,133,8|0
444,228,44411,5,8
412,300,44686,1,0
344,344,44962,1,0
256,208,45512,1,8
168,344,46063,1,0
100,300,46338,1,0
68,228,46613,6,0,B|68:168|52:96,1,133,8|0
132,84,47439,1,0
148,164,47714,2,0,B|216:180|280:164,1,133,8|0
436,132,48815,2,0,B|400:264,1,133,8|0
256,324,49916,6,0,B|288:196,1,133,8|0
316,120,50741,1,0
236,132,51017,2,0,B|100:140,1,133,8|0
48,84,51842,1,0
24,160,52118,6,0,B|56:248|56:248|156:260|176:356,1,266,8|0
256,340,53494,2,0,B|256:272,2,66.5,4|8|0
336,353,54319,6,0,B|360:288|436:260,1,133,4|8
464,192,55145,1,0
427,120,55420,2,0,B|352:116|332:40,1,133,4|8
412,28,56246,2,0,B|368:124|240:120,1,199.5,0|8
104,192,57622,1,0
88,272,57897,6,0,B|156:280|204:332,1,133,4|0
276,296,58723,2,0,B|256:268|232:248|232:248|232:180,1,133,8|8
392,192,59824,1,4
320,52,60374,6,0,B|216:52|216:52|160:52|116:96|116:160,1,266,8|8
216,284,62026,2,0,B|216:148,1,133,4|8
296,148,62852,2,0,B|296:280,1,133,4|0
288,360,63677,2,0,B|345:360|367:313|367:313|400:296,1,133,8|4
384,136,64778,2,0,B|384:101|384:101|384:49|332:25,2,133,8|0|8
292,272,66430,6,0,B|208:272|168:192|208:112|292:112,1,266,4|0
432,192,68081,2,0,B|356:192,1,66.5,0|4
256,192,68631,12,4,70833
360,220,71659,6,0,B|360:252|344:288|312:304|275:304,1,133,4|0
280,224,72485,2,0,B|232:176,1,66.5,8|0
152,180,73035,2,0,B|152:148|168:112|200:96|236:95,1,133,4|8
316,112,73861,2,0,B|256:192|256:192|196:272,1,199.5,0|8
48,336,75237,6,0,B|68:276|40:204,1,133,4|8
112,168,76063,2,0,B|153:274|123:363,1,199.5,4|8
256,272,77439,1,4
388,363,77989,6,0,B|358:274|400:168,1,199.5,8|0
428,92,79090,2,0,B|348:80|320:152,1,133,8|4
256,296,80191,1,0
204,356,80466,2,0,B|168:328|176:284|176:284|140:248,1,133,4|0
60,268,81292,1,8
64,108,81842,6,0,B|200:88,1,133,4|8
208,168,82668,2,0,B|272:152|276:88|276:88|372:72,1,199.5,4|8
372,232,84044,6,0,B|328:288|256:304|184:288|140:232,1,266,4|0
256,120,85696,1,8
256,40,85971,1,4
256,192,86246,12,0,88448
216,192,99457,5,8
296,192,99732,1,0
312,272,100008,2,8,B|292:300|256:316|220:300|200:272,2,133,0|8|0
368,124,101659,6,0,B|336:68|256:36|180:68|144:124,1,266,8|8
188,192,103035,2,0,B|260:192,2,66.5
144,260,103861,2,0,B|180:316|256:348|336:316|368:260,1,266,8|8
324,192,105237,2,0,B|260:160,2,66.5
400,164,106063,6,0,B|416:100|472:52,2,133,8|0|8
256,92,107714,1,0
112,164,108264,2,0,B|96:100|40:52,2,133,8|0|8
76,236,109641,1,0
76,316,109916,6,0,B|132:352|208:336,1,133,0|8
256,276,110741,1,0
308,336,111017,2,0,B|380:352|436:316,1,133,0|8
440,156,112118,5,0
400,88,112393,1,0
320,92,112668,2,0,B|256:120|192:92,1,133,8|0
112,88,113494,1,0
72,156,113769,2,0,B|100:216|100:288,1,133,8|0
216,176,114870,6,0,B|216:132|216:116|216:116|216:80|184:52,1,133,8|0
296,176,115971,2,0,B|296:132|296:116|296:116|296:80|328:52,1,133,8|0
439,156,117072,2,0,B|412:216|412:284,1,133,8|0
256,312,118173,1,8
256,152,118723,2,0,B|256:80,2,66.5,0|0|8
256,232,119549,5,0
200,288,119824,2,0,B|220:316|256:332|296:316|312:288,2,133,0|8|0
60,212,121475,6,0,B|44:136,1,66.5,8|0
128,152,122026,2,0,B|112:76,1,66.5
192,64,122576,2,0,B|256:96|320:64,1,133,8|8
397,86,123402,2,0,B|384:152,1,66.5,8|8
452,192,123952,5,4
384,236,124228,2,0,B|332:284|344:356,1,133,8|4
224,248,125329,2,0,B|288:132,1,133,8|4
167,27,126430,6,0,B|180:100|128:148,2,133,8|0|8
88,32,127806,2,0,B|88:72|60:96,1,66.5,0|4
40,168,128356,1,12
112,204,128631,6,0,B|124:272|172:320,2,133,8|4|8
256,252,130283,2,0,B|344:276|398:192|344:108|256:132,1,266,4|0
112,60,131934,1,8
24,192,132485,5,4
112,324,133035,1,8
192,324,133310,2,0,B|256:296|320:324,1,133,4|0
400,324,134136,2,0,B|424:264,1,66.5,8|0
384,192,134686,6,0,B|308:192|268:132,1,133,0|8
272,56,135512,2,0,B|248:160|248:160|236:208|188:224,1,199.5,0|8
168,148,136613,1,0
156,68,136888,6,0,B|100:80|80:128|88:168,2,133,4|8|0
312,100,138540,1,8
336,176,138815,1,4
256,192,139090,12,8,141292
256,192,142118,6,0,B|324:204|368:260,1,133,4|0
440,296,142943,2,0,B|452:216,1,66.5,8|0
400,168,143494,2,0,B|356:112|288:100,1,133,0|8
276,24,144319,2,0,B|307:131|231:207,1,199.5,4|8
84,148,145696,6,0,B|72:280,1,133,4|8
136,328,146521,2,0,B|228:284|336:280,1,199.5,4|8
456,184,147897,1,0
336,76,148448,2,0,B|232:172|88:152,1,266,4|0
36,304,150099,6,0,B|100:280|168:304,1,133,4|8
184,224,150925,2,0,B|276:256|380:224,1,199.5,4|8
244,140,152301,2,0,B|180:108|116:112,1,133,4|8
100,32,153127,2,0,B|112:144|36:224,1,199.5,4|8
112,360,154503,6,0,B|224:364|256:247|256:247|288:364|400:360,1,399,4|0
451,298,156430,1,4
256,192,156705,12,8,158907
200,192,160008,6,0,B|68:192,1,133,0|2
192,292,161108,2,0,B|324:292,1,133,0|2
445,192,162209,2,0,B|312:192,1,133,0|2
208,316,163310,1,0
52,324,163861,1,2
116,176,164411,6,0,B|116:40,1,133,0|2
256,124,165512,2,0,B|256:256,1,133,0|2
396,176,166613,2,0,B|396:40,1,133,0|2
256,124,167714,2,0,B|236:192|276:192|256:256,1,133,0|8
108,192,168815,6,0,B|48:56,2,133,0|8|0
256,256,170466,2,0,B|256:120,2,133,8|0|8
404,192,172118,6,0,B|464:56,1,133,0|8
320,152,173219,2,0,B|256:184|192:152,1,133,0|8
40,100,174319,6,0,B|40:180,1,66.5
120,176,174870,2,0,B|120:248,1,66.5,8|0
200,240,175420,2,0,B|200:316,1,66.5,8|8
280,292,175971,2,0,B|412:292,1,133,8|0
256,192,176797,12,0,178723
