osu file format v9

[General]
AudioFilename: Reach Out to the Truth.mp3
AudioLeadIn: 3000
PreviewTime: 42888
Countdown: 0
SampleSet: Normal
StackLeniency: 0.7
Mode: 0
LetterboxInBreaks: 1

[Editor]
Bookmarks: 15226,47697,81579
DistanceSpacing: 1
BeatDivisor: 2
GridSize: 8

[Metadata]
Title:Reach Out to the Truth
Artist:Shihoko Hirata
Creator:NoHItter
Version:Normal
Source:Shin Megami Tensei: Persona 4
Tags:Shoji Meguro SMT Atlus P4 Yunacat

[Difficulty]
HPDrainRate:4
CircleSize:3
OverallDifficulty:4
ApproachRate:4
SliderMultiplier:0.92
SliderTickRate:2

[Events]
//Background and Video events
0,0,"persona4.jpg"
//Break Periods
//Storyboard Layer 0 (Background)
//Storyboard Layer 1 (Fail)
//Storyboard Layer 2 (Pass)
//Storyboard Layer 3 (Foreground)
//Storyboard Sound Samples
//Background Colour Transformations
3,100,163,162,255

[TimingPoints]
1290,352.941176470588,4,1,1,100,1,0
1290,-100,4,1,1,100,0,1
9584,-100,4,1,1,100,0,0
9936,-100,4,1,1,80,0,0
20878,-100,4,2,0,100,0,0
42937,-100,4,1,1,100,0,0
43642,-100,4,1,1,100,0,1
54936,-100,4,1,1,100,0,0
54937,-100,4,1,1,100,0,1
65349,-100,4,1,1,100,0,0
65878,-100,4,1,1,70,0,0
88643,-100,4,1,1,100,0,0

[Colours]
Combo1 : 244,147,0
Combo2 : 3,165,3
Combo3 : 5,5,240
Combo4 : 219,4,4

[HitObjects]
256,384,584,2,0,B|256:336,1,46,4|0
144,272,1289,2,2,B|64:192|144:112,1,184,6|2
224,56,2348,5,0
256,144,2701,2,2,B|376:104|312:184|440:144,1,184,6|2
456,240,3760,5,0
416,320,4113,2,2,B|256:360|96:320,1,322,6|2
16,208,5878,2,0,B|16:112,2,92,0|2|4
96,160,6937,6,0,B|160:112|224:160,1,138,6|2
160,280,7995,1,2
214,354,8348,1,6
302,354,8701,1,2
352,280,9054,2,0,B|424:312|488:280,1,138,6|4
456,144,10113,5,8
456,56,10466,2,0,B|456:8,3,46,0|0|8|4
344,96,11525,5,8
344,184,11878,2,0,B|344:232,3,46,0|0|8|4
248,136,12937,5,8
176,192,13289,2,0,B|128:192,3,46,0|0|8|4
56,136,14172,1,0
136,88,14525,2,0,B|232:32|212:136|312:88,1,184,4|4
368,208,15760,5,8
368,304,16113,2,0,B|408:336,3,46,0|0|8|4
256,344,17172,5,8
256,248,17525,2,0,B|256:200,3,46,0|0|8|4
144,304,18584,5,8
144,208,18937,2,0,B|104:176,3,46,0|0|8|4
184,120,19819,1,0
272,96,20172,2,0,B|360:48|448:96,1,184,4|4
448,232,21407,5,8
480,320,21760,1,2
392,304,22113,1,8
304,328,22466,5,0
208,328,22819,2,0,B|112:328,2,92,8|2|8
160,248,23878,5,0
88,192,24231,1,8
160,136,24584,1,2
232,192,24937,1,8
336,104,25466,6,0,B|424:104|424:192,1,138,2|2
336,192,26348,1,8
312,328,26878,6,0,B|248:360|176:328,1,138,2|2
104,280,27760,1,8
24,232,28113,6,0,B|24:72|208:72,1,276,2|8
256,152,29525,1,2
424,72,30231,5,2
504,32,30584,1,8
504,120,30937,2,0,B|504:288|328:288,1,276,2|8
136,296,32701,5,8
64,240,33054,2,0,B|24:176|104:176|64:112,1,138,2|2
136,56,33937,1,2
216,104,34289,2,0,B|304:72|400:104,1,184,2|4
440,232,35525,5,8
456,320,35878,1,2
376,360,36231,1,8
302,304,36584,2,0,B|206:304,1,92,0|10
210,211,37289,2,0,B|306:211,1,92,0|10
176,72,38172,6,0,B|16:72|16:256,1,276,2|4
168,296,39760,1,8
256,296,40113,1,2
344,296,40466,1,8
256,192,40995,12,4,42937
256,192,43642,6,2,B|304:80|216:128|256:16,1,184,6|2
336,64,44701,5,0
416,104,45054,2,2,B|448:192|416:288,1,184,6|2
336,336,46113,5,0
236,324,46466,2,0,B|68:192|236:60,1,322,6|2
368,96,48231,2,0,B|464:96,2,92,0|2|4
416,176,49289,6,0,B|416:264|328:264,1,138,6|2
256,152,50348,1,2
256,56,50701,1,4
176,96,51054,2,0,B|120:96|120:152,2,92,2|0|2
256,192,52113,12,4,54231
256,192,54937,6,2,B|192:240|128:192,1,138,6|2
208,80,55995,5,0
304,80,56348,2,2,B|368:32|432:80,1,138,6|2
448,216,57407,5,0
411,300,57760,2,2,B|259:244|251:356|91:300,1,322,6|2
40,176,59525,2,0,B|0:88,2,92,0|2|4
104,104,60584,6,0,B|159:56|232:48,1,138,6|2
360,48,61642,1,2
452,48,61995,1,4
400,128,62348,1,2
488,128,62701,2,0,B|512:192|488:264,1,138,2|4
256,192,63407,12,4,65348
256,192,65878,5,8
320,256,66231,2,0,B|368:192|320:128,1,138,4|0
192,88,67289,5,8
128,152,67642,2,0,B|67:200|0:152,1,138,4|0
64,272,68701,5,8
136,328,69054,2,0,B|276:194|424:328,1,322,4|4
464,192,70819,2,0,B|488:144|464:96,2,92,8|0|8
384,144,71878,6,0,B|312:128|248:144,1,138,4|4
120,96,72937,1,8
120,192,73290,1,0
40,144,73642,1,8
40,240,73995,2,0,B|16:304|40:376,1,138,0|4
256,192,74701,12,4,76642
256,192,77172,5,8
344,192,77525,2,4,B|408:160|408:224|480:192,1,138,4|0
400,312,78584,5,8
320,352,78937,2,0,B|256:320|256:384|184:352,1,138,4|4
80,272,79995,5,8
16,208,80348,2,0,B|56:16|256:64,1,322,4|4
256,200,82113,2,0,B|256:296,2,92,8|0|8
336,248,83172,6,0,B|424:248|424:336,1,138,0|4
301,378,84231,1,8
213,378,84584,1,0
256,296,84937,1,8
168,296,85290,2,0,B|88:296|48:240,1,138,0|4
256,192,85995,12,4,88642
