osu file format v9

[General]
AudioFilename: Reach Out to the Truth.mp3
AudioLeadIn: 3000
PreviewTime: 42888
Countdown: 0
SampleSet: Normal
StackLeniency: 0.5
Mode: 0
LetterboxInBreaks: 1

[Editor]
DistanceSpacing: 1
BeatDivisor: 1
GridSize: 4

[Metadata]
Title:Reach Out to the Truth
Artist:Shihoko Hirata
Creator:NoHItter
Version:Insane
Source:Shin Megami Tensei: Persona 4
Tags:Shoji Meguro SMT Atlus P4 Yunacat

[Difficulty]
HPDrainRate:8
CircleSize:4
OverallDifficulty:8
ApproachRate:8
SliderMultiplier:1.72
SliderTickRate:2

[Events]
//Background and Video events
0,0,"persona4.jpg"
//Break Periods
//Storyboard Layer 0 (Background)
//Storyboard Layer 1 (Fail)
//Storyboard Layer 2 (Pass)
//Storyboard Layer 3 (Foreground)
//Storyboard Sound Samples
//Background Colour Transformations
3,100,163,162,255

[TimingPoints]
1290,352.941176470588,4,1,1,100,1,0
1290,-100,4,1,1,100,0,1
9584,-100,4,1,1,100,0,0
9936,-100,4,1,1,80,0,0
20878,-100,4,2,0,100,0,0
42937,-100,4,1,1,100,0,0
43642,-100,4,1,1,100,0,1
54936,-100,4,1,1,100,0,0
54937,-100,4,1,1,100,0,1
65349,-100,4,1,1,100,0,0
65878,-100,4,1,1,70,0,0
88643,-100,4,1,1,100,0,0

[Colours]
Combo1 : 244,147,0
Combo2 : 3,165,3
Combo3 : 5,5,240
Combo4 : 219,4,4

[HitObjects]
256,120,584,1,4
256,264,760,1,0
96,64,1290,5,6
40,128,1466,1,0
96,192,1642,1,0
40,256,1819,1,2
40,256,1907,1,0
40,256,1995,1,2
208,292,2348,5,0
384,292,2701,1,6
448,236,2878,1,0
448,148,3054,1,0
376,100,3231,1,2
376,100,3319,1,0
376,100,3407,1,2
256,224,3760,5,0
214,57,4113,1,6
298,57,4289,1,0
192,192,4642,1,6
256,132,4819,1,0
316,192,4995,1,2
256,352,5348,2,0,B|304:312|256:276|208:240|256:200,1,172,6|0
184,120,5878,5,0
120,64,6054,1,0
184,120,6231,1,2
104,148,6407,1,0
172,200,6584,1,4
256,348,6937,5,2
316,288,7113,1,0
400,312,7289,1,0
460,252,7466,1,4
256,76,7995,5,2
256,164,8172,1,0
256,248,8348,1,4
168,100,8701,1,2
344,100,9054,1,4
256,248,9407,1,2
256,248,9495,1,0
256,248,9584,1,4
108,332,9937,5,0
48,272,10113,1,8
132,256,10289,1,0
72,192,10466,1,0
156,172,10642,1,0
96,112,10819,1,8
96,112,10907,1,0
96,112,10995,1,4
252,40,11348,5,0
340,40,11525,1,8
296,112,11701,1,0
384,112,11878,1,0
432,40,12054,1,0
340,40,12231,1,8
340,40,12319,1,0
340,40,12407,1,4
302,208,12760,5,0
374,256,12937,1,8
298,292,13113,1,0
212,292,13289,1,0
140,340,13466,1,0
216,376,13642,1,8
296,376,13819,1,4
456,312,14172,1,0
480,140,14525,2,0,B|480:32|372:32,1,172,4|0
375,32,14966,1,0
375,32,15054,1,8
404,112,15231,5,4
256,196,15584,1,0
176,224,15760,1,8
172,312,15937,1,0
256,332,16113,1,0
340,312,16289,1,0
340,224,16466,1,8
340,224,16554,1,0
340,224,16642,1,4
256,76,16995,5,0
180,36,17172,1,8
184,120,17348,1,0
108,84,17525,1,0
36,132,17701,1,0
32,44,17878,1,8
32,44,17966,1,0
32,44,18054,1,4
120,192,18407,5,0
156,272,18584,1,8
208,204,18760,1,0
256,276,18937,1,0
304,204,19113,1,0
356,272,19289,1,8
392,192,19466,5,4
256,88,19819,1,0
120,192,20172,2,0,B|112:284|200:332,1,172,4|0
199,331,20613,1,0
199,331,20701,1,8
256,384,20878,5,4
424,340,21231,1,0
424,340,21319,1,0
424,340,21407,1,8
484,276,21584,1,0
484,192,21760,1,0
420,136,21937,1,0
420,136,22025,1,0
420,136,22113,1,8
260,68,22466,5,2
260,68,22554,1,0
260,68,22642,1,0
180,32,22819,1,8
104,68,22995,1,0
180,104,23172,1,2
180,104,23260,1,0
180,104,23348,1,0
180,192,23525,1,8
112,352,23878,5,2
112,352,23966,1,0
112,352,24054,1,0
44,300,24231,1,8
56,216,24407,1,0
124,268,24584,1,2
124,268,24672,1,0
124,268,24760,1,0
192,324,24937,1,8
256,76,25466,5,2
256,248,25819,1,2
256,248,25907,1,0
256,248,25995,1,0
215,171,26172,1,0
298,172,26348,2,0,B|382:172,1,86,8|0
476,352,26878,5,2
476,180,27231,1,2
476,180,27319,1,0
476,180,27407,1,0
476,92,27584,1,0
400,132,27760,1,8
256,40,28113,5,2
256,40,28201,1,0
256,40,28289,1,0
232,124,28466,1,8
148,124,28642,1,0
60,124,28819,1,2
60,124,28907,1,0
60,124,28995,1,0
36,208,29172,1,8
144,344,29525,5,2
172,88,30054,1,2
340,88,30407,1,0
256,64,30584,1,8
256,148,30760,1,2
256,148,30848,1,0
256,148,30937,1,0
184,196,31113,1,0
256,240,31289,1,8
328,196,31466,1,0
340,368,31819,1,0
255,368,31995,2,0,B|169:368,1,86,8|4
40,252,32525,5,2
40,168,32701,1,8
116,208,32878,1,0
116,124,33054,1,0
40,80,33231,1,2
40,80,33319,1,0
40,80,33407,1,8
116,36,33584,5,4
256,140,33937,1,2
396,244,34290,1,2
256,340,34642,1,0
256,256,34818,1,10
256,256,34907,1,0
256,256,34995,1,4
360,120,35348,5,2
360,120,35437,1,0
360,120,35525,1,8
298,59,35701,1,0
214,59,35878,1,0
152,120,36054,1,0
213,180,36231,2,0,B|300:180,1,86,8|4
380,208,36584,5,2
256,328,36937,1,8
172,340,37113,1,0
88,352,37289,1,0
36,284,37466,1,0
36,200,37642,1,10
36,200,37731,1,0
36,200,37819,1,4
136,60,38172,5,2
136,60,38260,1,0
136,60,38348,1,8
224,60,38525,1,0
380,136,38878,1,2
380,136,38966,1,0
380,136,39054,1,8
292,136,39231,1,4
128,192,39584,1,0
180,260,39760,1,8
214,338,39937,1,0
298,338,40113,1,0
332,260,40289,1,0
384,192,40466,1,8
256,192,40995,12,0,42760
184,192,42937,5,4
328,192,43113,1,0
144,356,43642,5,6
220,312,43819,1,0
292,268,43995,1,0
364,220,44172,1,2
364,220,44260,1,0
364,220,44348,1,2
512,284,44701,5,0
368,356,45054,1,6
292,312,45231,1,0
220,268,45407,1,0
148,220,45584,1,2
148,220,45672,1,0
148,220,45760,1,2
44,64,46113,5,0
214,45,46466,1,6
298,45,46642,1,0
176,168,46995,1,6
256,140,47172,1,0
336,168,47348,1,2
200,272,47701,2,0,B|208:200|304:200|312:272,1,172,6|0
380,328,48231,5,0
456,368,48407,1,0
380,328,48584,1,2
456,288,48760,1,0
384,240,48937,1,4
256,128,49289,5,2
208,56,49466,1,0
124,56,49642,1,0
72,128,49819,1,4
168,368,50348,5,2
256,368,50525,1,0
340,368,50701,1,4
256,216,51054,5,2
332,172,51231,1,0
404,124,51407,1,2
256,40,51760,1,2
104,124,52113,2,0,B|44:160|44:228|104:264,1,172,2|0
152,192,52642,1,0
188,272,52819,2,0,B|224:212|292:212|328:272,1,172,2|0
360,192,53348,1,0
404,116,53525,2,0,B|364:52|256:8|148:52|108:116,1,344,4|0
172,276,54584,5,0
256,276,54760,1,0
344,276,54937,1,6
436,132,55289,1,0
392,60,55466,1,0
344,132,55642,1,2
344,132,55731,1,0
344,132,55819,1,2
256,108,55995,5,0
168,132,56172,1,0
84,108,56348,1,6
184,248,56701,1,0
256,200,56877,1,0
328,248,57053,1,2
328,248,57142,1,0
328,248,57231,1,2
256,296,57407,5,0
213,371,57584,1,0
299,371,57760,1,6
404,236,58113,1,2
404,236,58201,1,0
404,236,58289,1,2
256,148,58642,2,2,B|208:188|256:224|304:260|256:300,1,172,2|6
48,144,59525,5,0
40,228,59701,1,0
48,144,59878,1,2
116,196,60054,1,0
124,112,60231,1,4
256,224,60584,5,2
256,224,60672,1,0
256,224,60760,1,2
214,299,60937,1,0
298,299,61113,1,4
480,112,61642,5,2
408,160,61819,1,0
480,208,61995,1,4
376,344,62348,1,2
255,222,62701,1,2
255,222,62789,1,0
255,222,62878,1,2
256,192,63231,12,4,65348
256,192,65878,5,8
200,260,66054,1,0
256,328,66231,1,4
308,260,66407,1,0
308,260,66495,1,0
308,260,66584,1,8
256,192,66760,1,0
44,44,67289,5,8
40,132,67466,1,0
112,88,67642,1,4
112,176,67819,1,0
112,176,67907,1,0
112,176,67995,1,8
184,128,68172,1,0
432,52,68701,5,8
488,116,68878,1,0
404,132,69054,1,4
256,220,69407,1,8
256,308,69584,1,4
84,284,69937,1,0
16,336,70113,1,8
8,252,70289,1,4
168,48,70819,5,8
168,48,70907,1,0
168,48,70995,1,0
256,48,71172,1,0
256,48,71260,1,0
256,48,71348,1,0
344,48,71525,1,8
256,196,71878,5,0
180,236,72054,1,0
256,280,72231,1,8
332,236,72407,1,4
480,36,72937,5,8
496,120,73113,1,0
484,204,73289,1,4
325,270,73642,2,0,B|289:210|221:210|185:270,1,172,8|4
256,304,74172,1,0
124,196,74525,5,4
48,156,74701,1,0
48,68,74878,1,0
124,108,75054,1,8
124,20,75231,1,0
196,64,75407,1,4
212,148,75584,1,0
300,148,75760,1,8
316,64,75937,1,0
388,20,76113,2,0,B|452:60|496:168|452:276|388:316,1,344,4|0
256,204,77172,5,8
212,276,77348,1,0
216,364,77525,1,4
300,364,77701,1,0
300,364,77789,1,0
300,364,77878,1,8
300,276,78054,1,0
84,136,78584,5,8
168,136,78760,1,0
256,140,78937,1,4
340,140,79113,1,0
340,140,79201,1,0
340,140,79289,1,8
428,140,79466,1,0
256,332,79995,5,8
212,256,80172,1,0
300,256,80348,1,4
212,108,80701,2,0,B|312:108,1,86,8|4
170,183,81231,2,0,B|374:183,1,172,0|4
472,348,82113,5,8
472,348,82201,1,0
472,348,82289,1,0
384,348,82466,1,0
384,348,82554,1,0
384,348,82642,1,0
428,272,82819,1,8
328,132,83172,5,0
256,84,83348,1,0
256,172,83525,1,8
184,132,83701,1,4
48,352,84231,5,8
132,352,84407,1,0
220,352,84584,1,4
256,184,84937,1,8
292,352,85289,1,0
292,352,85378,1,0
292,352,85466,1,4
256,192,85819,12,4,88642
