osu file format v9

[General]
AudioFilename: Reach Out to the Truth.mp3
AudioLeadIn: 3000
PreviewTime: 42888
Countdown: 0
SampleSet: Normal
StackLeniency: 0.7
Mode: 0
LetterboxInBreaks: 1

[Editor]
DistanceSpacing: 1
BeatDivisor: 2
GridSize: 8

[Metadata]
Title:Reach Out to the Truth
Artist:Shihoko Hirata
Creator:NoHItter
Version:Easy
Source:Shin Megami Tensei: Persona 4
Tags:Shoji Meguro SMT Atlus P4 Yunacat

[Difficulty]
HPDrainRate:2
CircleSize:3
OverallDifficulty:2
ApproachRate:2
SliderMultiplier:0.72
SliderTickRate:1

[Events]
//Background and Video events
0,0,"persona4.jpg"
//Break Periods
//Storyboard Layer 0 (Background)
//Storyboard Layer 1 (Fail)
//Storyboard Layer 2 (Pass)
//Storyboard Layer 3 (Foreground)
//Storyboard Sound Samples
//Background Colour Transformations
3,100,163,162,255

[TimingPoints]
1290,352.941176470588,4,1,1,100,1,0
1290,-100,4,1,1,100,0,1
9584,-100,4,1,1,100,0,0
9936,-100,4,1,1,80,0,0
20878,-100,4,2,0,100,0,0
42937,-100,4,1,1,100,0,0
43642,-100,4,1,1,100,0,1
54936,-100,4,1,1,100,0,0
54937,-100,4,1,1,100,0,1
65349,-100,4,1,1,100,0,0
65878,-100,4,1,1,70,0,0
88643,-100,4,1,1,100,0,0

[Colours]
Combo1 : 244,147,0
Combo2 : 3,165,3
Combo3 : 5,5,240
Combo4 : 219,4,4

[HitObjects]
256,344,584,1,4
368,256,1289,2,2,B|432:192|368:128,1,144,6|2
240,192,2701,2,2,B|176:256|112:192,1,144,6|2
136,48,4113,6,2,B|256:120|376:48,1,252,6|2
432,136,5878,2,0,B|432:208,2,72,0|2|4
352,176,6937,6,0,B|296:152|248:176,1,108,2|6
256,288,7995,1,2
256,368,8348,1,6
184,328,8701,2,0,B|96:360|8:328,1,180,2|4
56,232,10113,5,8
56,152,10466,2,0,B|80:128|32:72|56:48,1,108,0|4
160,80,11525,5,8
240,80,11878,2,0,B|292:54|352:80,1,108,0|4
432,144,12937,5,8
456,224,13289,2,0,B|488:272|456:328,1,108,0|4
376,352,14172,1,0
296,328,14525,2,0,B|224:304|152:328,1,144,4|4
104,232,15760,5,8
176,192,16113,2,0,B|200:168|256:216|280:192,1,108,0|4
384,192,17172,5,8
384,112,17525,2,0,B|384:48|312:48,1,108,0|4
200,48,18584,5,8
176,128,18937,2,0,B|152:184|176:232,1,108,0|4
200,312,19819,1,0
280,312,20172,2,0,B|352:280|424:312,1,144,4|4
440,208,21407,5,8
328,112,22113,1,2
184,112,22819,1,8
72,208,23525,1,2
184,296,24231,5,8
328,296,24937,1,2
256,168,25642,2,0,B|296:128|256:104|216:80|256:40,1,144,8|2
392,80,27054,5,8
480,192,27760,1,2
392,304,28466,1,8
304,192,29172,1,2
160,192,29878,6,0,B|72:192|72:296,1,144,8|2
200,352,31289,2,0,B|288:352|288:248,1,144,8|2
256,120,32701,5,8
328,248,33407,1,2
344,104,34113,1,8
416,232,34819,1,2
328,344,35525,5,8
184,344,36231,1,2
56,264,36937,2,0,B|24:192|56:120,1,144,8|2
184,64,38348,5,8
328,64,39054,1,2
256,192,39760,2,0,B|280:232|256:256|224:288|256:328,1,144,8|2
256,192,40995,12,4,42937
256,192,43642,6,2,B|288:168|328:192|368:216|392:192,1,144,6|2
288,88,45054,2,2,B|256:64|216:88|176:112|152:88,1,144,6|2
48,192,46466,6,2,B|48:352|200:352,1,252,6|2
304,368,48231,2,0,B|304:288,2,72,0|2|4
384,352,49289,6,0,B|448:352|448:280,1,108,2|6
368,216,50348,2,0,B|312:216|296:216,1,72,2|6
216,216,51054,2,2,B|160:216|144:216,2,72,2|6|2
256,192,52113,12,4,54231
256,192,54937,6,2,B|176:192|176:296,1,144,6|2
256,368,56348,2,2,B|336:368|336:264,1,144,6|2
376,128,57760,6,2,B|256:72|256:176|128:128,1,252,6|2
72,40,59525,2,0,B|0:40,2,72,0|2|4
160,40,60584,6,0,B|213:72|264:40,1,108,2|6
368,40,61642,1,2
448,40,61995,1,6
408,112,62348,2,0,B|448:200|416:288,1,180,2|4
256,192,63407,12,4,65348
256,192,66231,6,0,B|184:128|256:72,1,144,8|0
399,72,67642,2,0,B|471:136|399:192,1,144,8|0
376,336,69054,6,0,B|256:264|136:336,1,252,8|0
48,272,70819,2,0,B|48:192,2,72,0|8|4
128,232,71878,6,0,B|160:176|128:128,1,108,8|0
221,73,72937,2,0,B|293:73,2,72,0|8|0
256,152,73995,2,0,B|224:208|256:256,1,108,0|4
256,192,74701,12,4,76642
256,192,77525,6,0,B|232:264|288:264|256:336,1,144,8|0
344,224,78937,2,0,B|416:200|416:256|488:224,1,144,8|0
376,128,80348,6,0,B|256:56|136:128,1,252,8|0
56,200,82113,2,0,B|0:248,2,72,0|8|0
144,200,83172,6,0,B|256:200,1,108,8|0
192,288,84231,1,0
256,336,84584,1,8
320,288,84937,2,0,B|504:288,1,180,0|4
256,192,85995,12,4,88642
