osu file format v6

[General]
AudioFilename: 01 - Pursuing My True Self.mp3
AudioLeadIn: 0
PreviewTime: -1
Countdown: 1
SampleSet: None
StackLeniency: 0.7
Mode: 0
LetterboxInBreaks: 1

[Editor]
Bookmarks: 86928
DistanceSpacing: 0.800000011920929
BeatDivisor: 4
GridSize: 32

[Metadata]
Title:Pursuing My True Self
Artist:Shihoko Hirata
Creator:drcinnamon
Version:
Source:
Tags:

[Difficulty]
HPDrainRate:5
CircleSize:5
OverallDifficulty:5
SliderMultiplier:1.4
SliderTickRate:1

[Events]
//Background and Video events
0,0,"backdrop.png"
//Break Periods
2,39773,49530
//Storyboard Layer 0 (Background)
//Storyboard Layer 1 (Fail)
//Storyboard Layer 2 (Pass)
//Storyboard Layer 3 (Foreground)
//Storyboard Sound Samples
//Background Colour Transformations
3,100,255,255,0

[TimingPoints]
9697.52892561983,495.867768595041,4,0,0,100,1,0

[Colours]
Combo1 : 0,64,128
Combo2 : 0,0,0
Combo3 : 255,236,0
Combo4 : 0,128,0

[HitObjects]
64,192,9697,1,0
128,160,9945,1,0
192,128,10193,1,0
256,96,10317,1,0
384,96,10689,1,0
384,96,11061,2,0,C|480:224|352:320,1,315
96,192,14160,1,0
320,192,14408,1,0
160,256,14780,1,0
288,192,15028,1,0
160,128,16019,1,0
224,192,16267,1,0
128,224,16639,1,0
256,320,16887,1,0
192,128,18251,5,0
352,160,18623,1,0
320,224,18995,2,0,C|160:320|0:160|96:64,1,735
96,192,22218,5,0
256,192,22466,1,0
192,288,22961,1,0
192,224,23209,1,0
352,256,24201,1,0
256,224,24449,1,0
128,288,24821,1,0
128,192,25069,1,0
64,128,26680,6,0,C|256:32|448:128,1,420
448,192,28416,6,0,C|256:256,1,175
281,247,29160,1,8
224,256,29284,2,0,C|32:192,1,175
256,192,30771,12,0,32507
160,224,34119,5,0
128,192,34366,1,0
192,160,34614,1,0
224,192,34862,1,0
256,128,34986,1,0
288,160,35234,1,0
256,192,35854,12,0,37466
64,160,38705,5,0
128,160,38953,1,0
192,160,39201,1,0
256,160,39325,1,0
320,160,39573,1,0
256,192,50730,12,0,54325
128,192,55069,5,0
192,160,55317,1,0
256,96,55565,1,0
352,96,55937,1,0
384,128,56185,1,0
416,32,56433,2,0,C|480:224|320:352,1,385
256,192,58044,1,8
64,96,58664,5,0
160,96,58912,1,0
256,96,59408,1,0
352,96,59656,1,0
448,192,60152,5,0
384,224,60400,1,0
224,224,60771,1,0
160,192,61019,1,0
96,160,61267,1,0
96,256,62135,5,0
224,256,62507,1,0
320,224,63251,5,0
416,224,63499,1,0
448,288,63871,1,0
352,320,64490,1,0
224,320,64986,1,0
96,256,65482,1,0
224,224,65854,1,0
352,192,66102,1,0
256,192,67218,12,0,70937
224,160,72424,5,0
288,160,72672,1,8
352,160,72920,1,0
416,160,73168,1,8
256,192,74036,12,0,79366
160,160,83333,5,8
224,160,83581,1,8
