osu file format v5

[General]
AudioFilename: Pursuing My True Self.mp3
AudioLeadIn: 0
PreviewTime: -1
Countdown: 1
SampleSet: Soft
StackLeniency: 0.7
Mode: 0
LetterboxInBreaks: 1

[Metadata]
Title:Pursuing My True Self
Artist:Shihoko Hirata
Creator:Egg1991
Version:Normal
Source:
Tags:

[Difficulty]
HPDrainRate:5
CircleSize:4
OverallDifficulty:5
SliderMultiplier:1.4
SliderTickRate:2

[Events]
//Background and Video events
0,0,"Persona 4.jpg"
1,1299,"Persona 4 Opening.avi"
//Break Periods
//Storyboard Layer 0 (Background)
//Storyboard Layer 1 (Failing)
//Storyboard Layer 2 (Passing)
//Storyboard Layer 3 (Foreground)
//Storyboard Sound Samples
//Background Colour Transformations
3,100,163,162,255

[TimingPoints]
10110,504.201680672269,4,2,0,100,1
13113,-100,4,1,0,100,0
17399,-100,4,2,0,100,0
21181,-100,4,1,0,100,0
26477,-100,4,2,0,100,0
57743,-100,4,1,0,100,0
57995,-100,4,2,0,100,0
58751,-100,4,1,0,100,0
76528,-100,4,1,0,100,0

[Colours]
Combo1 : 0,128,64
Combo2 : 255,255,0
Combo3 : 70,70,70
Combo4 : 53,53,255

[HitObjects]
136,88,9605,1,0
208,88,9857,1,0
280,88,10109,1,2
392,88,10488,1,0
336,192,10866,1,4
256,192,11118,12,0,13135
144,80,14143,5,0
216,80,14395,1,0
288,80,14647,1,0
288,80,14773,1,0
360,80,15025,1,0
368,304,16160,5,0
296,304,16412,1,0
224,304,16664,1,0
224,304,16790,1,0
152,304,17042,1,0
152,112,17673,5,0
224,88,17925,1,0
296,96,18177,2,2,B|360:96|384:152,2,105
288,168,19185,1,4
256,192,19311,12,0,21202
368,304,22210,5,0
296,304,22462,1,0
224,304,22715,1,0
224,304,22841,1,0
152,304,23093,1,0
144,80,24227,5,0
216,80,24479,1,0
288,80,24731,1,0
288,80,24857,1,0
360,80,25109,1,0
256,192,26496,5,0
256,192,26622,1,0
136,192,27000,1,0
136,120,27252,1,0
184,64,27504,1,0
256,64,27757,1,2
328,64,28009,1,0
376,120,28261,1,0
376,272,28765,5,2
304,272,29017,1,0
232,272,29269,1,2
112,272,29647,1,2
304,24,30278,5,2
344,88,30530,1,0
264,88,30782,1,2
112,88,31286,5,2
72,152,31538,1,0
152,152,31790,1,2
296,192,32294,1,0
368,192,32546,1,0
328,296,32925,1,0
208,296,33303,1,0
88,296,33681,1,0
96,112,34311,5,0
152,64,34563,1,0
168,136,34815,1,0
248,216,35194,1,2
320,216,35446,1,0
328,96,35824,5,0
400,96,36076,1,0
472,96,36328,1,2
472,208,36706,1,0
472,320,37084,1,0
400,320,37336,1,2
280,320,37715,1,0
208,56,38471,6,0,B|328:56,2,105
440,160,40109,5,0
440,232,40362,1,0
328,192,40740,1,0
256,192,40992,1,0
184,192,41244,1,0
64,192,41622,1,0
64,112,41874,5,4
392,168,42883,5,0
336,104,43135,1,0
256,88,43387,2,2,B|192:88|152:160,2,105
256,168,44395,2,2,B|256:320,1,140,2|2
136,304,45278,2,2,B|72:304|32:232,1,105
392,64,46916,5,0
320,64,47168,1,0
248,64,47420,2,0,B|120:64,1,105,0|0
184,136,48177,2,2,B|264:176|336:128,1,140
392,128,48933,1,2
384,200,49185,2,2,B|344:264|288:336|256:336|224:336|144:232|128:176,1,350,2|6
120,48,50950,5,0
176,104,51202,1,0
256,88,51454,2,2,B|320:88|360:160,2,105
256,168,52462,2,2,B|256:320,1,140,2|2
376,304,53345,2,2,B|440:304|480:232,1,105
304,88,54983,5,2
256,32,55236,1,0
208,88,55488,1,2
136,176,55866,1,0
248,176,56244,1,0
320,176,56496,2,6,B|392:152|432:192,2,105,2|2|2
296,24,57757,5,0
224,24,58009,1,4
80,216,58765,5,0
128,160,59017,1,0
280,184,59521,2,0,B|304:240|280:288,2,105
208,184,60530,2,0,B|184:240|208:288,2,105
248,120,61538,1,0
400,120,62042,1,0
400,272,62546,1,4
256,88,63303,5,0
256,88,63555,1,0
144,88,63933,1,0
136,200,64311,2,0,B|288:200,1,140
304,272,65067,2,0,B|144:272,1,140
232,360,65950,1,0
440,192,66832,5,0
392,128,67084,2,0,B|336:64|264:64,1,140
160,64,67967,1,0
48,64,68345,1,0
48,64,68597,1,0
48,176,68975,1,0
160,176,69353,1,0
160,176,69605,1,0
104,320,70110,1,0
368,104,70866,5,0
312,48,71118,1,0
200,48,71622,1,0
144,104,71874,1,0
144,280,72378,5,0
200,336,72631,1,0
312,336,73135,1,0
368,280,73387,1,0
256,192,73891,12,0,75656
144,80,76664,5,0
216,80,76916,1,0
288,80,77168,1,0
288,80,77294,1,0
360,80,77546,1,0
368,304,78681,5,0
296,304,78933,1,0
224,304,79185,1,0
224,304,79311,1,0
152,304,79563,1,0
368,80,80698,5,0
296,80,80950,1,0
224,80,81202,1,0
224,80,81328,1,0
152,80,81580,1,0
144,304,82715,5,0
216,304,82967,1,0
288,304,83219,1,0
288,304,83345,1,0
360,304,83597,1,0
