osu file format v9

[General]
AudioFilename: 204 Heartbeat, Heartbreak.mp3
AudioLeadIn: 1500
PreviewTime: 29307
Countdown: 0
SampleSet: Soft
StackLeniency: 0.7
Mode: 0
LetterboxInBreaks: 1

[Editor]
DistanceSpacing: 1.1
BeatDivisor: 8
GridSize: 8

[Metadata]
Title:Heartbeat, Heartbreak
Artist:Shihoko Hirata
Creator:Louis Cyphre
Version:Normal
Source:Shin Megami Tensei: Persona 4
Tags:Shoji Meguro Chie Satonaka Yukiko Amagi Kanji Tatsumi Naoto Shirogane Yosuke Hanamura Rise Kujikawa Teddie Velvet Room Igor Margaret SMT P4 ATLUS Perusona Katsuro Hashino IceBeam -maju souji seta

[Difficulty]
HPDrainRate:3
CircleSize:4
OverallDifficulty:3
ApproachRate:3
SliderMultiplier:1.5
SliderTickRate:2

[Events]
//Background and Video events
0,0,"BG for my map.png"
//Break Periods
2,67964,75924
//Storyboard Layer 0 (Background)
//Storyboard Layer 1 (Fail)
//Storyboard Layer 2 (Pass)
//Storyboard Layer 3 (Foreground)
//Storyboard Sound Samples
//Background Colour Transformations
3,100,163,162,255

[TimingPoints]
564,600,4,2,1,50,1,0
10614,-100,4,2,2,50,0,0
10914,-100,4,2,1,50,0,0
13014,-100,4,2,2,50,0,0
13314,-100,4,2,1,50,0,0
15414,-100,4,2,2,50,0,0
15714,-100,4,2,1,50,0,0
17814,-100,4,2,2,50,0,0
18114,-100,4,2,1,50,0,0
20289,-100,4,2,2,50,0,0
20439,-100,4,2,1,50,0,0
29364,-100,4,2,1,50,0,1
48564,-100,4,2,1,50,0,0
61089,-100,4,2,2,50,0,0
61239,-100,4,2,1,50,0,0
80289,-100,4,2,2,50,0,0
80439,-100,4,2,1,50,0,0
82689,-100,4,2,2,50,0,0
82839,-100,4,2,1,50,0,0
83889,-100,4,2,2,50,0,0
84039,-100,4,2,1,50,0,0
85089,-100,4,2,2,50,0,0
85239,-100,4,2,1,50,0,0
89889,-100,4,2,2,50,0,0
90039,-100,4,2,1,50,0,0
91089,-100,4,2,2,50,0,0
91239,-100,4,2,1,50,0,0
96564,-100,4,2,1,50,0,1
115764,-100,4,2,1,50,0,0

[Colours]
Combo1 : 255,0,0
Combo2 : 0,255,0
Combo3 : 0,0,128
Combo4 : 255,128,0

[HitObjects]
256,192,564,2,0,B|328:192|328:232|416:232,1,150,2|8
392,152,1464,1,0
472,168,1764,2,0,B|472:72|368:72,2,150,0|8|0
320,240,3564,6,0,B|296:272|256:288|216:272|192:240,1,150,8|0
256,192,4464,1,0
192,144,4764,2,0,B|216:112|256:96|296:112|320:144,1,150,8|2
408,280,5964,5,8
256,344,6564,1,0
104,280,7164,1,8
24,280,7464,1,0
24,112,8064,5,2
104,112,8364,2,0,B|128:80|168:64|208:80|232:112,1,150,8|0
256,192,9264,1,0
280,272,9564,2,0,B|303:303|343:319|383:303|407:271,1,150,8|4
344,224,10464,6,0,B|344:184|344:184|376:184|432:192|464:152|480:104|480:104|464:56|440:16|360:16,1,375,0|8
296,72,12264,1,0
216,72,12564,1,2
152,16,12864,6,0,B|72:16|48:56|32:104|32:104|48:152|80:192|136:184|168:184|168:184|168:224,1,375,0|8
218,290,14664,2,0,B|314:290,1,75,0|2
256,215,15264,6,0,B|320:183|408:199|408:199|424:119|392:39|288:39,1,375,0|8
256,112,17064,1,0
213,41,17364,6,0,B|123:40|91:120|107:200|107:200|195:184|259:216,1,375,2|0
256,296,19164,1,8
384,192,19764,1,2
384,112,20064,6,0,B|384:40|312:40,1,112.5,0|0
192,40,20964,2,0,B|104:40|104:136,2,150,0|8|2
256,88,22464,5,0
176,120,22764,2,0,B|152:200|176:272,1,150,8|0
256,296,23664,1,0
336,272,23964,2,0,B|358:204|334:124,1,150,8|2
168,104,25164,5,8
32,192,25764,1,0
168,288,26364,1,8
344,288,26964,5,2
480,192,27564,1,8
344,104,28164,1,0
168,104,28764,1,8
192,264,29364,6,0,B|215:295|255:311|295:295|319:263,1,150,4|8
256,208,30264,1,0
192,152,30564,2,0,B|216:120|256:104|296:120|320:152,1,150,0|8
392,192,31464,1,0
336,344,32064,5,2
256,312,32364,1,8
176,344,32664,1,0
96,320,32964,2,0,B|64:296|48:256|64:216|96:192,1,150,0|8
192,56,34164,6,0,B|215:24|255:8|295:24|319:56,1,150,2|8
416,192,35364,2,0,B|447:215|463:255|447:295|415:319,1,150,0|8
360,256,36264,1,0
320,96,36864,5,2
256,40,37164,1,8
192,96,37464,1,0
256,152,37764,2,0,B|272:216|240:248|256:304,1,150,0|8
168,160,38964,6,0,B|184:224|152:256|168:312,1,150,2|8
344,304,40164,2,0,B|328:251|360:219|344:155,1,150,0|8
256,160,41064,1,0
112,80,41664,5,2
48,136,41964,1,8
112,192,42264,1,0
48,248,42564,2,0,B|48:304|48:304|112:304|112:360,1,150,0|8
280,344,43764,5,2
320,272,44064,1,0
280,200,44364,1,8
232,40,44964,5,0
192,112,45264,1,0
232,184,45564,1,8
272,112,45864,1,0
408,24,46464,5,2
472,80,46764,1,8
408,136,47064,1,0
472,192,47364,2,0,B|472:248|472:248|408:248|408:304,1,150,0|8
256,232,48564,6,0,B|248:200|240:184|248:168|264:144|272:128|264:112|256:80,1,150,4|8
120,176,49764,2,0,B|128:208|136:224|128:240|112:264|104:280|112:296|120:328,1,150,0|8
200,296,50664,1,0
328,192,51264,1,2
400,240,51564,2,0,B|408:208|416:192|408:176|392:152|384:136|392:120|400:88,1,150,8|0
256,184,52764,1,8
104,128,53364,5,2
48,192,53664,1,0
104,256,53964,1,8
256,328,54564,2,0,B|256:168,1,150,0|8
256,96,55464,1,0
416,128,56064,5,2
472,192,56364,1,8
416,256,56664,1,0
360,192,56964,2,0,B|288:192|288:240|216:240,1,150,0|8
152,88,58164,6,0,B|224:88|224:40|296:40,1,150,2|8
208,184,59364,2,0,B|216:248|296:248|304:184,1,150,0|8
256,112,60264,1,0
416,144,60864,6,0,B|480:152|480:232|415:240,1,150,2|0
336,256,61764,2,0,B|271:264|271:344|336:352,1,150,0|8
256,208,62964,5,2
304,144,63264,1,0
256,72,63564,1,8
144,192,64164,1,0
176,272,64464,1,0
256,296,64764,1,8
336,272,65064,6,0,B|416:240|416:152,1,150,0|2
336,184,65964,1,8
256,40,66564,2,0,B|159:40|159:128,1,150,0|8
240,120,67464,1,0
304,176,67764,1,4
336,288,77364,5,4
416,288,77664,2,0,B|472:344,2,75,0|8|0
416,208,78564,1,0
256,160,79164,1,8
96,192,79764,1,2
168,240,80064,6,0,B|200:296|256:328|312:296|344:240,1,225
344,72,81564,1,8
168,72,82164,1,2
160,152,82464,6,0,B|160:216|160:216|192:248|192:296,1,150
256,240,83364,1,0
320,293,83664,2,0,B|320:248|352:216|352:216|352:152,1,150
356,72,84564,6,0,B|320:80|288:72|256:32|256:32|224:72|192:80|160:72,2,225,2|0|8
256,200,86964,1,2
336,232,87264,1,0
416,200,87564,1,8
328,64,88164,5,0
256,24,88464,1,0
184,64,88764,1,8
256,112,89064,2,0,B|256:208,1,75,0|2
176,216,89664,6,0,B|192:264|224:288|256:296|288:288|320:264|336:216,2,225
256,192,91764,1,2
352,56,92364,5,8
448,192,92964,1,0
352,328,93564,1,8
192,304,94164,6,0,B|160:328|104:320|96:264|120:232,1,150,2|8
192,80,95364,2,0,B|160:56|104:64|96:120|120:152,1,150,0|8
280,112,96564,1,4
280,272,97164,1,8
360,128,97764,5,0
416,192,98064,1,0
360,256,98364,1,8
328,336,98664,6,0,B|288:320|272:344|256:336|256:336|240:328|216:352|176:336,1,150,0|2
96,320,99564,1,8
48,256,99864,2,0,B|62:221|38:197|46:181|46:181|54:165|30:149|46:109,1,150,0|0
48,24,100764,1,8
192,104,101364,6,0,B|216:72|256:56|296:72|320:104,1,150,2|8
208,224,102564,2,0,B|176:247|160:287|176:327|208:351,1,150,0|8
256,288,103464,1,0
416,240,104064,5,2
480,192,104364,1,8
416,144,104664,1,0
352,192,104964,1,0
256,56,105564,1,8
168,192,106164,5,2
184,272,106464,1,0
256,312,106764,1,8
320,160,107364,5,0
360,88,107664,1,0
288,48,107964,1,8
248,120,108264,1,0
104,200,108864,5,2
104,280,109164,1,8
176,328,109464,1,0
256,304,109764,1,0
376,192,110364,1,8
256,72,110964,5,2
184,112,111264,1,0
256,152,111564,1,8
256,320,112164,1,0
328,280,112464,1,0
256,240,112764,1,8
184,280,113064,1,0
142,120,113664,5,2
215,82,113964,1,8
297,82,114264,1,0
370,120,114564,1,0
344,280,115164,1,8
168,280,115764,1,4
