osu file format v9

[General]
AudioFilename: 204 Heartbeat, Heartbreak.mp3
AudioLeadIn: 1500
PreviewTime: 29307
Countdown: 0
SampleSet: Soft
StackLeniency: 0.7
Mode: 0
LetterboxInBreaks: 1

[Editor]
DistanceSpacing: 0.8
BeatDivisor: 8
GridSize: 8

[Metadata]
Title:Heartbeat, Heartbreak
Artist:Shihoko Hirata
Creator:Louis Cyphre
Version:Hard
Source:Shin Megami Tensei: Persona 4
Tags:Shoji Meguro Chie Satonaka Yukiko Amagi Kanji Tatsumi Naoto Shirogane Yosuke Hanamura Rise Kujikawa Teddie Velvet Room Igor Margaret SMT P4 ATLUS Perusona Katsuro Hashino IceBeam -maju souji seta

[Difficulty]
HPDrainRate:5
CircleSize:4
OverallDifficulty:6
ApproachRate:7
SliderMultiplier:2
SliderTickRate:2

[Events]
//Background and Video events
0,0,"BG for my map.png"
//Break Periods
2,67964,76464
//Storyboard Layer 0 (Background)
//Storyboard Layer 1 (Fail)
//Storyboard Layer 2 (Pass)
//Storyboard Layer 3 (Foreground)
//Storyboard Sound Samples
//Background Colour Transformations
3,100,163,162,255

[TimingPoints]
564,600,4,2,1,50,1,0
29364,-100,4,2,1,50,0,1
48564,-100,4,2,1,50,0,0
96564,-100,4,2,1,50,0,1
115764,-100,4,2,1,50,0,0

[Colours]
Combo1 : 255,0,0
Combo2 : 0,255,0
Combo3 : 0,0,128
Combo4 : 255,128,0

[HitObjects]
176,192,564,1,2
216,264,864,1,0
256,280,1014,1,0
296,264,1164,1,8
336,192,1464,1,0
256,192,1764,1,0
216,120,2064,5,0
256,104,2214,1,0
296,120,2364,1,8
328,48,2664,2,0,B|384:40|432:48,1,100
184,48,3264,6,0,B|128:40|80:48,1,100,2|8
112,80,3714,2,0,B|72:120|72:168,1,100
104,200,4164,2,0,B|104:256|144:296,2,100,0|0|8
184,224,5064,1,0
256,192,5364,5,2
328,224,5664,2,0,B|384:216|376:240|432:232,1,100,0|8
184,224,6264,2,0,B|128:216|136:240|80:232,1,100
224,112,6864,1,0
256,88,7014,1,0
288,112,7164,1,8
256,176,7464,1,0
256,248,7764,1,0
320,280,8064,6,0,B|368:296|424:280,1,100,2|8
408,240,8514,2,0,B|456:208|464:144,1,100
424,144,8964,2,0,B|424:88|400:48,1,100
400,48,9414,1,0
400,48,9564,1,8
320,72,9864,1,0
272,136,10164,1,4
296,208,10464,6,0,B|344:232|376:288,2,100,0|8|0
272,240,11214,2,0,B|256:296,1,50,0|0
152,192,11664,1,0
257,96,11964,1,10
360,192,12264,1,0
257,288,12564,1,2
176,280,12864,5,0
152,296,13014,1,0
168,192,13314,1,0
144,192,13464,1,0
176,104,13764,5,0
152,88,13914,1,0
256,80,14214,1,0
256,56,14364,1,8
336,104,14664,1,0
336,104,14814,2,0,B|360:80,2,25,0|0|2
400,160,15264,6,0,B|400:216|376:256,1,100,0|8
320,192,15864,1,0
256,240,16164,2,0,B|240:176|264:128,1,100
224,72,16764,2,0,B|176:128|128:136,1,100,8|0
64,136,17364,6,0,B|32:192|40:256,1,100,2|0
64,264,17814,1,0
40,296,17964,1,8
256,232,18264,2,0,B|256:344,2,100
256,160,19164,1,8
256,88,19464,2,0,B|256:16,2,50,0|0|2
432,192,20064,6,0,B|448:248|432:296,1,100,0|8
433,290,20514,1,0
80,192,20964,2,0,B|64:248|80:296,1,100
78,290,21414,1,0
78,290,21564,1,8
256,192,21864,2,0,B|248:136|264:136|256:88,1,100,0|2
328,136,22464,6,0,B|392:128|456:144,1,100,0|8
427,138,22914,1,0
184,248,23364,6,0,B|120:256|56:240,1,100
84,245,23814,1,0
84,245,23964,1,8
136,184,24264,1,0
88,120,24564,1,2
160,96,24864,6,0,B|168:48,2,50,0|0|8
200,112,25314,1,0
208,160,25464,2,0,B|256:192|312:192,1,100
256,256,26064,1,0
336,264,26364,1,8
288,328,26664,1,0
368,336,26964,6,0,B|472:336|472:224,2,150,2|0|0
384,256,28164,2,0,B|304:272|280:176,1,100
264,248,28614,2,0,B|216:256,1,50,0|8
160,192,29064,1,0
224,144,29364,6,0,B|264:104|272:48,1,100,4|0
312,64,29814,2,0,B|336:120,1,50,0|8
368,104,30114,2,0,B|392:152,1,50
416,272,30564,6,0,B|376:312|368:368,1,100
336,344,31014,2,0,B|312:288,1,50,0|8
208,296,31464,6,0,B|160:256|152:200,1,100
304,88,32064,2,0,B|352:128|360:184,1,100,2|8
357,170,32514,1,0
240,168,32964,2,0,B|200:128|152:128,2,100,0|0|8
168,208,33864,1,0
96,240,34164,6,0,B|128:288|192:288,1,100,2|0
179,287,34614,1,0
179,287,34764,1,8
256,320,35064,1,0
328,288,35364,5,0
352,216,35664,2,0,B|408:216,2,50,0|0|8
328,136,36264,6,0,B|336:80|320:24,1,100
256,80,36864,2,0,B|216:104|160:96,1,100,2|8
159,95,37314,1,0
136,216,37764,2,0,B|168:312|288:344,1,200,0|8
288,264,38664,1,0
360,232,38964,6,0,B|328:176|336:112,1,100,2|0
296,128,39414,2,0,B|280:56,1,50,0|8
248,104,39714,2,0,B|232:40,1,50
120,104,40164,5,0
136,184,40464,1,0
104,256,40764,1,8
184,264,41064,6,0,B|264:344|400:328,1,200,0|2
336,256,41964,1,8
336,256,42114,1,0
336,256,42264,1,0
416,256,42564,2,0,B|472:168|400:48,1,200,0|8
336,104,43464,1,0
256,96,43764,6,0,B|160:136|56:112,1,200,2|8
32,192,44664,1,0
59,271,44964,2,0,B|160:248|256:288,1,200,0|8
336,304,45864,6,0,B|456:352,2,100,0|0|2
376,232,46764,1,8
328,168,47064,1,0
256,192,47364,6,0,B|136:208|112:80,1,200
192,96,48264,1,0
256,48,48564,6,0,B|328:32|328:32|376:80|456:72,1,200,4|8
400,144,49464,1,0
480,168,49764,2,0,B|448:216|448:216|464:312|368:336,1,200,0|8
368,240,50664,6,0,B|336:200|272:192,1,100
288,272,51264,2,0,B|256:320|192:320,1,100,2|8
216,240,51864,1,0
144,208,52164,2,0,B|176:160|240:160,1,100
256,88,52764,1,8
328,128,53064,1,0
304,200,53364,6,0,B|352:232|352:288,1,100,2|0
272,280,53964,1,8
200,312,54264,1,0
120,320,54564,2,0,B|120:264|160:232,1,100
160,152,55164,2,0,B|160:96|104:64,1,100,8|0
80,144,55764,5,0
160,152,56064,2,0,B|216:160|256:128,2,100,2|8|0
112,216,56964,2,0,B|104:280|128:320,1,100
200,328,57564,1,8
256,272,57864,1,0
216,208,58164,6,0,B|288:136|408:152,1,200,2|8
408,232,59064,1,0
328,256,59364,2,0,B|280:160|344:32,1,200,0|8
256,40,60264,2,0,B|136:96,1,100
80,216,60864,6,0,B|200:160,1,100,2|8
170,173,61314,1,0
288,192,61764,2,0,B|376:272,2,100,0|0|8
240,128,62664,1,0
296,72,62964,6,0,B|408:56|504:144,1,200,2|8
432,192,63864,1,0
360,160,64164,2,0,B|256:208|256:328,1,200,0|8
328,360,65064,5,0
400,336,65364,1,0
344,280,65664,2,0,B|392:256|392:192,1,100,2|8
391,198,66114,1,0
392,80,66564,6,0,B|272:80|320:152|208:152,1,200,0|8
216,64,67464,2,0,B|160:24,2,50,0|0|4
256,192,77364,5,4
320,240,77664,2,0,B|360:208|360:144,2,100,0|8|0
368,264,78414,2,0,B|424:264,1,50
256,320,78864,1,0
128,264,79164,2,0,B|104:208|128:168,1,100,8|0
192,216,79764,1,2
192,136,80064,5,0
184,128,80214,1,0
216,56,80514,5,0
208,48,80664,1,0
288,72,80964,5,0
296,80,81114,1,0
264,152,81414,5,0
272,160,81564,1,8
352,144,81864,1,0
352,144,82014,2,0,B|384:168,2,25,0|0|2
320,216,82464,6,0,B|328:272|368:320,1,100,0|8
320,312,82914,2,0,B|264:336|200:312,1,100
224,280,83364,2,0,B|168:248|160:184,2,100,0|0|8
240,200,84264,1,0
320,200,84564,6,0,B|440:224,1,100,2|0
418,219,85014,1,0
418,219,85164,1,8
416,136,85464,2,0,B|408:80|368:48,2,100
336,128,86364,1,8
256,128,86664,2,0,B|256:192|320:216,1,100,0|2
368,256,87264,5,0
320,320,87564,1,8
320,320,87714,1,0
320,320,87864,1,0
144,128,88164,5,0
192,64,88464,1,0
192,64,88614,1,0
192,64,88764,1,8
256,112,89064,6,0,B|312:112|360:136,1,100,0|2
408,192,89664,2,0,B|448:232|448:304,1,100,0|8
446,281,90114,1,0
208,352,90564,6,0,B|256:336|320:352,1,100,0|0
104,192,91164,2,0,B|64:232|64:304,1,100,8|0
256,192,91764,1,2
320,136,92064,6,0,B|352:96|344:32,2,100,0|8|0
280,120,92814,2,0,B|232:152,1,50
104,192,93264,1,0
104,320,93564,1,8
216,256,93864,1,0
288,224,94164,6,0,B|352:280|448:264,1,150,2|0
416,232,94764,2,0,B|392:184|408:104,1,100,8|0
320,136,95364,1,0
328,56,95664,1,0
256,88,95964,1,8
136,192,96564,6,0,B|88:176|32:192,1,100,4|0
64,224,97014,2,0,B|32:272,1,50,0|8
72,272,97314,2,0,B|88:328,1,50
352,296,97764,6,0,B|400:312|456:296,1,100,0|0
450,297,98214,1,0
450,297,98364,1,8
408,224,98664,2,0,B|288:224|304:80,1,200,0|2
328,8,99564,1,8
392,56,99864,1,0
328,96,100164,6,0,B|304:144|264:176,2,100,0|0|8
256,64,101064,1,0
176,64,101364,6,0,B|120:48|82:95,1,100,2|0
152,136,101964,1,8
104,200,102264,1,0
256,240,102564,6,0,B|216:288|264:336,1,100,0|0
320,280,103164,1,8
456,192,103464,1,0
416,120,103764,1,0
256,144,104064,5,2
256,64,104364,1,8
256,64,104514,1,0
256,64,104664,1,0
96,120,104964,5,0
56,192,105264,1,0
96,264,105564,1,8
136,192,105864,1,0
256,344,106164,6,0,B|240:296|256:240,1,100,2|0
254,245,106614,1,0
254,245,106764,1,8
336,264,107064,1,0
464,192,107364,6,0,B|408:192|376:144,1,100
378,147,107814,1,0
378,147,107964,1,8
256,48,108264,5,0
176,64,108564,1,0
256,184,108864,5,2
336,200,109164,1,8
336,320,109464,1,0
256,336,109764,5,0
184,304,110064,2,0,B|112:280,2,50,0|0|8
256,184,110664,5,0
320,136,110964,2,0,B|344:88|320:40,1,100,2|0
280,48,111414,2,0,B|224:32,1,50,0|8
184,104,111864,1,0
152,184,112164,6,0,B|144:240|88:264,1,100
94,260,112614,1,0
94,260,112764,1,8
176,280,113064,6,0,B|240:368|368:336,1,200,0|2
352,256,113964,1,8
432,240,114264,1,0
432,160,114564,6,0,B|432:104|384:64,2,100,0|0|8
352,168,115464,1,0
320,240,115764,1,4
