osu file format v14

[General]
AudioFilename: Fairy Tail Ending #3 [NC-BD Subs].mp3
AudioLeadIn: 0
PreviewTime: 36012
Countdown: 0
SampleSet: None
StackLeniency: 0.7
Mode: 2
LetterboxInBreaks: 1
WidescreenStoryboard: 1

[Editor]
DistanceSpacing: 1.5
BeatDivisor: 4
GridSize: 16
TimelineZoom: 1.8

[Metadata]
Title:Gomen ne Watashi
TitleUnicode:Gomen ne Watashi
Artist:Shiho Nanba
ArtistUnicode:Shiho Nanba
Creator:[- OverCross-]
Version:Rain
Source:J-POP
Tags:Music
BeatmapID:1009696
BeatmapSetID:466831

[Difficulty]
HPDrainRate:7
CircleSize:3.5
OverallDifficulty:9
ApproachRate:9
SliderMultiplier:1
SliderTickRate:1

[Events]
//Background and Video events
0,0,"Kizuna_darou_Cover.jpg",0,0
//Break Periods
//Storyboard Layer 0 (Background)
//Storyboard Layer 1 (Fail)
//Storyboard Layer 2 (Pass)
//Storyboard Layer 3 (Foreground)
//Storyboard Sound Samples

[TimingPoints]
1176,370.599135268684,4,1,0,80,1,0
36568,-100,4,1,0,80,0,1
60471,-100,4,1,0,80,0,0
82707,376.411543287327,4,1,0,100,1,0

[Colours]
Combo1 : 0,0,0
Combo2 : 0,255,255
Combo3 : 255,128,192
Combo4 : 255,255,0
Combo5 : 255,0,0

[HitObjects]
208,272,1176,5,0,0:0:0:0:
352,208,1361,2,0,L|384:144,1,50
256,144,1731,2,0,L|304:112,1,50
272,224,2102,1,0,0:0:0:0:
144,144,2287,2,0,L|128:192,1,50
144,272,2658,1,0,0:0:0:0:
400,320,2843,6,0,L|464:288,1,50
448,192,3214,1,0,0:0:0:0:
368,112,3399,1,0,0:0:0:0:
336,96,3492,1,0,0:0:0:0:
304,64,3584,1,0,0:0:0:0:
176,128,3770,5,0,0:0:0:0:
32,160,3955,1,0,0:0:0:0:
176,288,4140,1,0,0:0:0:0:
256,208,4326,2,0,L|288:256,1,50
304,272,4604,1,0,0:0:0:0:
336,256,4696,1,0,0:0:0:0:
368,240,4789,1,0,0:0:0:0:
304,64,4881,5,0,0:0:0:0:
384,80,4974,2,0,L|448:96,1,50
464,160,5252,1,0,0:0:0:0:
464,240,5345,1,0,0:0:0:0:
208,160,5437,1,0,0:0:0:0:
64,272,5623,6,0,L|112:336,1,75
128,176,6086,2,0,L|176:224,1,50
272,224,6364,1,0,0:0:0:0:
368,160,6549,1,0,0:0:0:0:
432,128,6642,1,0,0:0:0:0:
480,80,6734,1,0,0:0:0:0:
336,32,6920,6,0,L|256:48,1,75
176,96,7290,1,0,0:0:0:0:
160,240,7383,2,0,L|240:208,1,75
368,336,7846,2,0,L|464:288,1,100
416,240,8402,1,0,0:0:0:0:
464,176,8495,1,0,0:0:0:0:
384,176,8680,5,0,0:0:0:0:
272,176,8865,1,0,0:0:0:0:
192,64,9051,1,0,0:0:0:0:
368,32,9236,1,0,0:0:0:0:
144,16,9421,1,0,0:0:0:0:
336,0,9607,1,0,0:0:0:0:
192,16,9792,1,0,0:0:0:0:
192,160,9885,6,0,L|144:112,1,50
112,128,10163,1,0,0:0:0:0:
48,80,10255,1,0,0:0:0:0:
16,16,10348,1,0,0:0:0:0:
64,240,10440,6,0,L|128:304,1,75
256,240,10811,2,0,L|208:304,1,75
384,224,11182,2,0,L|432:304,1,75
496,208,11552,2,0,L|464:288,1,75
400,320,11923,1,0,0:0:0:0:
320,320,12016,1,0,0:0:0:0:
240,304,12108,1,0,0:0:0:0:
128,160,12293,6,0,L|80:80,1,75
352,160,12664,2,0,L|400:96,1,75
256,64,13035,1,0,0:0:0:0:
256,144,13127,2,0,L|256:208,1,50
256,272,13405,1,0,0:0:0:0:
144,176,13498,5,0,0:0:0:0:
256,144,13591,2,0,L|320:128,1,50
384,128,13869,1,0,0:0:0:0:
432,176,13961,2,0,L|464:240,1,50
336,320,14332,6,0,L|288:336,1,50
176,288,14702,2,0,L|208:352,1,50
80,336,14980,2,0,L|80:256,1,75
208,208,15536,1,0,0:0:0:0:
400,192,15629,6,0,L|464:192,2,50
128,192,16277,1,0,0:0:0:0:
48,192,16370,1,0,0:0:0:0:
64,304,16463,6,0,L|112:368,1,75
240,304,16833,2,0,L|192:368,1,75
288,384,17204,1,0,0:0:0:0:
320,368,17297,1,0,0:0:0:0:
304,336,17389,1,0,0:0:0:0:
432,144,17482,6,0,L|512:80,1,100
448,48,17945,1,0,0:0:0:0:
368,48,18038,1,0,0:0:0:0:
272,128,18223,6,0,L|208:192,1,75
240,256,18594,1,0,0:0:0:0:
240,336,18686,1,0,0:0:0:0:
384,336,18779,2,0,L|464:256,1,100
416,208,19242,1,0,0:0:0:0:
336,208,19335,1,0,0:0:0:0:
192,160,19428,6,0,L|144:224,1,75
112,288,19798,1,0,0:0:0:0:
240,336,19891,2,0,L|304:288,1,75
368,256,20261,1,0,0:0:0:0:
336,144,20354,2,0,L|416:96,1,75
128,336,21744,6,0,L|176:352,1,50
256,368,22022,1,0,0:0:0:0:
336,352,22114,1,0,0:0:0:0:
400,320,22207,1,0,0:0:0:0:
368,256,22300,2,0,L|288:256,1,75
256,256,22670,1,0,0:0:0:0:
160,192,22856,6,0,L|224:144,1,75
288,144,23226,2,0,L|336:208,1,75
272,256,23597,1,0,0:0:0:0:
208,288,23689,1,0,0:0:0:0:
96,240,23782,2,0,L|160:160,1,100
96,112,24245,6,0,L|176:80,1,75
128,16,24616,2,0,L|208:0,1,75
240,64,24986,1,0,0:0:0:0:
256,144,25079,1,0,0:0:0:0:
432,160,25264,2,0,L|416:240,1,75
288,304,25635,5,0,0:0:0:0:
96,176,25820,1,0,0:0:0:0:
240,176,26006,1,0,0:0:0:0:
416,320,26191,2,0,B|480:256|480:256|416:192,2,175
384,320,27581,5,0,0:0:0:0:
304,320,27766,1,0,0:0:0:0:
192,160,27859,2,0,L|304:176,1,100
336,176,28322,1,0,0:0:0:0:
496,176,28507,1,0,0:0:0:0:
464,64,28600,6,0,L|288:64,1,175
