osu file format v14

[General]
AudioFilename: Fairy Tail Ending #3 [NC-BD Subs].mp3
AudioLeadIn: 0
PreviewTime: 36012
Countdown: 0
SampleSet: Normal
StackLeniency: 0.7
Mode: 2
LetterboxInBreaks: 1
WidescreenStoryboard: 0

[Editor]
DistanceSpacing: 1.5
BeatDivisor: 2
GridSize: 16
TimelineZoom: 1.8

[Metadata]
Title:Gomen ne Watashi
TitleUnicode:Gomen ne Watashi
Artist:Shiho Nanba
ArtistUnicode:Shiho Nanba
Creator:[- OverCross-]
Version:Cup
Source:J-POP
Tags:Music
BeatmapID:998992
BeatmapSetID:466831

[Difficulty]
HPDrainRate:3
CircleSize:2
OverallDifficulty:5
ApproachRate:5
SliderMultiplier:1
SliderTickRate:1

[Events]
//Background and Video events
0,0,"Kizuna_darou_Cover.jpg",0,0
//Break Periods
//Storyboard Layer 0 (Background)
//Storyboard Layer 1 (Fail)
//Storyboard Layer 2 (Pass)
//Storyboard Layer 3 (Foreground)
//Storyboard Sound Samples

[TimingPoints]
1176,370.599135268684,4,1,0,80,1,0
36568,-100,4,1,0,80,0,1
60471,-100,4,1,0,80,0,0
82707,376.411543287327,4,1,0,100,1,0

[Colours]
Combo1 : 0,0,0
Combo2 : 0,255,255
Combo3 : 255,128,192
Combo4 : 255,255,0
Combo5 : 255,0,0

[HitObjects]
84,164,1222,5,0,0:0:0:0:
240,196,1592,1,0,0:0:0:0:
192,72,1870,1,0,0:0:0:0:
160,196,2241,1,0,0:0:0:0:
272,288,2519,2,0,P|368:256|432:176,1,200
429,181,3770,2,0,P|240:160|224:160,1,200
230,159,4881,6,0,P|176:176|128:304,1,200
244,232,6364,1,0,0:0:0:0:
352,128,6734,1,0,0:0:0:0:
208,128,7105,2,0,L|112:96,1,100
80,160,7661,2,0,L|64:240,1,50
140,276,8217,1,0,0:0:0:0:
236,332,8587,1,0,0:0:0:0:
368,256,8958,6,0,P|416:160|384:80,1,200
256,144,10070,2,0,L|256:256,1,100
176,240,10626,2,0,L|160:288,1,50
244,304,10996,1,0,0:0:0:0:
304,324,11367,1,0,0:0:0:0:
384,192,11738,5,0,0:0:0:0:
256,128,12293,1,0,0:0:0:0:
64,192,12664,1,0,0:0:0:0:
208,224,13035,1,0,0:0:0:0:
336,288,13405,2,0,P|416:272|496:144,1,200
336,144,14332,1,0,0:0:0:0:
288,248,14702,1,0,0:0:0:0:
288,248,15073,1,0,0:0:0:0:
144,224,15629,6,0,B|80:128|80:128|144:96|144:96|96:48|96:48|160:48,1,300
240,96,17111,1,0,0:0:0:0:
352,64,17482,2,0,L|448:128,1,100
432,224,18223,1,0,0:0:0:0:
384,288,18594,1,0,0:0:0:0:
240,272,18964,2,0,L|240:160,1,100
416,68,19520,5,0,0:0:0:0:
172,68,19891,1,0,0:0:0:0:
288,160,20261,1,0,0:0:0:0:
112,208,20447,2,0,P|128:320|288:288,1,300
352,320,21744,5,0,0:0:0:0:
448,208,21929,1,0,0:0:0:0:
368,192,22114,1,0,0:0:0:0:
240,224,22485,1,0,0:0:0:0:
128,196,22856,1,0,0:0:0:0:
48,128,23226,1,0,0:0:0:0:
128,48,23782,6,0,L|240:48,1,100
352,128,24523,1,0,0:0:0:0:
292,228,24894,1,0,0:0:0:0:
200,312,25264,1,0,0:0:0:0:
96,256,25635,6,0,L|224:96,1,200
160,240,26747,2,0,P|112:288|112:320,1,100
256,304,27488,2,0,P|320:272|432:320,1,200
476,220,28600,1,0,0:0:0:0:
448,128,28970,1,0,0:0:0:0:
416,52,29341,1,0,0:0:0:0:
212,72,29712,6,0,P|148:128|192:228,1,200
336,192,30823,1,0,0:0:0:0:
432,304,31194,1,0,0:0:0:0:
320,336,31379,1,0,0:0:0:0:
176,352,31565,1,0,0:0:0:0:
128,272,31935,2,0,L|160:176,1,100
96,208,32491,5,0,0:0:0:0:
159,177,32676,2,0,L|352:96,1,200
224,176,33788,1,0,0:0:0:0:
228,264,34159,5,0,0:0:0:0:
396,268,34529,1,0,0:0:0:0:
308,144,34900,1,0,0:0:0:0:
192,256,35271,1,0,0:0:0:0:
128,224,35641,1,0,0:0:0:0:
96,208,36012,1,0,0:0:0:0:
96,128,36382,6,0,P|144:80|272:64,1,200
272,288,37494,1,0,0:0:0:0:
416,320,37865,2,0,P|496:304|480:240,1,150
432,192,38606,1,0,0:0:0:0:
288,208,38791,1,0,0:0:0:0:
368,80,39347,2,0,L|128:96,2,200
288,368,41015,5,0,0:0:0:0:
384,256,41386,1,0,0:0:0:0:
260,252,41756,1,0,0:0:0:0:
304,144,42127,1,0,0:0:0:0:
448,144,42497,2,0,P|496:192|464:272,1,150
256,256,43794,6,0,P|112:224|96:80,1,300
128,36,45277,1,0,0:0:0:0:
272,96,45647,2,0,B|384:80|384:80|432:160,1,200
352,176,46574,1,0,0:0:0:0:
384,256,46759,1,0,0:0:0:0:
288,48,47130,2,0,P|224:48|160:80,1,100
336,32,47871,1,0,0:0:0:0:
336,176,48242,1,0,0:0:0:0:
464,144,48427,6,0,B|464:352|464:352|320:352,1,350
240,336,49909,1,0,0:0:0:0:
224,256,50280,1,0,0:0:0:0:
320,256,50465,2,0,L|432:256,1,100
352,256,51021,5,0,0:0:0:0:
288,224,51206,1,0,0:0:0:0:
336,176,51392,1,0,0:0:0:0:
192,256,51577,2,0,L|80:256,1,100
224,304,52318,1,0,0:0:0:0:
336,192,52689,1,0,0:0:0:0:
128,96,52874,6,0,L|32:144,1,100
256,208,53615,2,0,L|160:240,1,100
288,160,54356,1,0,0:0:0:0:
432,240,54727,1,0,0:0:0:0:
352,288,54912,2,0,P|256:304|224:304,1,100
240,80,55654,6,0,L|432:160,1,200
496,192,56580,1,0,0:0:0:0:
368,272,56951,2,0,P|288:288|144:96,1,350
132,112,58618,1,0,0:0:0:0:
224,240,58989,1,0,0:0:0:0:
432,144,59360,2,0,P|480:192|480:224,1,100
376,268,60101,1,0,0:0:0:0:
256,192,60286,12,0,61213,0:0:0:0:
312,168,61583,5,0,0:0:0:0:
272,304,61768,1,0,0:0:0:0:
176,224,62139,1,0,0:0:0:0:
352,320,62324,2,0,P|432:288|480:96,1,300
336,80,63807,2,0,L|128:80,2,200
144,192,66030,6,0,B|80:272|80:272|160:304|160:304|128:368|128:368|176:368,1,300
352,320,67513,2,0,P|432:272|464:160,1,200
240,224,68439,1,0,0:0:0:0:
320,224,68625,1,0,0:0:0:0:
400,208,68810,1,0,0:0:0:0:
400,80,69180,2,0,P|272:128|96:80,1,300
448,128,70478,2,0,B|512:208|512:208|432:288,1,200
288,272,71404,2,0,B|128:208|272:144|272:144|128:80|128:80|160:64,1,400
256,192,73257,12,0,76778,0:0:0:0:
160,256,77334,5,0,0:0:0:0:
304,304,77704,1,0,0:0:0:0:
304,144,77890,5,0,0:0:0:0:
384,144,78075,2,0,L|464:208,1,100
380,252,78631,1,0,0:0:0:0:
352,308,78816,1,0,0:0:0:0:
128,288,79372,6,0,L|128:80,1,200
144,48,80669,2,0,L|256:48,1,100
330,111,81596,1,0,0:0:0:0:
336,156,81966,1,0,0:0:0:0:
256,240,83083,1,0,0:0:0:0:
384,48,83459,6,0,P|448:112|416:304,2,300
256,192,86094,12,0,89858,0:0:0:0:
