osu file format v7

[General]
AudioFilename: Yggdra Union opening theme.mp3
AudioLeadIn: 1000
PreviewTime: 75555
Countdown: 0
SampleSet: Soft
StackLeniency: 0.7
Mode: 0
LetterboxInBreaks: 1

[Editor]
Bookmarks: 51873,81271,114956
DistanceSpacing: 0.800000011920929
BeatDivisor: 4
GridSize: 8

[Metadata]
Title:Yggdra Union Opening Theme
Artist:Shigeki Hayashi
Creator:wanhyrzh
Version:Normal
Source:Yggdra Union
Tags:Sting Garven NatsumeRin impossiblexu PSP NDSL GBA Atlus

[Difficulty]
HPDrainRate:3
CircleSize:4
OverallDifficulty:4
SliderMultiplier:1.5
SliderTickRate:1

[Events]
//Background and Video events
0,0,"background.jpg"
Video,0,"Yggdra Union opening theme.avi"
//Break Periods
2,75755,79134
2,83104,95875
//Storyboard Layer 0 (Background)
//Storyboard Layer 1 (Fail)
//Storyboard Layer 2 (Pass)
//Storyboard Layer 3 (Foreground)
//Storyboard Sound Samples
//Background Colour Transformations
3,100,163,162,255

[TimingPoints]
4210,428.571428571429,4,2,0,70,1,0
10960,-100,4,2,0,0,0,0
14067,-100,4,2,0,50,0,0
17817,-200,4,2,0,50,0,0
18674,-200,4,2,0,0,0,0
18888,-200,4,2,0,40,0,0
19960,-100,4,2,0,60,0,0
22317,-100,4,1,0,0,0,0
22476,408.302143586254,4,1,0,100,1,0
22986,-100,4,2,0,70,0,0
48403,-100,4,1,0,70,0,0
48607,-100,4,1,0,70,0,1
49628,-100,4,1,0,60,0,1
75759,-100,4,2,0,70,0,1
76371,-100,4,2,0,70,0,0
80965,-100,4,2,0,0,0,0
81169,-100,4,2,0,70,0,0
81781,-100,4,2,0,0,0,0
81986,-100,4,2,0,70,0,0
82394,-100,4,1,0,70,0,0
83108,-100,4,2,0,70,0,0
98624,-100,4,2,0,0,0,0
99134,-100,4,1,0,70,0,0
99236,-100,4,1,0,70,0,1
112200,-100,4,2,0,70,0,0
119549,-100,4,2,0,0,0,0
119753,-100,4,2,0,70,0,0
121183,-100,4,2,0,0,0,0
121387,-100,4,2,0,70,0,0
122816,-100,4,2,0,0,0,0
123020,-100,4,2,0,70,0,0
124449,-100,4,2,0,0,0,0
124653,-100,4,2,0,70,0,0
147008,-100,4,2,0,40,0,0
153132,-100,4,1,0,100,0,1
172731,-100,4,1,0,50,0,0
173343,-100,4,2,0,0,0,0

[Colours]
Combo1 : 255,128,128
Combo2 : 255,255,130
Combo3 : 110,110,220
Combo4 : 128,255,128
Combo5 : 40,130,160
SliderBorder : 0,0,0

[HitObjects]
472,264,4210,2,0,B|472:368|360:344,1,150,0|2
256,344,5067,1,2
256,160,5709,5,0
192,264,6138,2,0,B|112:320|56:240,1,150,2|0
8,136,6995,6,0,B|8:56|120:56,1,150
176,48,7638,2,0,B|232:8|264:88|320:48,1,150,0|2
432,80,8495,1,2
256,120,9138,5,0
160,192,9567,1,2
256,264,9995,1,0
352,192,10424,2,0,B|384:120|347:31,1,150,2|2
256,192,11067,12,0,14067
164,262,14495,6,0,L|164:110,2,150
352,112,16210,2,0,L|352:264,2,150
472,88,17924,6,0,B|424:40|352:160|320:96|320:96,1,159.375
288,112,19102,1,0
248,128,19424,2,0,B|248:208,1,75
256,192,20067,12,4,22476
40,80,23700,6,0,B|40:232,1,150,2|0
128,152,24517,1,2
248,152,24925,1,0
368,152,25334,1,2
464,80,25742,2,0,B|464:160,1,75
464,216,26150,2,0,B|464:296,1,75,2|0
288,328,26967,5,2
192,256,27375,1,0
288,184,27783,1,2
256,72,28192,6,0,B|176:72,1,75
120,72,28600,2,0,B|40:72,1,75,2|0
43,131,29008,5,4
43,131,29212,1,0
93,164,29417,2,0,B|173:164,1,75,2|0
384,264,30437,5,2
384,264,30642,2,0,B|384:112,2,150,0|2|0
264,264,31866,2,0,B|184:264,1,75,2|0
128,264,32275,5,0
104,208,32479,1,0
104,152,32683,2,0,B|104:64,1,75,0|2
288,80,33500,1,2
408,72,33908,6,0,B|352:128,1,75
312,168,34316,2,0,B|256:224,1,75,2|0
24,128,35541,5,4
112,48,35949,1,8
232,48,36358,2,0,B|312:64|368:128,1,150,0|8
432,216,37174,1,0
304,344,37787,5,0
128,312,38399,2,0,B|64:248|136:176,1,150,0|0
251,181,39216,1,8
370,181,39624,2,0,B|434:117|362:45,1,150,0|8
268,119,40441,2,0,B|204:183|272:256,1,150,0|8
371,312,41257,2,0,B|435:248|366:176,1,150,0|8
296,80,42074,6,0,B|224:24|153:85,1,150,4|0
224,176,42891,1,8
224,176,43299,1,8
296,272,43707,6,0,B|367:327|439:266,1,150,4|0
364,176,44524,1,8
364,176,44932,1,8
280,88,45340,6,0,B|128:88,1,150,0|8
130,88,45953,1,0
128,88,46157,2,0,B|128:240,1,150,0|8
128,238,46769,1,0
128,240,46974,2,0,B|280:240,3,150,0|8|0|8
256,120,48607,5,0
344,120,48913,1,0
296,200,49219,1,0
256,240,49423,1,4
256,240,49832,5,0
176,152,50240,1,0
72,88,50648,2,0,B|40:120|56:160,1,75,8|0
72,216,51057,2,0,B|80:296|136:352,1,150,0|0
253,350,51873,2,0,B|311:290|311:209,1,150,0|8
431,215,52690,2,0,B|439:295|495:351,2,150,0|0|0
431,215,53915,1,8
416,96,54323,6,0,B|344:40|277:98,1,150,0|0
184,168,55140,2,0,B|112:224|45:166,1,150,0|8
96,56,55956,5,4
208,56,56365,1,8
328,56,56773,1,0
448,56,57181,2,0,B|448:136,1,75,8|0
448,131,57589,1,0
448,248,57998,1,8
360,328,58406,1,0
240,344,58814,1,8
120,352,59223,6,0,B|64:296|64:208,1,150,0|8
160,296,60039,2,0,B|216:240|216:152,1,150,0|8
120,240,60856,2,0,B|64:184|64:96,1,150,0|8
160,184,61673,2,0,B|216:128|216:40,1,150,0|8
336,32,62489,5,4
432,104,62897,1,8
336,176,63306,1,0
408,272,63714,2,0,B|352:328,1,75,8|0
354,325,64122,1,0
256,264,64531,1,8
160,192,64939,1,0
96,88,65347,1,8
216,56,65756,6,0,B|288:24|371:60,1,150,0|8
288,152,66572,2,0,B|360:184|443:148,1,150,0|8
488,264,67389,1,0
400,344,67797,1,8
312,264,68205,1,0
232,176,68614,6,0,B|176:120|176:40,1,150,8|4
64,80,69430,2,0,B|120:136|120:216,1,150,8|0
256,80,70451,6,0,L|256:40,2,37.5
256,192,71472,5,0
136,192,71880,1,8
64,288,72288,2,0,B|120:344|200:344,1,150,0|8
320,344,73105,2,0,B|399:344|455:287,1,150,0|8
376,192,73922,6,0,B|376:112,1,75
376,56,74330,1,8
320,56,74534,1,0
264,56,74738,2,0,B|184:56,2,75,0|0|8
256,176,75555,5,4
112,280,80454,6,0,B|224:280|224:112,1,225,2|0
284,116,81271,2,0,B|284:279|405:280,1,225
256,168,82496,6,0,B|256:224,3,50,0|0|0|4
256,192,97195,12,0,98828
48,48,99236,5,4
168,48,99645,1,8
288,48,100053,1,0
288,48,100461,1,8
384,120,100870,5,0
384,120,101278,1,8
464,208,101686,1,0
384,296,102094,1,8
304,208,102503,5,0
304,208,102707,1,0
304,208,102911,1,8
184,208,103319,1,0
184,208,103523,1,0
184,208,103728,1,8
64,208,104136,6,0,B|64:288,2,75,0|0|8
64,208,104748,1,0
64,208,104953,2,0,B|64:128,3,75,0|0|8|0
64,72,105769,6,0,B|144:72,1,75
184,112,106177,2,0,B|264:112,1,75,8|0
304,152,106586,2,0,B|384:152,1,75
424,192,106994,2,0,B|504:192,1,75,8|0
496,248,107402,6,0,B|416:248,1,75
376,208,107811,2,0,B|296:208,1,75,8|0
256,168,108219,2,0,B|176:168,1,75
136,128,108627,2,0,B|56:128,1,75,8|0
56,192,109036,5,0
56,192,109240,1,0
56,192,109444,1,8
152,240,109852,1,0
152,240,110260,1,8
248,288,110669,5,0
248,288,111077,1,8
344,240,111485,1,0
344,240,111690,1,0
344,240,111894,1,8
384,136,112302,5,4
304,48,112710,2,0,B|224:48,1,75
144,136,113323,1,0
200,240,113731,5,4
320,240,114139,1,4
320,240,114343,2,0,B|320:320,1,75
440,313,114956,2,0,B|494:243|433:166,1,150
408,120,115568,5,4
408,120,115773,1,4
360,80,115977,2,0,B|328:48|288:48,1,75
176,40,116589,1,0
72,96,116997,1,4
72,96,117406,1,4
72,96,117610,2,0,B|72:174,3,75
320,344,118835,5,4
214,286,119243,2,0,B|203:285|203:285|207:278|207:278|196:281|196:281|200:274|200:274|189:277|189:277|193:270|193:270|182:273|182:273|186:266|186:266|175:269|175:269|179:262|179:262|169:265|169:265|173:258|173:258|162:261|162:261|166:254|166:254|155:257|155:257|159:250|159:250|150:250|150:250|150:250,1,150
56,184,120060,1,8
56,184,120468,5,4
157,120,120876,2,0,B|162:111|162:111|166:118|166:118|169:107|169:107|173:114|173:114|176:103|176:103|180:110|180:110|183:99|183:99|187:106|187:106|190:95|190:95|194:102|194:102|196:91|196:91|200:98|200:98|203:87|203:87|207:94|207:94|210:83|210:83|214:90|214:90|219:82|219:82|219:82,1,150
323,34,121693,1,8
323,34,122101,5,4
422,101,122510,2,0,B|432:101|432:101|428:108|428:108|439:105|439:105|435:112|435:112|446:109|446:109|442:116|442:116|453:113|453:113|449:120|449:120|460:117|460:117|456:124|456:124|466:121|466:121|462:128|462:128|473:125|473:125|469:132|469:132|480:129|480:129|476:136|476:136|485:136|485:136|485:136,1,150
480,251,123326,1,8
481,251,123734,5,4
376,310,124143,2,0,B|370:318|370:318|366:311|366:311|363:322|363:322|359:315|359:315|356:326|356:326|352:319|352:319|349:330|349:330|345:323|345:323|342:334|342:334|338:327|338:327|336:338|336:338|332:331|332:331|329:342|329:342|325:335|325:335|322:346|322:346|318:339|318:339|313:347|313:347|313:347,1,150
319,222,124959,1,8
320,104,125368,5,4
224,40,125776,2,0,B|144:40,1,75
72,128,126388,2,0,B|72:208,3,75,0|8|0|0
157,286,127409,6,0,B|237:286,1,75,8|0
327,212,128022,2,0,B|327:132,3,75,0|8|0|0
256,40,129042,5,2
160,112,129451,1,0
160,232,129859,1,2
160,352,130267,6,0,B|234:324,1,75,0|2
283,294,130676,2,0,B|255:219,1,75,2|2
237,167,131084,2,0,B|311:139,1,75,0|2
364,120,131492,2,0,B|336:45,2,75,2|2|4
448,208,132309,5,8
400,320,132717,1,0
320,232,133125,1,8
240,320,133534,1,0
192,208,133942,6,0,B|136:152,1,75,2|0
179,110,134350,2,0,B|235:54,1,75,2|0
292,56,134759,2,0,B|372:56,1,75,0|2
416,96,135167,5,0
416,96,135371,1,0
416,96,135575,1,2
344,192,135983,1,0
344,192,136188,1,0
344,192,136392,1,2
256,192,136800,12,4,138025
40,40,138433,5,4
224,40,139046,1,4
128,192,139658,1,4
312,192,140271,1,4
224,352,140883,1,4
224,352,141291,1,4
344,352,141700,6,0,B|400:296,1,75
360,256,142108,1,2
360,256,142312,2,0,B|304:200,1,75,0|0
264,160,142720,1,2
264,160,142925,2,0,B|184:160,1,75,0|0
144,120,143333,1,2
144,120,143537,2,0,B|88:64,1,75,0|0
136,32,143945,1,2
136,32,144150,2,0,B|216:32,1,75,0|0
272,32,144558,2,0,B|352:32,1,75,2|2
256,192,144966,12,2,146599
216,40,147824,6,0,B|296:40,2,75,2|0|0
51,291,149866,6,0,B|112:352,2,75,2|0|2
408,344,151499,6,0,B|472:280,2,75,0|2|0
64,192,153132,5,0
96,136,153336,1,0
152,112,153540,1,8
176,232,153949,1,0
264,144,154357,1,8
264,144,154561,1,0
264,144,154765,5,0
376,104,155174,1,8
352,224,155582,1,0
464,184,155990,1,8
376,104,156399,6,0,B|320:48,1,75,0|0
263,50,156807,2,0,B|183:50,1,75,8|0
128,50,157215,1,0
128,50,157419,1,0
128,50,157624,1,8
43,134,158032,6,0,B|76:205,1,75
130,223,158440,2,0,B|205:250,1,75,8|0
257,269,158848,1,0
257,269,159053,1,0
257,269,159257,1,8
352,192,159665,6,0,B|408:136,1,75
368,96,160073,2,0,B|312:40,1,75,8|0
152,120,160890,5,8
152,120,161094,1,0
152,120,161298,1,0
152,240,161707,1,8
152,240,161911,1,0
320,176,162523,1,8
440,176,162931,6,0,B|440:256,1,75
440,312,163340,1,8
320,312,163748,2,0,B|240:312,1,75
184,312,164156,1,8
80,248,164565,6,0,B|80:160,1,75
80,112,164973,1,8
80,112,165177,1,0
80,112,165381,1,0
184,48,165790,2,0,B|264:48,1,75,8|0
259,48,166198,5,4
360,112,166606,1,8
432,208,167014,1,0
317,245,167423,5,8
270,282,167627,1,0
256,224,167831,1,0
144,178,168239,5,8
74,80,168648,2,0,B|154:68,1,75
208,88,169056,2,0,B|264:144,1,75,8|0
261,141,169464,5,0
384,144,169873,1,8
328,248,170281,1,0
261,141,170689,1,8
261,141,171097,5,0
140,144,171506,1,8
198,248,171914,1,0
261,141,172322,1,8
261,141,172527,2,0,B|261:48,1,75
256,192,173547,12,0,180080
