osu file format v7

[General]
AudioFilename: Yggdra Union opening theme.mp3
AudioLeadIn: 1000
PreviewTime: 75555
Countdown: 0
SampleSet: Soft
StackLeniency: 0.7
Mode: 0
LetterboxInBreaks: 1

[Editor]
Bookmarks: 81271,114956
DistanceSpacing: 2
BeatDivisor: 4
GridSize: 8

[Metadata]
Title:Yggdra Union Opening Theme
Artist:Shigeki Hayashi
Creator:wanhyrzh
Version:Insane
Source:Yggdra Union
Tags:Sting Garven NatsumeRin impossiblexu PSP NDSL GBA Atlus

[Difficulty]
HPDrainRate:5
CircleSize:5
OverallDifficulty:8
SliderMultiplier:2
SliderTickRate:1

[Events]
//Background and Video events
0,0,"background.jpg"
Video,0,"Yggdra Union opening theme.avi"
//Break Periods
2,75346,79704
2,83104,96445
//Storyboard Layer 0 (Background)
//Storyboard Layer 1 (Fail)
//Storyboard Layer 2 (Pass)
//Storyboard Layer 3 (Foreground)
//Storyboard Sound Samples
//Background Colour Transformations
3,100,163,162,255

[TimingPoints]
4210,428.571428571429,4,2,0,70,1,0
11067,-100,4,2,0,0,0,0
14281,-100,4,2,0,40,0,0
17924,-100,4,2,0,0,0,0
20067,-100,4,2,0,5,0,0
20281,-100,4,2,0,15,0,0
20495,-100,4,2,0,25,0,0
20710,-100,4,2,0,35,0,0
20924,-100,4,2,0,45,0,0
21138,-100,4,2,0,55,0,0
21352,-100,4,2,0,65,0,0
21567,-100,4,2,0,70,0,0
22317,-100,4,1,0,70,0,0
22476,408.302143586254,4,1,0,70,1,0
22986,-100,4,2,0,70,0,0
34827,-100,4,1,0,50,0,0
35439,-100,4,2,0,70,0,0
48505,-100,4,1,0,70,0,0
48607,-100,4,1,0,70,0,1
49117,-100,4,1,0,60,0,1
55854,-100,4,1,0,70,0,1
56773,-100,4,1,0,60,0,1
60754,-100,4,1,0,70,0,1
62693,-100,4,1,0,60,0,1
76371,-100,4,1,0,60,0,0
80250,-100,4,2,0,60,0,0
82394,-100,4,1,0,70,0,0
83176,-100,4,2,0,70,0,0
97195,-100,4,2,0,0,0,0
99134,-100,4,1,0,40,0,0
99236,-100,4,1,0,60,0,1
112302,-100,4,2,0,70,0,0
113119,-100,4,2,0,0,0,0
113221,-100,4,2,0,70,0,0
113527,-100,4,2,0,0,0,0
113629,-100,4,2,0,70,0,0
113731,-100,4,1,0,100,0,0
113935,-100,4,1,0,0,0,0
114037,-100,4,1,0,100,0,0
114241,-100,4,2,0,70,0,0
115466,-100,4,1,0,100,0,0
115875,-100,4,2,0,70,0,0
116283,-100,4,2,0,0,0,0
116385,-100,4,2,0,70,0,0
116895,-100,4,1,0,100,0,0
117610,-100,4,2,0,70,0,0
119651,-100,4,1,0,50,0,0
121285,-100,4,1,0,55,0,0
122918,-100,4,1,0,60,0,0
124551,-100,4,1,0,65,0,0
125266,-100,4,2,0,90,0,0
126899,-100,4,1,0,70,0,0
128838,-100,4,1,0,80,0,0
129247,-100,4,1,0,90,0,0
129655,-100,4,1,0,100,0,0
131798,-100,4,2,0,100,0,0
138535,-100,4,2,0,80,0,0
138944,-100,4,2,0,85,0,0
139556,-100,4,2,0,90,0,0
139760,-100,4,2,0,95,0,0
140679,-100,4,2,0,100,0,0
141496,-100,4,2,0,90,0,0
144047,-100,4,2,0,100,0,0
146701,-100,4,2,0,60,0,0
153132,-100,4,1,0,100,0,1
172731,-100,4,1,0,100,0,0
172935,-100,4,2,0,50,0,0
173751,-100,4,2,0,0,0,0

[Colours]
Combo1 : 255,128,128
Combo2 : 255,255,130
Combo3 : 110,110,220
Combo4 : 128,255,128
Combo5 : 40,130,160
SliderBorder : 0,0,0

[HitObjects]
32,72,4210,1,0
32,192,4424,2,2,B|32:312,1,100
151,293,4852,1,0
265,255,5067,2,0,B|370:255,1,100,2|0
476,211,5495,1,0
476,90,5709,5,2
435,90,5817,1,0
395,90,5924,1,0
315,90,6138,1,2
315,90,6352,2,2,B|205:90,1,100
160,336,6995,5,0
90,305,7209,1,2
66,273,7317,1,0
58,233,7424,1,0
256,192,7638,5,0
256,72,7852,2,0,B|360:72,2,100,2|2|0
256,72,8495,2,0,B|152:72,1,100,2|0
128,312,9138,5,0
128,312,9245,1,0
128,312,9352,1,2
256,232,9567,1,0
256,232,9674,1,0
256,232,9781,1,0
384,312,9995,1,0
384,312,10102,1,0
384,312,10209,1,2
384,160,10424,6,0,B|384:104,4,50,0|0|2|2|0
256,192,11067,12,0,14067
16,184,14495,5,0
80,104,14709,1,0
160,40,14924,1,2
256,24,15138,1,0
352,40,15352,1,0
432,104,15567,1,2
496,184,15781,1,2
496,184,15995,1,0
440,264,16210,5,0
352,320,16424,1,0
256,360,16638,1,2
160,320,16852,1,0
80,264,17067,1,0
80,264,17281,1,2
16,184,17495,1,2
16,184,17710,1,0
256,192,17924,12,0,22210
256,192,22476,5,0
256,192,22578,1,0
256,192,22680,1,0
56,40,23905,5,2
78,73,24007,1,0
101,40,24109,2,0,B|205:40,1,100
320,40,24517,2,0,B|431:40,1,100
372,150,24925,2,0,B|483:150,1,100
420,258,25334,2,0,B|309:258,1,100
267,150,25742,2,0,B|156:150,1,100
127,150,26048,1,0
106,184,26150,1,2
145,184,26252,1,0
127,219,26354,1,0
482,34,26763,5,0
362,34,26967,1,2
423,136,27171,1,0
30,356,28192,5,0
92,253,28396,1,0
208,283,28600,2,0,B|258:313|305:281,1,100,2|0
301,162,29008,2,0,B|351:132|398:164,1,100,0|2
396,282,29417,2,0,B|345:313|300:281,1,100,0|2
296,32,30437,5,0
256,32,30539,1,0
216,32,30642,1,2
216,112,30846,1,0
256,112,30948,1,0
296,112,31050,1,0
232,160,31254,1,0
272,160,31356,1,0
296,192,31458,6,0,B|251:228|202:190,3,100,2|0|2|0
124,316,32275,5,0
32,280,32479,1,2
32,184,32683,1,0
124,145,32887,1,2
424,176,33500,5,2
200,296,33908,5,0
112,216,34112,1,0
200,136,34316,1,2
112,56,34520,1,0
256,120,34929,5,0
256,160,35031,1,0
256,200,35133,1,0
256,240,35235,1,0
256,280,35337,1,0
256,192,35541,12,0,36766
256,344,36970,5,2
184,280,37174,1,0
280,248,37379,1,2
32,48,37787,5,0
120,96,37991,1,2
32,152,38195,1,0
336,40,38603,5,2
352,136,38808,1,0
256,96,39012,1,2
432,360,39420,5,0
336,336,39624,1,2
408,256,39828,1,0
32,144,40237,5,2
80,80,40441,1,0
128,144,40645,1,2
80,208,40849,1,8
80,208,41053,1,2
128,144,41257,5,8
128,144,41462,2,0,B|232:144,1,100,0|8
155,327,42074,6,0,B|108:372|55:317,2,100,4|0|0
111,259,42686,2,0,B|111:155,1,100
59,97,43095,1,2
111,37,43299,1,8
163,97,43503,1,2
356,148,43707,6,0,B|401:195|346:248,2,100,4|0|0
288,192,44320,2,0,B|184:192,1,100
126,244,44728,1,2
72,192,44932,1,10
126,140,45136,1,0
296,32,45340,5,0
344,64,45442,1,0
392,96,45545,1,0
160,32,45953,5,0
112,64,46055,1,0
65,96,46157,1,0
64,336,46565,6,0,B|64:224,1,100,8|2
184,236,46974,2,0,B|184:347|184:346,1,100
291,282,47382,1,8
397,337,47586,2,0,B|397:227,1,100
343,129,47994,2,0,B|241:129,2,100,0|2|2
159,209,48607,5,4
159,169,48709,1,0
159,129,48811,1,0
159,89,48913,1,4
159,49,49015,1,0
358,30,49219,5,4
469,73,49423,2,0,B|390:152,1,100
282,176,49832,2,0,B|356:250,1,100,8|0
464,291,50240,2,0,B|392:363,1,100
273,362,50648,2,0,B|194:283,1,100,8|0
96,240,51057,2,0,B|170:166,1,100
280,120,51465,2,0,B|208:48,1,100,8|0
256,192,51873,5,0
196,296,52077,1,0
316,296,52282,1,8
256,192,52486,1,0
256,72,52690,5,0
392,72,52894,1,0
256,72,53098,1,8
120,72,53302,1,0
184,192,53506,5,0
256,312,53711,1,0
328,192,53915,1,8
256,72,54119,1,0
328,192,54323,5,0
256,312,54527,1,0
184,192,54731,1,8
256,72,54936,1,0
256,192,55140,5,0
256,192,55344,1,0
256,192,55548,1,8
256,192,55752,1,0
256,72,55956,5,0
224,48,56058,1,0
184,32,56160,1,0
88,104,56365,1,8
96,144,56467,1,0
120,176,56569,1,0
357,96,56977,5,0
357,96,57181,2,0,B|430:169|430:169,1,100,8|0
330,188,57589,2,0,B|256:262|256:262,1,100
225,353,57998,2,0,B|152:280|152:280,1,100,8|0
256,192,58406,5,0
376,192,58610,1,0
256,192,58814,1,8
136,192,59019,1,0
256,192,59223,5,0
256,72,59427,1,0
256,192,59631,1,8
256,312,59835,1,0
256,192,60039,5,0
136,192,60243,1,0
255,190,60448,1,8
376,192,60652,1,0
356,95,60856,5,0
328,123,60958,1,0
301,150,61060,1,0
158,292,61264,5,0
186,265,61366,1,0
215,237,61468,1,0
122,60,61673,6,0,B|197:135,1,100
336,272,62081,5,0
306,244,62183,1,0
277,217,62285,1,0
248,189,62387,1,0
219,162,62489,1,4
16,48,62897,6,0,B|120:48,1,100,8|0
240,48,63306,1,0
116,48,63510,1,0
120,168,63714,6,0,B|224:168,1,100,8|0
344,168,64122,1,0
220,168,64326,1,0
224,288,64531,6,0,B|328:288,1,100,8|0
448,288,64939,1,0
324,288,65143,1,0
448,288,65347,1,8
324,288,65551,1,0
384,96,65756,5,0
384,216,65960,1,0
288,144,66164,1,8
288,24,66368,1,0
200,144,66572,5,0
200,264,66776,1,0
104,192,66980,1,8
104,312,67185,1,0
296,264,67389,5,0
408,312,67593,1,0
296,264,67797,1,8
392,192,68001,1,0
248,264,68205,5,0
152,192,68409,1,0
248,264,68614,1,8
136,312,68818,1,0
248,120,69022,5,0
136,72,69226,1,0
248,120,69430,1,8
152,192,69634,1,0
248,120,69839,5,0
360,72,70043,1,0
248,120,70247,1,8
344,192,70451,1,0
344,192,70553,1,0
344,192,70655,1,0
118,274,71268,6,0,B|222:274,1,100
294,274,71676,2,0,B|406:274,1,100,0|8
256,192,72288,12,8,73513
256,192,73922,5,0
256,72,74126,1,0
359,132,74330,1,8
359,252,74534,1,0
256,312,74738,1,0
152,252,74942,1,8
152,132,75146,1,8
32,192,80454,5,2
32,192,80591,1,0
72,248,80727,1,0
112,304,80863,1,2
176,304,80999,1,0
216,248,81135,1,0
256,192,81271,5,2
296,136,81407,1,0
336,80,81543,1,0
400,80,81679,1,2
440,136,81815,1,0
480,192,81952,1,0
480,192,82088,1,2
256,192,82496,5,0
256,192,82632,1,0
256,192,82768,1,0
256,192,82904,1,4
256,192,97195,12,0,99032
479,47,99236,5,0
456,56,99338,1,0
432,64,99440,1,0
408,64,99543,1,0
384,56,99645,1,8
360,48,99747,1,0
336,48,99849,1,0
312,56,99951,1,0
288,64,100053,5,0
264,72,100155,1,0
240,80,100257,1,0
216,80,100359,1,0
192,72,100461,1,8
168,64,100563,1,0
144,56,100665,1,0
120,48,100767,1,0
96,48,100870,5,0
72,56,100972,1,0
56,72,101074,1,0
40,96,101176,1,0
40,120,101278,1,8
48,144,101380,1,0
40,168,101482,1,0
32,192,101584,1,0
32,216,101686,6,0,B|64:256,3,50
64,280,102094,2,0,B|32:320,3,50,8|0|0|0
48,336,102503,5,0
72,344,102605,1,0
96,352,102707,1,0
120,352,102809,1,0
144,344,102911,1,8
168,336,103013,1,0
192,328,103115,1,0
216,320,103217,1,0
240,320,103319,5,0
264,328,103421,1,0
288,336,103523,1,0
312,328,103626,1,0
336,320,103728,1,8
360,312,103830,1,0
384,304,103932,1,0
408,304,104034,1,0
432,312,104136,5,0
456,320,104238,1,0
480,320,104340,1,0
488,296,104442,1,0
488,272,104544,1,8
480,248,104646,1,0
472,224,104748,1,0
472,200,104850,1,0
464,176,104953,6,0,B|504:136,1,50
496,112,105157,2,0,B|480:64,1,50
464,48,105361,2,0,B|419:10,1,50,8|0
400,24,105565,2,0,B|352:48,1,50
336,56,105769,6,0,B|272:56,3,50
264,48,106177,2,0,B|208:32,3,50,8|0|0|0
192,48,106586,6,0,B|152:80,3,50,0|0|0|0
128,80,106995,2,0,B|72:80,3,50,8|0|0|0
64,96,107403,6,0,B|40:152,3,50
40,168,107811,2,0,B|59:226,3,50,8|0|0|0
48,240,108219,6,0,B|40:296,3,50
48,312,108627,2,0,B|88:360,3,50,8|0|0|0
104,360,109036,5,0
128,352,109138,1,0
152,344,109240,1,0
176,336,109342,1,0
200,336,109444,1,8
224,344,109546,1,0
248,352,109648,1,0
272,360,109750,1,0
296,360,109852,5,0
320,352,109954,1,0
344,344,110056,1,0
368,336,110158,1,0
392,328,110260,1,8
416,328,110363,1,0
440,336,110465,1,0
464,336,110567,1,0
488,328,110669,5,0
496,304,110771,1,0
496,280,110873,1,0
488,256,110975,1,0
480,232,111077,1,8
472,208,111179,1,0
464,184,111281,1,0
464,160,111383,1,0
472,136,111485,6,0,B|488:88,1,50
480,64,111690,2,0,B|448:24,1,50
424,32,111894,2,0,B|368:48,1,50,8|0
352,40,112098,2,0,B|296:32,1,50
280,40,112302,5,4
256,48,112404,1,0
232,40,112506,1,0
156,158,112710,5,0
108,246,112914,2,0,B|154:277|212:241,1,100
284,190,113323,2,0,B|330:159|388:195,1,100
461,245,113731,2,0,B|492:199|455:141,1,100,4|0
384,288,114139,5,4
320,208,114343,1,0
256,288,114548,1,0
256,88,114956,5,0
192,168,115160,1,0
128,88,115364,1,0
256,192,115568,5,4
256,192,115773,1,4
456,64,116181,6,0,B|416:104,2,50
455,202,116589,2,0,B|377:280,1,100
256,192,116997,5,4
256,192,117406,1,4
56,64,117814,6,0,B|134:142,1,100
56,204,118222,2,0,B|134:282,1,100
256,192,118835,12,0,119651
256,192,119856,5,0
232,96,120060,1,8
160,168,120264,1,0
256,192,120468,12,0,121285
256,192,121489,5,0
352,168,121693,1,8
280,96,121897,1,0
256,192,122101,12,0,122918
256,192,123122,5,0
280,288,123326,1,8
352,216,123530,1,0
256,192,123734,12,0,124551
256,192,124755,5,0
160,216,124959,1,8
232,288,125163,1,0
224,88,125368,5,4
256,64,125470,1,0
288,88,125572,1,0
360,160,125776,5,8
384,192,125878,1,0
360,224,125980,1,0
288,296,126184,5,0
256,312,126286,1,0
224,296,126388,1,0
152,224,126593,5,8
136,192,126695,1,0
152,160,126797,1,0
56,192,127001,5,0
256,192,127409,2,0,B|152:192,1,100,8|0
336,104,128022,1,0
392,192,128226,1,8
336,280,128430,1,0
256,352,128634,5,0
24,192,129042,1,8
256,32,129451,1,0
488,192,129859,1,8
156,119,130267,6,0,B|260:119,1,100
404,255,130676,2,0,B|300:255,1,100
108,255,131084,2,0,B|212:255,1,100
356,119,131493,2,0,B|252:119,1,100
256,192,131900,5,4
64,80,132309,6,0,B|32:144|104:208|40:280,1,200,8|0
448,272,133125,2,0,B|480:208|408:144|472:72,1,200,8|0
56,40,133942,6,0,B|128:112,1,100
232,48,134350,2,0,B|304:120,1,100,8|0
224,208,134759,2,0,B|296:280,1,100
392,216,135167,2,0,B|464:288,2,100,0|0|8
160,288,135983,2,0,B|88:215,2,100,8|0|8
488,24,136800,6,0,B|448:64,1,50,6|0
412,103,137004,2,0,B|372:143,1,50,0|0
328,103,137208,2,0,B|288:143,1,50,0|2
248,179,137413,2,0,B|208:219,1,50,0|2
300,215,137617,6,0,B|260:175,1,50,2|0
224,136,137821,2,0,B|184:96,1,50,2|0
140,136,138025,2,0,B|100:96,1,50,0|2
60,60,138229,2,0,B|20:20,2,50,0|2|4
225,109,138637,5,0
225,109,138842,1,8
105,109,139046,1,0
105,109,139250,1,0
105,109,139454,1,0
164,213,139658,1,4
164,332,139862,1,0
164,332,140067,1,0
164,213,140271,1,0
164,213,140475,1,0
449,69,140883,5,4
49,69,141291,1,4
32,248,141700,6,0,B|32:356,1,100,4|0
32,348,142108,1,0
205,248,142312,6,0,B|97:248,1,100
105,248,142720,1,0
279,148,142925,6,0,B|279:256,1,100,4|0
279,248,143333,1,0
452,148,143537,6,0,B|344:148,1,100
352,148,143945,1,0
188,31,144150,5,4
352,148,144354,1,0
160,192,144558,1,4
328,304,144762,1,0
256,192,144966,12,4,146599
256,192,146804,5,0
256,192,147008,1,2
256,192,147212,1,0
144,120,147824,5,2
144,120,148028,1,0
256,64,148233,1,0
256,64,148437,1,2
368,120,148641,1,0
368,120,148845,1,2
368,240,149457,5,0
256,296,149662,1,0
368,240,149866,1,0
256,296,150070,1,0
144,240,150274,5,2
144,240,150478,1,0
144,120,150682,1,0
144,120,150887,1,2
256,64,151091,1,0
256,64,151295,1,0
144,120,151499,5,2
144,120,151703,1,0
256,64,151907,1,2
256,64,152111,1,2
368,120,152316,5,0
256,64,152520,1,0
368,120,152724,1,0
256,64,152928,1,0
176,192,153132,5,0
216,192,153234,1,0
256,192,153336,1,0
296,192,153438,1,0
336,192,153540,1,8
80,32,153949,5,0
56,63,154051,1,0
81,94,154153,1,0
155,64,154357,2,0,B|258:64,1,100,8|0
255,143,154765,2,0,B|359:143|359:144,1,100
435,143,155174,1,8
435,182,155276,1,0
435,221,155378,2,0,B|321:221,1,100
120,320,155990,5,8
88,344,156092,1,0
56,320,156194,1,0
88,248,156399,2,0,B|88:134,1,100
167,148,156807,2,0,B|166:253,1,100,8|0
224,192,157215,2,0,B|327:192,1,100
296,120,157624,2,0,B|399:120,1,100,8|0
439,218,158032,5,0
439,318,158236,1,0
439,218,158440,1,8
353,269,158644,1,0
193,269,158848,5,0
88,216,159053,1,0
88,96,159257,1,8
112,64,159359,1,0
151,63,159461,1,0
256,88,159665,5,0
256,128,159767,1,0
256,168,159869,1,0
256,208,159971,1,0
256,248,160073,1,8
490,262,160482,5,0
462,234,160584,1,0
432,208,160686,1,0
432,128,160890,1,8
462,102,160992,1,0
490,74,161094,1,0
320,176,161298,6,0,B|212:176,1,100
112,112,161707,2,0,B|216:112,2,100,8|0|0
320,72,162523,5,8
440,72,162727,1,0
320,72,162931,1,8
320,192,163136,1,0
321,193,163238,1,0
321,193,163340,1,0
440,192,163544,5,0
376,296,163748,1,8
256,296,163952,1,0
256,296,164054,1,0
256,296,164156,1,0
72,192,164360,5,0
136,88,164565,1,8
256,88,164769,1,0
256,88,164871,1,0
256,88,164973,1,0
432,192,165177,5,0
312,192,165381,1,8
376,88,165585,1,0
256,88,165790,1,0
256,88,165892,1,0
256,88,165994,1,0
128,192,166198,6,0,B|25:192,1,100,0|0
128,256,166606,2,0,B|241:256,2,100,8|0|0
392,192,167627,5,0
352,192,167729,1,0
312,192,167831,1,0
80,256,168239,6,0,B|192:256,1,100,8|0
280,328,168648,2,0,B|176:328,1,100,0|0
272,256,169056,2,0,B|376:256,1,100,8|0
176,256,169464,5,0
176,256,169566,1,0
176,256,169668,1,0
368,208,169873,5,8
368,208,169975,1,0
368,208,170077,1,0
176,144,170281,5,0
176,144,170383,1,0
176,144,170485,1,0
368,88,170689,5,8
368,88,170791,1,0
368,88,170893,1,0
176,32,171097,6,0,B|280:32,1,100,0|0
304,88,171404,1,0
280,144,171506,2,0,B|176:144,1,100,8|0
152,200,171812,1,0
192,248,171914,2,0,B|296:248,1,100,0|0
336,296,172220,1,0
296,344,172322,2,0,B|192:344,1,100,8|0
256,192,172731,5,0
256,192,173547,5,4
256,192,173751,12,0,180080
