osu file format v14

[General]
AudioFilename: audio.mp3
AudioLeadIn: 0
PreviewTime: 48948
Countdown: 0
SampleSet: Soft
StackLeniency: 0.7
Mode: 3
LetterboxInBreaks: 0
SpecialStyle: 0
WidescreenStoryboard: 0

[Editor]
DistanceSpacing: 0.8
BeatDivisor: 2
GridSize: 8
TimelineZoom: 0.9000001

[Metadata]
Title:The Asterisk War
TitleUnicode:The Asterisk War
Artist:Shiena Nishizawa
ArtistUnicode:Shiena Nishizawa
Creator:tuandi
Version:EZ
Source:学戦都市アスタリスク
Tags:Gakusen Toshi Opening 2 op2 Season 2 s2 anime japanese 2016 pop
BeatmapID:995250
BeatmapSetID:455374

[Difficulty]
HPDrainRate:7
CircleSize:4
OverallDifficulty:6.5
ApproachRate:5
SliderMultiplier:1.4
SliderTickRate:1

[Events]
//Background and Video events
0,0,"BG.png",0,0
//Break Periods
//Storyboard Layer 0 (Background)
//Storyboard Layer 1 (Fail)
//Storyboard Layer 2 (Pass)
//Storyboard Layer 3 (Foreground)
//Storyboard Sound Samples

[TimingPoints]
1536,419.58041958042,4,2,0,5,1,0
50207,-100,4,2,0,5,0,1
77060,-100,4,2,0,5,0,0

[HitObjects]
64,192,1536,5,0,0:0:0:0:
320,192,1956,1,0,0:0:0:0:
192,192,2375,1,0,0:0:0:0:
448,192,2795,1,0,0:0:0:0:
64,192,3214,1,0,0:0:0:0:
192,192,3633,1,0,0:0:0:0:
448,192,4054,1,0,0:0:0:0:
64,192,4473,1,0,0:0:0:0:
192,192,4683,1,0,0:0:0:0:
320,192,4893,1,0,0:0:0:0:
192,192,5312,1,0,0:0:0:0:
448,192,5731,1,0,0:0:0:0:
64,192,6151,1,0,0:0:0:0:
320,192,6570,1,0,0:0:0:0:
448,192,6991,1,0,0:0:0:0:
192,192,7410,128,0,7829:0:0:0:0:
320,192,7829,128,0,8249:0:0:0:0:
64,192,8249,1,0,0:0:0:0:
192,192,8668,1,0,0:0:0:0:
448,192,8668,1,0,0:0:0:0:
64,192,9088,1,0,0:0:0:0:
320,192,9508,1,0,0:0:0:0:
192,192,9717,1,0,0:0:0:0:
448,192,9927,1,0,0:0:0:0:
64,192,10347,1,0,0:0:0:0:
192,192,10347,1,0,0:0:0:0:
448,192,10766,1,0,0:0:0:0:
192,192,11186,1,0,0:0:0:0:
320,192,11396,1,0,0:0:0:0:
64,192,11605,1,0,0:0:0:0:
448,192,12025,1,0,0:0:0:0:
320,192,12025,1,0,0:0:0:0:
192,192,12445,1,0,0:0:0:0:
320,192,12864,1,0,0:0:0:0:
448,192,13074,1,0,0:0:0:0:
64,192,13285,1,0,0:0:0:0:
192,192,13703,1,0,0:0:0:0:
448,192,13703,1,0,0:0:0:0:
64,192,14123,1,0,0:0:0:0:
192,192,14542,1,0,0:0:0:0:
320,192,14752,1,0,0:0:0:0:
448,192,14963,1,0,0:0:0:0:
64,192,15382,1,0,0:0:0:0:
192,192,15382,1,0,0:0:0:0:
448,192,15801,1,0,0:0:0:0:
320,192,16221,1,0,0:0:0:0:
192,192,16431,1,0,0:0:0:0:
64,192,16641,1,0,0:0:0:0:
320,192,17060,1,0,0:0:0:0:
448,192,17060,1,0,0:0:0:0:
192,192,17480,1,0,0:0:0:0:
64,192,17900,1,0,0:0:0:0:
448,192,18110,1,0,0:0:0:0:
192,192,18319,1,0,0:0:0:0:
448,192,18738,1,0,0:0:0:0:
64,192,18739,1,0,0:0:0:0:
192,192,19159,1,0,0:0:0:0:
448,192,19577,1,0,0:0:0:0:
64,192,19787,1,0,0:0:0:0:
320,192,19997,1,0,0:0:0:0:
448,192,20417,1,0,0:0:0:0:
64,192,20417,1,0,0:0:0:0:
192,192,20836,1,0,0:0:0:0:
320,192,21256,128,0,21675:0:0:0:0:
64,192,21675,1,0,0:0:0:0:
448,192,21676,1,0,0:0:0:0:
192,192,22095,1,0,0:0:0:0:
320,192,22515,1,0,0:0:0:0:
448,192,22724,1,0,0:0:0:0:
320,192,22934,1,0,0:0:0:0:
448,192,23354,1,0,0:0:0:0:
192,192,23354,1,0,0:0:0:0:
320,192,23773,1,0,0:0:0:0:
192,192,24193,1,0,0:0:0:0:
64,192,24403,1,0,0:0:0:0:
192,192,24613,1,0,0:0:0:0:
320,192,25032,1,0,0:0:0:0:
64,192,25033,1,0,0:0:0:0:
448,192,25452,1,0,0:0:0:0:
192,192,25872,1,0,0:0:0:0:
320,192,26081,1,0,0:0:0:0:
64,192,26291,1,0,0:0:0:0:
448,192,26710,1,0,0:0:0:0:
320,192,26711,1,0,0:0:0:0:
192,192,27131,1,0,0:0:0:0:
320,192,27549,1,0,0:0:0:0:
448,192,27549,1,0,0:0:0:0:
192,192,27969,128,0,28389:0:0:0:0:
64,192,27970,1,0,0:0:0:0:
320,192,28389,1,0,0:0:0:0:
448,192,28389,1,0,0:0:0:0:
64,192,28808,1,0,0:0:0:0:
448,192,29228,1,0,0:0:0:0:
64,192,29438,1,0,0:0:0:0:
192,192,29647,1,0,0:0:0:0:
320,192,29647,1,0,0:0:0:0:
448,192,30067,1,0,0:0:0:0:
64,192,30487,1,0,0:0:0:0:
192,192,30907,1,0,0:0:0:0:
448,192,31116,1,0,0:0:0:0:
320,192,31326,1,0,0:0:0:0:
192,192,31326,1,0,0:0:0:0:
64,192,31745,1,0,0:0:0:0:
320,192,32165,1,0,0:0:0:0:
320,192,32795,1,0,0:0:0:0:
448,192,33005,1,0,0:0:0:0:
192,192,33214,1,0,0:0:0:0:
64,192,33424,1,0,0:0:0:0:
448,192,33843,1,0,0:0:0:0:
320,192,34263,128,0,35102:0:0:0:0:
192,192,34263,1,0,0:0:0:0:
64,192,35102,1,0,0:0:0:0:
448,192,35103,1,0,0:0:0:0:
192,192,35522,1,0,0:0:0:0:
320,192,35942,1,0,0:0:0:0:
448,192,36361,1,0,0:0:0:0:
192,192,36781,1,0,0:0:0:0:
64,192,37201,1,0,0:0:0:0:
320,192,37620,1,0,0:0:0:0:
192,192,38040,1,0,0:0:0:0:
448,192,38459,1,0,0:0:0:0:
320,192,38879,1,0,0:0:0:0:
64,192,39299,1,0,0:0:0:0:
192,192,39718,1,0,0:0:0:0:
320,192,40138,1,0,0:0:0:0:
192,192,40347,1,0,0:0:0:0:
320,192,40556,1,0,0:0:0:0:
64,192,40766,1,0,0:0:0:0:
448,192,40976,1,0,0:0:0:0:
192,192,41396,1,0,0:0:0:0:
320,192,41396,128,0,41815:0:0:0:0:
64,192,41815,1,0,0:0:0:0:
448,192,41815,1,0,0:0:0:0:
64,192,42235,1,0,0:0:0:0:
64,192,42654,1,0,0:0:0:0:
64,192,43074,1,0,0:0:0:0:
64,192,43494,1,0,0:0:0:0:
448,192,43494,1,0,0:0:0:0:
448,192,43913,1,0,0:0:0:0:
448,192,44333,1,0,0:0:0:0:
448,192,44752,1,0,0:0:0:0:
448,192,45172,1,0,0:0:0:0:
192,192,45173,1,0,0:0:0:0:
192,192,45591,1,0,0:0:0:0:
192,192,46011,1,0,0:0:0:0:
192,192,46431,1,0,0:0:0:0:
192,192,46850,1,0,0:0:0:0:
320,192,46850,1,0,0:0:0:0:
320,192,47270,1,0,0:0:0:0:
320,192,47689,1,0,0:0:0:0:
320,192,48109,1,0,0:0:0:0:
64,192,48529,1,0,0:0:0:0:
192,192,48529,1,0,0:0:0:0:
320,192,48948,1,0,0:0:0:0:
448,192,48949,1,0,0:0:0:0:
192,192,49368,128,0,49787:0:0:0:0:
64,192,49787,128,0,50207:0:0:0:0:
320,192,50207,1,0,0:0:0:0:
448,192,50208,1,0,0:0:0:0:
192,192,50627,1,0,0:0:0:0:
448,192,51046,1,0,0:0:0:0:
64,192,51256,1,0,0:0:0:0:
192,192,51466,1,0,0:0:0:0:
320,192,51466,1,0,0:0:0:0:
448,192,51885,1,0,0:0:0:0:
320,192,52305,1,0,0:0:0:0:
64,192,52724,1,0,0:0:0:0:
448,192,52934,1,0,0:0:0:0:
192,192,53144,1,0,0:0:0:0:
320,192,53144,1,0,0:0:0:0:
448,192,53563,1,0,0:0:0:0:
320,192,53983,1,0,0:0:0:0:
64,192,54403,1,0,0:0:0:0:
192,192,54612,1,0,0:0:0:0:
320,192,54822,1,0,0:0:0:0:
448,192,54822,1,0,0:0:0:0:
64,192,55242,1,0,0:0:0:0:
192,192,55661,1,0,0:0:0:0:
448,192,56081,1,0,0:0:0:0:
320,192,56292,1,0,0:0:0:0:
192,192,56501,1,0,0:0:0:0:
64,192,56501,1,0,0:0:0:0:
320,192,56921,1,0,0:0:0:0:
448,192,57340,1,0,0:0:0:0:
64,192,57759,1,0,0:0:0:0:
320,192,57969,1,0,0:0:0:0:
448,192,58179,1,0,0:0:0:0:
192,192,58179,1,0,0:0:0:0:
64,192,58598,1,0,0:0:0:0:
192,192,59018,1,0,0:0:0:0:
448,192,59438,1,0,0:0:0:0:
192,192,59647,1,0,0:0:0:0:
64,192,59857,1,0,0:0:0:0:
320,192,59858,1,0,0:0:0:0:
448,192,60277,1,0,0:0:0:0:
192,192,60278,1,0,0:0:0:0:
64,192,60487,1,0,0:0:0:0:
64,192,60696,1,0,0:0:0:0:
320,192,60906,1,0,0:0:0:0:
192,192,60906,1,0,0:0:0:0:
448,192,61326,1,0,0:0:0:0:
448,192,61536,1,0,0:0:0:0:
192,192,61745,1,0,0:0:0:0:
320,192,61745,1,0,0:0:0:0:
448,192,62375,1,0,0:0:0:0:
192,192,62795,1,0,0:0:0:0:
320,192,63214,128,0,63633:0:0:0:0:
64,192,63215,1,0,0:0:0:0:
448,192,63633,1,0,0:0:0:0:
192,192,63634,1,0,0:0:0:0:
64,192,64053,1,0,0:0:0:0:
192,192,64473,1,0,0:0:0:0:
64,192,64682,1,0,0:0:0:0:
448,192,64892,1,0,0:0:0:0:
192,192,64893,1,0,0:0:0:0:
320,192,65312,1,0,0:0:0:0:
448,192,65731,1,0,0:0:0:0:
320,192,66151,1,0,0:0:0:0:
448,192,66361,1,0,0:0:0:0:
64,192,66570,1,0,0:0:0:0:
320,192,66571,1,0,0:0:0:0:
192,192,66990,1,0,0:0:0:0:
64,192,67410,1,0,0:0:0:0:
448,192,67829,1,0,0:0:0:0:
192,192,68039,1,0,0:0:0:0:
320,192,68249,1,0,0:0:0:0:
448,192,68249,1,0,0:0:0:0:
64,192,68669,1,0,0:0:0:0:
448,192,69088,1,0,0:0:0:0:
64,192,69508,1,0,0:0:0:0:
320,192,69717,1,0,0:0:0:0:
64,192,69927,1,0,0:0:0:0:
192,192,69928,1,0,0:0:0:0:
320,192,70347,1,0,0:0:0:0:
448,192,70347,1,0,0:0:0:0:
192,192,70767,1,0,0:0:0:0:
320,192,71187,1,0,0:0:0:0:
64,192,71396,1,0,0:0:0:0:
192,192,71605,1,0,0:0:0:0:
448,192,71605,1,0,0:0:0:0:
64,192,72025,1,0,0:0:0:0:
320,192,72445,1,0,0:0:0:0:
192,192,72864,1,0,0:0:0:0:
448,192,73074,1,0,0:0:0:0:
64,192,73284,1,0,0:0:0:0:
320,192,73284,1,0,0:0:0:0:
448,192,73703,1,0,0:0:0:0:
64,192,73704,1,0,0:0:0:0:
320,192,73913,1,0,0:0:0:0:
320,192,74123,1,0,0:0:0:0:
448,192,74333,1,0,0:0:0:0:
64,192,74333,1,0,0:0:0:0:
192,192,74752,1,0,0:0:0:0:
192,192,74963,1,0,0:0:0:0:
64,192,75172,1,0,0:0:0:0:
448,192,75172,1,0,0:0:0:0:
192,192,75802,1,0,0:0:0:0:
320,192,76222,1,0,0:0:0:0:
192,192,76640,128,0,77060:0:0:0:0:
64,192,77061,1,0,0:0:0:0:
448,192,77061,1,0,0:0:0:0:
192,192,77480,1,0,0:0:0:0:
320,192,77900,1,0,0:0:0:0:
64,192,78319,1,0,0:0:0:0:
448,192,78739,1,0,0:0:0:0:
192,192,78739,1,0,0:0:0:0:
320,192,79158,1,0,0:0:0:0:
64,192,79578,1,0,0:0:0:0:
448,192,79998,1,0,0:0:0:0:
192,192,80417,1,0,0:0:0:0:
320,192,80417,1,0,0:0:0:0:
64,192,80837,1,0,0:0:0:0:
448,192,81257,1,0,0:0:0:0:
192,192,81676,1,0,0:0:0:0:
64,192,82096,1,0,0:0:0:0:
320,192,82096,1,0,0:0:0:0:
192,192,82515,1,0,0:0:0:0:
448,192,82934,1,0,0:0:0:0:
320,192,83354,1,0,0:0:0:0:
448,192,83773,1,0,0:0:0:0:
64,192,83774,1,0,0:0:0:0:
