osu file format v14

[General]
AudioFilename: Fubuki.mp3
AudioLeadIn: 0
PreviewTime: 60739
Countdown: 0
SampleSet: Normal
StackLeniency: 0.8
Mode: 1
LetterboxInBreaks: 0
WidescreenStoryboard: 0

[Editor]
Bookmarks: 82734
DistanceSpacing: 1
BeatDivisor: 4
GridSize: 32
TimelineZoom: 1.9

[Metadata]
Title:FUBUKI
TitleUnicode:吹雪
Artist:Shiena Nishizawa
ArtistUnicode:西沢幸奏
Creator:snowball112
Version:Oni
Source:Fleet Girls Collection KanColle Animation Sequence
Tags:ending TV Size kantai 艦隊これくしょん 艦これ
BeatmapID:654999
BeatmapSetID:290799

[Difficulty]
HPDrainRate:5
CircleSize:2
OverallDifficulty:5
ApproachRate:0
SliderMultiplier:1.4
SliderTickRate:1

[Events]
//Background and Video events
0,0,"kancolle.jpg",0,105
//Break Periods
//Storyboard Layer 0 (Background)
//Storyboard Layer 1 (Fail)
//Storyboard Layer 2 (Pass)
//Storyboard Layer 3 (Foreground)
//Storyboard Sound Samples

[TimingPoints]
2740,333.333333333333,4,1,1,80,1,0
61406,-100,4,1,1,80,0,1
82739,-100,4,1,1,80,0,0

[HitObjects]
256,192,2072,5,0,0:0:0:0:
256,192,2572,1,0,0:0:0:0:
256,192,2739,1,12,0:0:0:0:
256,192,3406,1,0,0:0:0:0:
256,192,4073,1,0,0:0:0:0:
256,192,4739,1,8,0:0:0:0:
256,192,5239,1,0,0:0:0:0:
256,192,5406,1,4,0:0:0:0:
256,192,6073,5,0,0:0:0:0:
256,192,6739,1,8,0:0:0:0:
256,192,7073,1,0,0:0:0:0:
256,192,7406,1,0,0:0:0:0:
256,192,7739,1,0,0:0:0:0:
256,192,7962,1,0,0:0:0:0:
256,192,8073,1,8,0:0:0:0:
256,192,8406,1,0,0:0:0:0:
256,192,8739,1,8,0:0:0:0:
256,192,9073,1,0,0:0:0:0:
256,192,9295,1,0,0:0:0:0:
256,192,9406,1,8,0:0:0:0:
256,192,9739,1,0,0:0:0:0:
256,192,10073,1,8,0:0:0:0:
256,192,10406,1,0,0:0:0:0:
256,192,10517,1,0,0:0:0:0:
256,192,10628,1,0,0:0:0:0:
256,192,10739,1,8,0:0:0:0:
256,192,11073,1,0,0:0:0:0:
256,192,11406,1,8,0:0:0:0:
256,192,11739,1,0,0:0:0:0:
256,192,12073,1,8,0:0:0:0:
256,192,12406,1,0,0:0:0:0:
256,192,12517,1,0,0:0:0:0:
256,192,12628,1,0,0:0:0:0:
256,192,12740,1,0,0:0:0:0:
256,192,12851,1,0,0:0:0:0:
256,192,12962,1,0,0:0:0:0:
256,192,13073,1,8,0:0:0:0:
256,192,13406,1,8,0:0:0:0:
256,192,14739,1,8,0:0:0:0:
256,192,14823,1,8,0:0:0:0:
256,192,14906,1,8,0:0:0:0:
256,192,14989,1,8,0:0:0:0:
256,192,15073,1,0,0:0:0:0:
256,192,15156,1,8,0:0:0:0:
256,192,15239,1,0,0:0:0:0:
256,192,15323,1,8,0:0:0:0:
256,192,15406,1,0,0:0:0:0:
256,192,15573,1,0,0:0:0:0:
256,192,15656,1,0,0:0:0:0:
256,192,15739,1,8,0:0:0:0:
256,192,15906,1,0,0:0:0:0:
256,192,16073,1,12,0:0:0:0:
256,192,16239,1,0,0:0:0:0:
256,192,16323,1,0,0:0:0:0:
256,192,16406,1,8,0:0:0:0:
256,192,16573,1,0,0:0:0:0:
256,192,16739,1,8,0:0:0:0:
256,192,17073,1,0,0:0:0:0:
256,192,17406,1,8,0:0:0:0:
256,192,17573,1,0,0:0:0:0:
256,192,17656,1,0,0:0:0:0:
256,192,17739,1,8,0:0:0:0:
256,192,17906,1,0,0:0:0:0:
256,192,18073,1,8,0:0:0:0:
256,192,18239,1,8,0:0:0:0:
256,192,18406,1,0,0:0:0:0:
256,192,18739,1,8,0:0:0:0:
256,192,18906,1,0,0:0:0:0:
256,192,18989,1,0,0:0:0:0:
256,192,19073,1,8,0:0:0:0:
256,192,19239,1,0,0:0:0:0:
256,192,19323,1,0,0:0:0:0:
256,192,19406,1,8,0:0:0:0:
256,192,19573,1,0,0:0:0:0:
256,192,19739,1,0,0:0:0:0:
256,192,20073,1,8,0:0:0:0:
256,192,20239,1,0,0:0:0:0:
256,192,20406,1,0,0:0:0:0:
256,192,20573,1,0,0:0:0:0:
256,192,20656,1,0,0:0:0:0:
256,192,20739,1,8,0:0:0:0:
256,192,20906,1,0,0:0:0:0:
256,192,21073,1,8,0:0:0:0:
256,192,21406,1,8,0:0:0:0:
256,192,21573,1,0,0:0:0:0:
256,192,21656,1,0,0:0:0:0:
256,192,21739,1,8,0:0:0:0:
256,192,21906,1,0,0:0:0:0:
256,192,22073,1,8,0:0:0:0:
256,192,22239,1,0,0:0:0:0:
256,192,22406,1,0,0:0:0:0:
256,192,22739,1,8,0:0:0:0:
256,192,22906,1,0,0:0:0:0:
256,192,23073,1,8,0:0:0:0:
256,192,23239,1,0,0:0:0:0:
256,192,23323,1,0,0:0:0:0:
256,192,23406,1,8,0:0:0:0:
256,192,23573,1,0,0:0:0:0:
256,192,23739,1,8,0:0:0:0:
256,192,24073,1,8,0:0:0:0:
256,192,24239,1,0,0:0:0:0:
256,192,24406,1,0,0:0:0:0:
256,192,24573,1,0,0:0:0:0:
256,192,24656,1,0,0:0:0:0:
256,192,24739,1,8,0:0:0:0:
256,192,24906,1,0,0:0:0:0:
256,192,25073,1,0,0:0:0:0:
256,192,25239,1,0,0:0:0:0:
256,192,25406,1,8,0:0:0:0:
256,192,25739,1,8,0:0:0:0:
256,192,26073,1,8,0:0:0:0:
256,192,26239,1,0,0:0:0:0:
256,192,26323,1,0,0:0:0:0:
256,192,26406,1,8,0:0:0:0:
256,192,26573,1,0,0:0:0:0:
256,192,26739,1,12,0:0:0:0:
256,192,27073,1,0,0:0:0:0:
256,192,27239,1,8,0:0:0:0:
256,192,27406,1,0,0:0:0:0:
256,192,27573,1,0,0:0:0:0:
256,192,27739,1,8,0:0:0:0:
256,192,28073,1,0,0:0:0:0:
256,192,28406,1,8,0:0:0:0:
256,192,28573,1,0,0:0:0:0:
256,192,28739,1,8,0:0:0:0:
256,192,28906,1,0,0:0:0:0:
256,192,29073,1,0,0:0:0:0:
256,192,29239,1,8,0:0:0:0:
256,192,29323,1,8,0:0:0:0:
256,192,29406,1,0,0:0:0:0:
256,192,29739,1,0,0:0:0:0:
256,192,29906,1,8,0:0:0:0:
256,192,30073,1,0,0:0:0:0:
256,192,30239,1,0,0:0:0:0:
256,192,30406,1,8,0:0:0:0:
256,192,30739,1,0,0:0:0:0:
256,192,31073,1,0,0:0:0:0:
256,192,31239,1,0,0:0:0:0:
256,192,31406,1,8,0:0:0:0:
256,192,31573,1,8,0:0:0:0:
256,192,31739,1,0,0:0:0:0:
256,192,31906,1,0,0:0:0:0:
256,192,31989,1,0,0:0:0:0:
256,192,32073,1,8,0:0:0:0:
256,192,32406,1,0,0:0:0:0:
256,192,32573,1,0,0:0:0:0:
256,192,32739,1,8,0:0:0:0:
256,192,33073,1,0,0:0:0:0:
256,192,33239,1,0,0:0:0:0:
256,192,33406,1,8,0:0:0:0:
256,192,33739,1,0,0:0:0:0:
256,192,33906,1,0,0:0:0:0:
256,192,33989,1,0,0:0:0:0:
256,192,34073,1,8,0:0:0:0:
256,192,34239,1,0,0:0:0:0:
256,192,34406,1,8,0:0:0:0:
256,192,34739,1,8,0:0:0:0:
256,192,35073,1,0,0:0:0:0:
256,192,35239,1,0,0:0:0:0:
256,192,35323,1,0,0:0:0:0:
256,192,35406,1,8,0:0:0:0:
256,192,35739,1,0,0:0:0:0:
256,192,35906,1,0,0:0:0:0:
256,192,36073,1,8,0:0:0:0:
256,192,36406,1,0,0:0:0:0:
256,192,36573,1,0,0:0:0:0:
256,192,36739,1,8,0:0:0:0:
256,192,36906,1,8,0:0:0:0:
256,192,37073,1,8,0:0:0:0:
256,192,37239,1,0,0:0:0:0:
256,192,37323,1,0,0:0:0:0:
256,192,37406,1,8,0:0:0:0:
256,192,37739,1,0,0:0:0:0:
256,192,37906,1,8,0:0:0:0:
256,192,38073,1,0,0:0:0:0:
256,192,38239,1,0,0:0:0:0:
256,192,38406,1,8,0:0:0:0:
256,192,38739,1,0,0:0:0:0:
256,192,39073,1,8,0:0:0:0:
256,192,39239,1,0,0:0:0:0:
256,192,39323,1,0,0:0:0:0:
256,192,39406,1,8,0:0:0:0:
256,192,39573,1,0,0:0:0:0:
256,192,39739,1,8,0:0:0:0:
256,192,39906,1,0,0:0:0:0:
256,192,39989,1,8,0:0:0:0:
256,192,40073,1,0,0:0:0:0:
256,192,40406,1,0,0:0:0:0:
256,192,40573,1,0,0:0:0:0:
256,192,40656,1,0,0:0:0:0:
256,192,40739,1,8,0:0:0:0:
256,192,40906,1,0,0:0:0:0:
256,192,40989,1,8,0:0:0:0:
256,192,41073,1,8,0:0:0:0:
256,192,41239,1,0,0:0:0:0:
256,192,41406,1,8,0:0:0:0:
256,192,41739,1,0,0:0:0:0:
256,192,42073,1,8,0:0:0:0:
256,192,42239,1,0,0:0:0:0:
256,192,42406,1,8,0:0:0:0:
256,192,42573,5,0,0:0:0:0:
256,192,42656,1,0,0:0:0:0:
256,192,42739,1,8,0:0:0:0:
256,192,43073,1,0,0:0:0:0:
256,192,43239,1,0,0:0:0:0:
256,192,43406,1,8,0:0:0:0:
256,192,43739,1,0,0:0:0:0:
256,192,43906,1,0,0:0:0:0:
256,192,44073,1,8,0:0:0:0:
256,192,44406,1,0,0:0:0:0:
256,192,44573,1,0,0:0:0:0:
256,192,44739,1,8,0:0:0:0:
256,192,44906,1,8,0:0:0:0:
256,192,45073,1,8,0:0:0:0:
256,192,45239,1,0,0:0:0:0:
256,192,45323,1,0,0:0:0:0:
256,192,45406,1,8,0:0:0:0:
256,192,45739,1,0,0:0:0:0:
256,192,45906,1,0,0:0:0:0:
256,192,46073,1,8,0:0:0:0:
256,192,46406,1,8,0:0:0:0:
256,192,46573,1,0,0:0:0:0:
256,192,46656,1,0,0:0:0:0:
256,192,46739,1,8,0:0:0:0:
256,192,46906,1,0,0:0:0:0:
256,192,47073,1,8,0:0:0:0:
256,192,47156,1,0,0:0:0:0:
256,192,47239,1,0,0:0:0:0:
256,192,47322,1,0,0:0:0:0:
256,192,47406,1,8,0:0:0:0:
256,192,47573,1,0,0:0:0:0:
256,192,47739,1,8,0:0:0:0:
256,192,47906,1,0,0:0:0:0:
256,192,47989,1,0,0:0:0:0:
256,192,48073,1,8,0:0:0:0:
256,192,48739,1,0,0:0:0:0:
256,192,49406,1,0,0:0:0:0:
256,192,49906,1,0,0:0:0:0:
256,192,50073,1,8,0:0:0:0:
256,192,50573,1,0,0:0:0:0:
256,192,50739,1,4,0:0:0:0:
256,192,51239,1,0,0:0:0:0:
256,192,51406,1,0,0:0:0:0:
256,192,51906,1,0,0:0:0:0:
256,192,52073,1,8,0:0:0:0:
256,192,52406,1,8,0:0:0:0:
256,192,52739,1,8,0:0:0:0:
256,192,52906,1,0,0:0:0:0:
256,192,52989,1,0,0:0:0:0:
256,192,53073,1,8,0:0:0:0:
256,192,53239,1,0,0:0:0:0:
256,192,53406,1,4,0:0:0:0:
256,192,53739,1,8,0:0:0:0:
256,192,53906,1,0,0:0:0:0:
256,192,53989,1,0,0:0:0:0:
256,192,54073,1,0,0:0:0:0:
256,192,54239,1,0,0:0:0:0:
256,192,54406,1,8,0:0:0:0:
256,192,54573,1,8,0:0:0:0:
256,192,54739,1,0,0:0:0:0:
256,192,55073,1,0,0:0:0:0:
256,192,55240,1,0,0:0:0:0:
256,192,55323,1,0,0:0:0:0:
256,192,55407,1,8,0:0:0:0:
256,192,55573,1,0,0:0:0:0:
256,192,55740,1,0,0:0:0:0:
256,192,55907,1,0,0:0:0:0:
256,192,56073,1,8,0:0:0:0:
256,192,56156,1,0,0:0:0:0:
256,192,56239,1,0,0:0:0:0:
256,192,56406,1,0,0:0:0:0:
256,192,56573,1,8,0:0:0:0:
256,192,56906,1,0,0:0:0:0:
256,192,57073,1,8,0:0:0:0:
256,192,57239,1,0,0:0:0:0:
256,192,57406,1,8,0:0:0:0:
256,192,57489,1,0,0:0:0:0:
256,192,57573,1,0,0:0:0:0:
256,192,57739,1,0,0:0:0:0:
256,192,57906,1,8,0:0:0:0:
256,192,58239,1,0,0:0:0:0:
256,192,58406,1,8,0:0:0:0:
256,192,58573,1,0,0:0:0:0:
256,192,58739,1,8,0:0:0:0:
256,192,58823,1,0,0:0:0:0:
256,192,58906,1,0,0:0:0:0:
256,192,59073,1,0,0:0:0:0:
256,192,59240,1,0,0:0:0:0:
256,192,59406,1,8,0:0:0:0:
256,192,59573,1,8,0:0:0:0:
256,192,59740,1,8,0:0:0:0:
256,192,59906,1,4,0:0:0:0:
256,192,60073,1,4,0:0:0:0:
256,192,60239,1,12,0:0:0:0:
256,192,60406,1,12,0:0:0:0:
256,192,60739,1,0,0:0:0:0:
256,192,60823,1,0,0:0:0:0:
256,192,60906,1,0,0:0:0:0:
256,192,60989,1,0,0:0:0:0:
256,192,61073,1,0,0:0:0:0:
256,192,61156,1,0,0:0:0:0:
256,192,61239,1,0,0:0:0:0:
256,192,61323,1,0,0:0:0:0:
256,192,61406,1,8,0:0:0:0:
256,192,61739,1,0,0:0:0:0:
256,192,61906,1,0,0:0:0:0:
256,192,61989,1,0,0:0:0:0:
256,192,62073,1,8,0:0:0:0:
256,192,62239,1,0,0:0:0:0:
256,192,62406,1,0,0:0:0:0:
256,192,62573,1,0,0:0:0:0:
256,192,62739,1,8,0:0:0:0:
256,192,62906,1,0,0:0:0:0:
256,192,62989,1,0,0:0:0:0:
256,192,63073,1,8,0:0:0:0:
256,192,63406,1,8,0:0:0:0:
256,192,63739,1,8,0:0:0:0:
256,192,63906,1,0,0:0:0:0:
256,192,63989,1,8,0:0:0:0:
256,192,64073,1,8,0:0:0:0:
256,192,64239,1,0,0:0:0:0:
256,192,64406,1,8,0:0:0:0:
256,192,64573,1,0,0:0:0:0:
256,192,64656,1,0,0:0:0:0:
256,192,64739,1,8,0:0:0:0:
256,192,64906,1,0,0:0:0:0:
256,192,65073,1,8,0:0:0:0:
256,192,65239,1,8,0:0:0:0:
256,192,65406,5,8,0:0:0:0:
256,192,65573,1,0,0:0:0:0:
256,192,65656,1,0,0:0:0:0:
256,192,65739,1,8,0:0:0:0:
256,192,65906,1,0,0:0:0:0:
256,192,65989,1,8,0:0:0:0:
256,192,66073,1,8,0:0:0:0:
256,192,66239,1,0,0:0:0:0:
256,192,66323,5,0,0:0:0:0:
256,192,66406,1,8,0:0:0:0:
256,192,66739,1,8,0:0:0:0:
256,192,67073,1,0,0:0:0:0:
256,192,67239,1,0,0:0:0:0:
256,192,67406,1,8,0:0:0:0:
256,192,67573,1,0,0:0:0:0:
256,192,67739,1,0,0:0:0:0:
256,192,67906,1,0,0:0:0:0:
256,192,68073,1,8,0:0:0:0:
256,192,68406,1,0,0:0:0:0:
256,192,68573,1,0,0:0:0:0:
256,192,68739,1,8,0:0:0:0:
256,192,68906,1,0,0:0:0:0:
256,192,69073,1,8,0:0:0:0:
256,192,69239,1,0,0:0:0:0:
256,192,69406,1,8,0:0:0:0:
256,192,69573,1,0,0:0:0:0:
256,192,69656,1,8,0:0:0:0:
256,192,69739,1,0,0:0:0:0:
256,192,69905,1,0,0:0:0:0:
256,192,69989,1,0,0:0:0:0:
256,192,70072,1,8,0:0:0:0:
256,192,70239,1,0,0:0:0:0:
256,192,70406,1,8,0:0:0:0:
256,192,70573,1,0,0:0:0:0:
256,192,70656,1,0,0:0:0:0:
256,192,70739,1,8,0:0:0:0:
256,192,71073,1,8,0:0:0:0:
256,192,71239,1,8,0:0:0:0:
256,192,71406,1,0,0:0:0:0:
256,192,71489,1,0,0:0:0:0:
256,192,71573,1,0,0:0:0:0:
256,192,71656,1,0,0:0:0:0:
256,192,71739,1,0,0:0:0:0:
256,192,71823,1,0,0:0:0:0:
256,192,71906,1,0,0:0:0:0:
256,192,71989,1,0,0:0:0:0:
256,192,72073,1,8,0:0:0:0:
256,192,72406,1,0,0:0:0:0:
256,192,72573,1,0,0:0:0:0:
256,192,72656,1,0,0:0:0:0:
256,192,72739,1,8,0:0:0:0:
256,192,72906,1,0,0:0:0:0:
256,192,73072,1,0,0:0:0:0:
256,192,73239,1,0,0:0:0:0:
256,192,73405,1,8,0:0:0:0:
256,192,73573,1,0,0:0:0:0:
256,192,73656,1,0,0:0:0:0:
256,192,73739,1,0,0:0:0:0:
256,192,74073,1,8,0:0:0:0:
256,192,74406,1,0,0:0:0:0:
256,192,74573,1,0,0:0:0:0:
256,192,74656,1,0,0:0:0:0:
256,192,74739,1,8,0:0:0:0:
256,192,74906,1,0,0:0:0:0:
256,192,75073,1,8,0:0:0:0:
256,192,75239,1,0,0:0:0:0:
256,192,75323,1,0,0:0:0:0:
256,192,75406,1,8,0:0:0:0:
256,192,75573,1,0,0:0:0:0:
256,192,75739,1,0,0:0:0:0:
256,192,75906,1,0,0:0:0:0:
256,192,76073,1,8,0:0:0:0:
256,192,76406,1,8,0:0:0:0:
256,192,76573,1,0,0:0:0:0:
256,192,76656,1,0,0:0:0:0:
256,192,76739,1,8,0:0:0:0:
256,192,76906,1,0,0:0:0:0:
256,192,77073,1,8,0:0:0:0:
256,192,77406,1,8,0:0:0:0:
256,192,77489,1,0,0:0:0:0:
256,192,77573,1,0,0:0:0:0:
256,192,77656,1,0,0:0:0:0:
256,192,77739,1,0,0:0:0:0:
256,192,77823,1,0,0:0:0:0:
256,192,77906,1,0,0:0:0:0:
256,192,77990,1,0,0:0:0:0:
256,192,78073,1,8,0:0:0:0:
256,192,78406,1,12,0:0:0:0:
256,192,78739,1,8,0:0:0:0:
256,192,78824,1,0,0:0:0:0:
256,192,78907,1,0,0:0:0:0:
256,192,78990,1,0,0:0:0:0:
256,192,79073,1,0,0:0:0:0:
256,192,79157,1,0,0:0:0:0:
256,192,79240,1,0,0:0:0:0:
256,192,79324,1,0,0:0:0:0:
256,192,79406,1,8,0:0:0:0:
256,192,79739,1,4,0:0:0:0:
256,192,80073,1,12,0:0:0:0:
256,192,80406,1,0,0:0:0:0:
256,192,80573,1,8,0:0:0:0:
256,192,80656,1,8,0:0:0:0:
256,192,80739,1,8,0:0:0:0:
256,192,80906,1,0,0:0:0:0:
256,192,81073,1,0,0:0:0:0:
256,192,81239,1,0,0:0:0:0:
256,192,81406,1,8,0:0:0:0:
256,192,81739,1,8,0:0:0:0:
256,192,82073,1,8,0:0:0:0:
256,192,82156,1,8,0:0:0:0:
256,192,82239,1,8,0:0:0:0:
256,192,82322,1,8,0:0:0:0:
256,192,82405,1,0,0:0:0:0:
256,192,82489,1,8,0:0:0:0:
256,192,82573,1,0,0:0:0:0:
256,192,82656,1,8,0:0:0:0:
256,192,82738,1,0,0:0:0:0:
256,192,83073,1,8,0:0:0:0:
256,192,83406,1,0,0:0:0:0:
256,192,83573,1,0,0:0:0:0:
256,192,83739,1,8,0:0:0:0:
256,192,84073,1,4,0:0:0:0:
256,192,84406,1,8,0:0:0:0:
256,192,84739,1,0,0:0:0:0:
256,192,84906,1,0,0:0:0:0:
256,192,85073,1,8,0:0:0:0:
256,192,85406,1,4,0:0:0:0:
256,192,85573,1,8,0:0:0:0:
256,192,85739,1,0,0:0:0:0:
256,192,85906,1,8,0:0:0:0:
256,192,86073,1,8,0:0:0:0:
256,192,86157,1,8,0:0:0:0:
256,192,86239,1,8,0:0:0:0:
256,192,86323,1,8,0:0:0:0:
256,192,86406,1,0,0:0:0:0:
256,192,86489,1,8,0:0:0:0:
256,192,86573,1,0,0:0:0:0:
256,192,86656,1,8,0:0:0:0:
256,192,86739,1,0,0:0:0:0:
256,192,86906,1,8,0:0:0:0:
256,192,87073,1,0,0:0:0:0:
256,192,87156,1,0,0:0:0:0:
256,192,87239,1,8,0:0:0:0:
256,192,87323,1,8,0:0:0:0:
256,192,87406,1,0,0:0:0:0:
256,192,87489,1,8,0:0:0:0:
256,192,87573,1,0,0:0:0:0:
256,192,87656,1,8,0:0:0:0:
256,192,87739,1,0,0:0:0:0:
256,192,87906,1,4,0:0:0:0:
256,192,88073,1,12,0:0:0:0:
